osu file format v14

[General]
AudioFilename: SawanoHiroyuki[nZk] mica - Summer Tears.mp3
AudioLeadIn: 2000
PreviewTime: 53012
Countdown: 0
SampleSet: Soft
StackLeniency: 0.7
Mode: 0
LetterboxInBreaks: 0
WidescreenStoryboard: 0

[Editor]
Bookmarks: 179,10845,21512,32179,42845,53512,80179,89512,90845,101512,112179,122845,149512
DistanceSpacing: 1.6
BeatDivisor: 4
GridSize: 4
TimelineZoom: 1

[Metadata]
Title:Summer Tears
TitleUnicode:Summer Tears
Artist:SawanoHiroyuki[nZk]:mica
ArtistUnicode:SawanoHiroyuki[nZk]:mica
Creator:appleeaterx
Version:Advanced
Source:
Tags:caldito o1 澤野弘之 HabiHolic
BeatmapID:883323
BeatmapSetID:406467

[Difficulty]
HPDrainRate:4
CircleSize:3.7
OverallDifficulty:4.5
ApproachRate:6
SliderMultiplier:2.4
SliderTickRate:2

[Events]
//Background and Video events
0,0,"background.jpg",0,0
//Break Periods
2,80378,88462
//Storyboard Layer 0 (Background)
//Storyboard Layer 1 (Fail)
//Storyboard Layer 2 (Pass)
//Storyboard Layer 3 (Foreground)
//Storyboard Sound Samples

[TimingPoints]
179,666.666666666667,4,2,1,45,1,0
179,-117.647058823529,4,2,1,45,0,0
10845,-117.647058823529,4,2,1,55,0,0
21512,-117.647058823529,4,2,1,60,0,0
53512,-117.647058823529,4,2,1,75,0,1
80179,-117.647058823529,4,2,1,75,0,0
89512,-117.647058823529,4,2,1,65,0,0
90845,-117.647058823529,4,2,1,55,0,0
101512,-117.647058823529,4,2,1,60,0,0
122845,-117.647058823529,4,2,1,75,0,1
133345,-117.647058823529,4,2,1,45,0,1
133512,-117.647058823529,4,2,1,75,0,1
149512,-117.647058823529,4,2,1,75,0,0

[Colours]
Combo1 : 80,142,237
Combo2 : 128,255,128
Combo3 : 100,241,249
Combo4 : 255,128,255

[HitObjects]
72,104,179,6,0,L|196:96,1,102.000001945496,2|0,0:0|0:0,0:0:0:0:
232,40,679,2,0,P|252:88|236:144,1,102.000001945496,0|0,3:0|0:0,0:0:0:0:
172,176,1179,1,0,3:0:0:0:
240,220,1345,2,0,L|368:204,1,102.000001945496,0|0,0:0|3:0,0:0:0:0:
368,128,1845,1,0,3:0:0:0:
444,156,2012,2,0,L|432:276,1,102.000001945496,0|0,3:0|0:0,0:0:0:0:
372,312,2512,1,0,3:0:0:0:
240,220,2845,6,0,P|184:216|140:252,1,102.000001945496,2|0,0:0|0:0,0:0:0:0:
80,288,3345,2,0,P|56:220|68:168,1,102.000001945496,0|0,3:0|0:0,0:0:0:0:
108,124,3845,1,0,3:0:0:0:
180,88,4012,2,0,L|300:76,1,102.000001945496,0|0,0:0|3:0,0:0:0:0:
356,116,4512,1,0,3:0:0:0:
360,196,4679,2,0,L|240:208,1,102.000001945496,0|0,3:0|0:0,0:0:0:0:
212,272,5179,1,0,3:0:0:0:
356,352,5512,6,0,P|404:364|468:324,1,102.000001945496,2|0,0:0|0:0,0:0:0:0:
496,276,6012,2,0,L|488:164,1,102.000001945496,0|0,3:0|0:0,0:0:0:0:
456,100,6512,1,0,3:0:0:0:
376,96,6679,2,0,P|304:104|272:68,1,102.000001945496,0|0,0:0|3:0,0:0:0:0:
224,32,7179,1,0,3:0:0:0:
144,48,7345,2,0,L|16:56,1,102.000001945496,0|0,3:0|0:0,0:0:0:0:
51,136,7845,2,0,L|-29:140,1,51.0000009727478,0|0,3:0|0:0,0:0:0:0:
19,219,8179,6,0,L|23:331,1,102.000001945496,2|0,0:0|0:0,0:0:0:0:
101,344,8679,2,0,L|117:232,1,102.000001945496,0|0,3:0|0:0,0:0:0:0:
185,200,9179,1,0,3:0:0:0:
312,301,9512,2,0,P|380:313|444:257,2,153.000002918243,2|0|0,0:0|3:0|0:0,0:0:0:0:
185,200,10845,6,0,P|177:140|189:96,1,102.000001945496,6|0,0:0|0:0,0:0:0:0:
349,78,11512,2,0,L|429:70,2,51.0000009727478,0|0|0,3:0|0:0|0:0,0:0:0:0:
280,122,12012,2,0,L|284:238,1,102.000001945496,0|0,0:0|3:0,0:0:0:0:
270,304,12512,2,0,L|346:296,1,51.0000009727478,0|0,3:0|3:0,0:0:0:0:
386,250,12845,2,0,L|454:242,1,51.0000009727478
497,188,13179,1,0,0:0:0:0:
460,32,13512,6,0,P|404:40|332:0,1,102.000001945496,2|0,0:0|0:0,0:0:0:0:
280,20,14012,1,0,3:0:0:0:
253,97,14179,2,0,P|233:181|233:209,1,102.000001945496,0|0,0:0|3:0,0:0:0:0:
262,272,14679,2,0,P|186:284|122:304,1,102.000001945496
95,337,15179,1,0,3:0:0:0:
42,275,15345,2,0,P|42:211|66:151,1,102.000001945496,0|0,3:0|3:0,0:0:0:0:
106,113,15845,1,0,3:0:0:0:
252,192,16179,6,0,L|388:176,1,102.000001945496,2|0,0:0|0:0,0:0:0:0:
424,140,16679,1,0,3:0:0:0:
432,60,16845,2,0,P|384:36|320:64,1,102.000001945496,0|0,0:0|3:0,0:0:0:0:
268,88,17345,2,0,P|219:98|174:74,1,102.000001945496,0|0,0:0|3:0,0:0:0:0:
104,32,17845,1,0,3:0:0:0:
48,188,18179,1,0,0:0:0:0:
116,232,18345,2,0,P|172:220|256:216,1,102.000001945496,0|0,3:0|0:0,0:0:0:0:
288,256,18845,6,0,P|300:220|292:180,1,51.0000009727478,2|0,0:0|0:0,0:0:0:0:
256,136,19179,2,0,P|248:104|252:64,1,51.0000009727478,0|0,0:0|3:0,0:0:0:0:
308,28,19512,2,0,L|448:40,1,102.000001945496,0|0,0:0|3:0,0:0:0:0:
468,92,20012,2,0,B|452:144|452:144|476:200,1,102.000001945496,0|0,0:0|0:0,0:0:0:0:
480,268,20512,2,0,L|368:260,1,102.000001945496,0|0,0:0|0:0,0:0:0:0:
60,332,21512,6,0,L|72:172,1,153.000002918243,6|0,0:0|3:0,0:0:0:0:
112,108,22179,2,0,L|104:16,2,51.0000009727478,8|0|0,0:0|0:0|3:0,0:0:0:0:
172,160,22679,2,0,P|248:172|296:120,1,153.000002918243,2|0,0:0|3:0,0:0:0:0:
336,48,23345,2,0,P|392:32|412:32,1,51.0000009727478,0|8,3:0|0:0,0:0:0:0:
457,70,23679,2,0,P|441:128|440:147,1,51.0000009727478,0|0,3:0|0:0,0:0:0:0:
486,187,24012,1,0,3:0:0:0:
484,268,24179,6,0,P|416:292|352:272,1,102.000001945496,2|0,0:0|0:0,0:0:0:0:
324,244,24679,1,0,3:0:0:0:
324,244,24845,2,0,L|344:96,1,102.000001945496,8|0,0:0|3:0,0:0:0:0:
372,68,25345,2,0,L|304:64,1,51.0000009727478,2|0,0:0|0:0,0:0:0:0:
260,120,25679,2,0,L|252:176,1,51.0000009727478,0|0,0:0|3:0,0:0:0:0:
188,224,26012,1,0,0:0:0:0:
120,180,26179,2,0,L|44:188,2,51.0000009727478,8|0|0,0:0|0:0|0:0,0:0:0:0:
256,272,26845,6,0,L|392:256,1,102.000001945496,2|0,0:0|0:0,0:0:0:0:
424,308,27345,1,0,0:0:0:0:
484,252,27512,2,0,P|496:184|472:128,1,102.000001945496,8|0,0:0|3:0,0:0:0:0:
428,96,28012,2,0,B|376:100|376:100|324:72,1,102.000001945496,2|0,0:0|0:0,0:0:0:0:
264,32,28512,1,0,0:0:0:0:
236,109,28679,2,0,L|240:181,1,51.0000009727478,0|8,3:0|0:0,0:0:0:0:
319,169,29012,2,0,L|313:226,1,51.0000009727478,0|0,3:0|0:0,0:0:0:0:
310,301,29345,1,0,3:0:0:0:
229,317,29512,6,0,P|169:325|113:281,1,102.000001945496,2|0,0:0|0:0,0:0:0:0:
88,236,30012,1,0,3:0:0:0:
136,168,30179,2,0,L|128:48,1,102.000001945496,8|0,0:0|0:0,0:0:0:0:
192,12,30679,1,0,0:0:0:0:
256,60,30845,2,0,L|376:48,1,102.000001945496,2|0,0:0|0:0,0:0:0:0:
436,28,31345,1,0,3:0:0:0:
420,108,31512,2,0,P|412:152|412:172,1,51.0000009727478,8|0,0:0|3:0,0:0:0:0:
412,240,31845,2,0,P|368:228|348:216,1,51.0000009727478,0|0,0:0|0:0,0:0:0:0:
284,200,32179,6,0,L|272:328,1,102.000001945496,6|0,0:0|0:0,0:0:0:0:
208,348,32679,1,0,3:0:0:0:
136,308,32845,2,0,L|140:248,1,51.0000009727478,8|0,0:0|0:0,0:0:0:0:
124,176,33179,2,0,P|46:182|-2:104,1,153.000002918243,2|0,0:0|0:0,0:0:0:0:
79,107,33845,1,0,0:0:0:0:
240,76,34179,2,0,L|236:16,2,51.0000009727478,8|0|0,0:0|3:0|0:0,0:0:0:0:
228,240,34845,6,0,L|360:232,1,102.000001945496,2|0,0:0|0:0,0:0:0:0:
400,196,35345,1,0,3:0:0:0:
420,116,35512,2,0,P|360:88|312:104,1,102.000001945496,8|0,0:0|3:0,0:0:0:0:
264,148,36012,1,0,0:0:0:0:
184,132,36179,2,0,L|108:120,2,51.0000009727478,2|0|0,0:0|0:0|0:0,0:0:0:0:
209,209,36679,1,0,3:0:0:0:
203,290,36845,2,0,L|212:356,1,51.0000009727478,8|0,0:0|0:0,0:0:0:0:
292,348,37179,2,0,L|300:236,1,102.000001945496,0|2,0:0|0:0,0:0:0:0:
412,128,37845,6,0,P|416:176|412:188,1,51.0000009727478,0|0,0:0|3:0,0:0:0:0:
336,160,38179,2,0,L|196:144,1,102.000001945496,8|0,0:0|3:0,0:0:0:0:
168,104,38679,2,0,P|136:184|144:264,1,153.000002918243,0|0,0:0|3:0,0:0:0:0:
180,320,39345,2,0,P|220:300|248:292,1,51.0000009727478,0|8,0:0|0:0,0:0:0:0:
308,308,39679,1,0,0:0:0:0:
376,260,39845,2,0,P|416:268|436:276,1,51.0000009727478,0|0,0:0|0:0,0:0:0:0:
492,320,40179,6,0,L|508:192,1,102.000001945496,2|0,0:0|0:0,0:0:0:0:
460,152,40679,1,0,3:0:0:0:
384,176,40845,2,0,L|244:184,1,102.000001945496,8|0,0:0|3:0,0:0:0:0:
216,230,41345,1,0,0:0:0:0:
141,197,41512,2,0,P|122:137|138:83,1,102.000001945496,0|0,0:0|3:0,0:0:0:0:
179,35,42012,1,0,0:0:0:0:
244,83,42179,2,0,L|312:75,1,51.0000009727478,10|8,0:0|0:3,0:0:0:0:
353,20,42512,2,0,L|409:16,1,51.0000009727478,8|0,3:0|3:0,0:0:0:0:
464,72,42845,6,0,P|488:132|472:192,1,102.000001945496,6|0,0:0|0:0,0:0:0:0:
428,228,43345,1,0,3:0:0:0:
348,216,43512,2,0,P|272:192|212:200,1,102.000001945496,8|0,0:0|3:0,0:0:0:0:
180,236,44012,2,0,P|168:280|168:304,1,51.0000009727478,2|0,0:0|0:0,0:0:0:0:
108,340,44345,2,0,P|88:304|84:284,1,51.0000009727478,0|0,0:0|3:0,0:0:0:0:
96,212,44679,1,0,0:0:0:0:
152,152,44845,2,0,L|140:16,1,102.000001945496,8|0,0:0|0:0,0:0:0:0:
300,92,45512,6,0,L|312:228,1,102.000001945496,2|0,0:0|0:0,0:0:0:0:
288,272,46012,1,0,3:0:0:0:
352,320,46179,2,0,P|428:324|464:292,1,102.000001945496,8|0,0:0|3:0,0:0:0:0:
500,248,46679,1,0,3:0:0:0:
480,168,46845,2,0,L|488:116,2,51.0000009727478,2|0|0,0:0|0:0|3:0,0:0:0:0:
341,81,47512,2,0,L|337:17,2,51.0000009727478,8|0|0,0:0|0:0|3:0,0:0:0:0:
340,240,48179,6,0,B|292:256|292:256|220:224,1,102.000001945496,6|0,0:0|0:0,0:0:0:0:
192,172,48679,1,0,3:0:0:0:
240,108,48845,1,8,0:0:0:0:
88,52,49179,2,0,L|64:224,1,153.000002918243,6|0,0:0|0:0,0:0:0:0:
120,264,49845,2,0,L|112:324,1,51.0000009727478,0|0,0:0|3:0,0:0:0:0:
184,356,50179,2,0,P|256:364|304:324,1,102.000001945496,8|0,0:0|3:0,0:0:0:0:
340,296,50679,1,0,0:0:0:0:
420,312,50845,6,0,L|488:304,1,51.0000009727478,2|0,0:0|0:0,0:0:0:0:
471,223,51179,2,0,L|407:227,1,51.0000009727478,0|0,0:0|3:0,0:0:0:0:
356,174,51512,2,0,P|358:138|364:110,1,51.0000009727478
362,33,51845,2,0,P|298:41|238:-1,1,102.000001945496,6|8,0:0|0:0,0:0:0:0:
183,15,52345,1,0,0:3:0:0:
103,33,52512,2,0,L|35:25,2,51.0000009727478,0|0|2,3:0|3:0|0:0,0:0:0:0:
256,316,53512,6,0,P|188:340|116:284,1,153.000002918243,6|0,0:0|3:0,0:0:0:0:
195,261,54179,1,8,0:0:0:0:
151,104,54512,2,0,P|219:80|291:136,1,153.000002918243,0|0,3:0|0:0,0:0:0:0:
341,179,55179,2,0,L|401:171,1,51.0000009727478,2|0,0:0|0:0,0:0:0:0:
448,116,55512,2,0,L|440:56,1,51.0000009727478,8|0,0:0|3:0,0:0:0:0:
376,20,55845,2,0,L|308:28,1,51.0000009727478,0|0,0:0|0:0,0:0:0:0:
252,68,56179,6,0,L|124:60,1,102.000001945496,2|0,0:0|0:0,0:0:0:0:
83,108,56679,1,0,3:0:0:0:
57,185,56845,2,0,P|82:244|64:300,1,102.000001945496,8|0,0:0|3:0,0:0:0:0:
216,356,57512,2,0,P|264:336|292:328,1,51.0000009727478,2|0,0:0|0:0,0:0:0:0:
328,288,57845,2,0,P|316:232|316:216,1,51.0000009727478,0|0,3:0|0:0,0:0:0:0:
372,180,58179,1,8,0:0:0:0:
312,128,58345,2,0,P|244:108|192:144,1,102.000001945496,0|0,0:0|3:0,0:0:0:0:
144,152,58845,6,0,L|136:32,1,102.000001945496,2|0,0:0|0:0,0:0:0:0:
56,48,59345,1,0,3:0:0:0:
36,128,59512,2,0,P|20:172|20:196,1,51.0000009727478,8|0,0:0|0:0,0:0:0:0:
68,240,59845,2,0,L|228:224,1,153.000002918243,0|8,3:0|0:0,0:0:0:0:
284,176,60512,2,0,L|276:108,1,51.0000009727478,2|0,0:0|0:0,0:0:0:0:
288,44,60845,2,0,L|352:36,1,51.0000009727478,8|0,0:0|0:0,0:0:0:0:
420,40,61179,2,0,L|424:92,1,51.0000009727478,0|0,3:0|0:0,0:0:0:0:
484,148,61512,6,0,P|436:172|364:148,1,102.000001945496,2|0,0:0|0:0,0:0:0:0:
308,172,62012,1,0,3:0:0:0:
304,252,62179,2,0,L|292:368,1,102.000001945496,8|0,0:0|3:0,0:0:0:0:
212,336,62679,1,0,0:0:0:0:
188,256,62845,2,0,L|120:264,2,51.0000009727478,2|8|0,0:0|0:0|3:0,0:0:0:0:
232,100,63512,2,0,L|237:44,1,51.0000009727478,8|0,0:0|3:0,0:0:0:0:
319,40,63845,2,0,L|311:104,1,51.0000009727478,0|0,0:0|0:0,0:0:0:0:
303,172,64179,6,0,P|379:194|463:127,1,153.000002918243,6|0,0:0|3:0,0:0:0:0:
474,87,64845,1,8,0:0:0:0:
319,40,65179,2,0,B|265:46|265:46|218:29|218:29|151:39,1,153.000002918243,0|0,3:0|0:0,0:0:0:0:
103,82,65845,2,0,L|118:151,1,51.0000009727478,2|0,0:0|0:0,0:0:0:0:
144,208,66179,2,0,L|73:227,1,51.0000009727478,8|0,0:0|0:0,0:0:0:0:
51,290,66512,2,0,L|68:347,1,51.0000009727478,0|0,0:0|0:0,0:0:0:0:
146,347,66845,6,0,L|289:350,1,102.000001945496,2|0,0:0|0:0,0:0:0:0:
319,308,67345,1,0,3:0:0:0:
396,333,67512,2,0,P|416:274|406:219,1,102.000001945496,8|0,0:0|3:0,0:0:0:0:
253,195,68179,2,0,L|192:200,2,51.0000009727478,2|8|0,0:0|0:0|3:0,0:0:0:0:
321,149,68679,1,0,0:0:0:0:
261,93,68845,1,8,0:0:0:0:
261,93,69012,2,0,P|191:76|139:102,1,102.000001945496,0|0,3:0|3:0,0:0:0:0:
100,135,69512,6,0,L|81:255,1,102.000001945496,2|0,0:0|0:0,0:0:0:0:
124,307,70012,1,0,3:0:0:0:
201,281,70179,2,0,P|269:250|328:266,1,102.000001945496,8|0,0:0|3:0,0:0:0:0:
368,286,70679,1,0,0:0:0:0:
441,251,70845,2,0,L|501:243,2,51.0000009727478,0|0|2,0:0|0:0|0:0,0:0:0:0:
382,98,71512,2,0,L|266:92,1,102.000001945496,8|0,0:0|0:0,0:0:0:0:
212,46,72012,1,0,0:0:0:0:
169,115,72179,6,0,P|105:131|44:111,1,102.000001945496,2|0,0:0|0:0,0:0:0:0:
16,185,72679,1,0,3:0:0:0:
69,246,72845,2,0,P|56:303|60:358,1,102.000001945496,8|0,0:0|0:0,0:0:0:0:
136,366,73345,1,8,0:0:0:0:
203,319,73512,2,0,L|264:325,2,51.0000009727478,2|0|8,0:0|3:0|0:0,0:0:0:0:
109,185,74179,2,0,L|37:193,2,51.0000009727478,8|8|8,0:0|0:3|0:3,0:0:0:0:
136,108,74679,1,0,3:0:0:0:
198,55,74845,6,0,P|254:45|318:91,1,102.000001945496,6|0,0:0|0:0,0:0:0:0:
327,136,75345,1,0,3:0:0:0:
396,168,75512,2,0,L|465:158,1,51.0000009727478,8|0,0:0|0:0,0:0:0:0:
475,237,75845,1,0,3:0:0:0:
414,291,76012,2,0,P|360:272|291:259,1,102.000001945496,0|0,3:0|0:0,0:0:0:0:
236,281,76512,2,0,P|222:220|224:209,1,51.0000009727478,2|0,0:0|0:0,0:0:0:0:
269,167,76845,2,0,P|276:132|275:107,1,51.0000009727478,8|0,0:0|0:0,0:0:0:0:
211,65,77179,2,0,L|144:70,1,51.0000009727478,0|0,3:0|0:0,0:0:0:0:
89,109,77512,6,0,P|72:172|87:215,1,102.000001945496,6|0,0:0|0:0,0:0:0:0:
117,279,78012,1,0,3:0:0:0:
185,234,78179,2,0,L|309:220,1,102.000001945496,8|0,0:0|3:0,0:0:0:0:
331,154,78679,1,0,0:0:0:0:
404,188,78845,1,2,0:0:0:0:
404,188,79012,2,0,P|427:253|415:301,1,102.000001945496,0|0,3:0|3:0,0:0:0:0:
360,338,79512,2,0,P|291:312|228:328,2,102.000001945496,0|0|6,0:0|0:0|0:0,0:0:0:0:
93,297,89512,6,0,L|237:281,1,102.000001945496,2|0,0:0|0:0,0:0:0:0:
260,238,90012,1,0,3:0:0:0:
218,167,90179,2,0,P|208:139|211:108,2,51.0000009727478,8|0|8,0:3|3:0|0:3,0:0:0:0:
261,236,90679,1,0,3:0:0:0:
326,187,90845,6,0,P|382:174|450:162,1,102.000001945496,6|0,0:0|0:0,0:0:0:0:
484,108,91345,1,0,3:0:0:0:
425,51,91512,2,0,P|374:41|325:29,1,102.000001945496,0|0,3:0|3:0,0:0:0:0:
243,24,92012,2,0,P|209:92|221:172,1,153.000002918243,2|0,0:0|3:0,0:0:0:0:
283,216,92679,2,0,P|293:252|294:272,1,51.0000009727478,0|0,3:0|0:0,0:0:0:0:
223,306,93012,2,0,P|176:293|156:291,1,51.0000009727478,0|0,3:0|3:0,0:0:0:0:
99,327,93345,1,0,0:0:0:0:
34,277,93512,6,0,P|45:231|50:163,1,102.000001945496,2|0,0:0|3:0,0:0:0:0:
14,103,94012,1,0,3:0:0:0:
95,94,94179,2,0,P|155:109|221:119,1,102.000001945496,0|0,0:0|3:0,0:0:0:0:
264,72,94679,2,0,P|324:58|344:54,1,51.0000009727478,2|0,0:0|0:0,0:0:0:0:
393,44,95012,2,0,P|402:96|402:105,1,51.0000009727478,0|0,3:0|3:0,0:0:0:0:
347,155,95345,1,0,0:0:0:0:
382,228,95512,1,0,3:0:0:0:
382,228,95679,2,0,P|443:222|495:218,1,102.000001945496,0|0,3:0|0:0,0:0:0:0:
486,300,96179,6,0,P|419:307|364:313,1,102.000001945496,2|0,0:0|3:0,0:0:0:0:
313,351,96679,1,0,3:0:0:0:
279,276,96845,2,0,P|292:237|296:220,2,51.0000009727478,0|0|0,3:0|0:0|3:0,0:0:0:0:
197,274,97345,2,0,L|42:294,1,153.000002918243,2|0,0:0|3:0,0:0:0:0:
12,218,98012,2,0,P|25:156|32:141,1,51.0000009727478,0|0,3:0|0:0,0:0:0:0:
82,114,98345,2,0,P|105:167|107:173,1,51.0000009727478,0|0,3:0|3:0,0:0:0:0:
95,242,98679,1,0,0:0:0:0:
170,211,98845,6,0,L|305:192,1,102.000001945496,2|0,0:0|3:0,0:0:0:0:
348,221,99345,1,0,3:0:0:0:
422,188,99512,2,0,P|434:141|406:69,1,102.000001945496,2|0,0:0|3:0,0:0:0:0:
353,43,100012,2,0,P|308:52|296:59,1,51.0000009727478,0|0,0:0|3:0,0:0:0:0:
241,106,100345,2,0,P|181:96|131:73,1,102.000001945496,0|0,3:0|3:0,0:0:0:0:
64,58,100845,2,0,P|42:92|32:122,1,51.0000009727478,8|0,0:0|3:0,0:0:0:0:
8,178,101179,2,0,P|13:206|27:234,1,51.0000009727478,0|0,3:0|3:0,0:0:0:0:
92,268,101512,6,0,P|155:247|205:259,1,102.000001945496,6|0,0:0|0:0,0:0:0:0:
254,300,102012,1,0,3:0:0:0:
327,263,102179,2,0,L|323:201,1,51.0000009727478,8|0,0:0|3:0,0:0:0:0:
355,136,102512,2,0,L|193:118,1,153.000002918243,2|0,0:0|0:0,0:0:0:0:
163,46,103179,1,0,0:0:0:0:
74,182,103512,2,0,L|12:173,2,51.0000009727478,8|0|0,0:0|3:0|0:0,0:0:0:0:
184,302,104179,6,0,P|266:320|313:286,1,102.000001945496,2|0,0:0|0:0,0:0:0:0:
343,263,104679,1,0,3:0:0:0:
420,288,104845,2,0,L|428:172,1,102.000001945496,8|0,0:0|3:0,0:0:0:0:
398,109,105345,1,0,3:0:0:0:
319,131,105512,1,2,0:0:0:0:
319,131,105679,2,0,P|262:135|212:83,1,102.000001945496
166,55,106179,2,0,L|178:5,2,51.0000009727478,8|0|0,0:0|3:0|0:0,0:0:0:0:
73,188,106845,6,0,P|89:254|93:297,1,102.000001945496,6|0,0:0|0:0,0:0:0:0:
78,368,107345,1,0,3:0:0:0:
155,340,107512,2,0,P|222:318|292:305,1,102.000001945496,8|0,0:0|0:0,0:0:0:0:
333,326,108012,1,2,0:0:0:0:
386,264,108179,2,0,P|378:203|376:143,1,102.000001945496,0|0,0:0|3:0,0:0:0:0:
429,100,108679,2,0,L|489:92,1,51.0000009727478,0|8,0:0|0:0,0:0:0:0:
460,13,109012,2,0,L|401:23,1,51.0000009727478,0|0,3:0|0:0,0:0:0:0:
269,105,109512,6,0,L|130:95,1,102.000001945496,2|0,0:0|0:0,0:0:0:0:
94,135,110012,1,0,3:0:0:0:
155,189,110179,2,0,P|179:251|180:294,1,102.000001945496,8|0,0:0|0:0,0:0:0:0:
109,325,110679,1,0,0:0:0:0:
109,325,110845,2,0,P|55:308|46:306,1,51.0000009727478,8|8,0:0|0:3,0:0:0:0:
15,240,111178,2,0,P|35:190|38:180,1,51.0000009727478,8|8,0:3|0:3,0:0:0:0:
94,135,111512,2,0,P|86:99|82:75,2,51.0000009727478,2|8|0,0:0|0:3|3:0,0:0:0:0:
237,213,112179,6,0,P|302:186|365:207,1,102.000001945496,6|0,0:0|0:0,0:0:0:0:
398,237,112679,1,0,3:0:0:0:
464,189,112845,2,0,B|475:140|475:140|457:85,1,102.000001945496,8|0,0:0|3:0,0:0:0:0:
382,62,113345,2,0,L|304:70,1,51.0000009727478,2|0,0:0|0:0,0:0:0:0:
261,110,113679,2,0,P|256:165|258:176,1,51.0000009727478,0|0,3:0|0:0,0:0:0:0:
299,229,114012,1,0,3:0:0:0:
256,299,114179,2,0,L|126:285,1,102.000001945496,8|0,0:0|0:0,0:0:0:0:
64,152,114845,6,0,L|165:162,1,102.000001945496,2|0,0:0|0:0,0:0:0:0:
235,121,115345,1,0,3:0:0:0:
299,70,115512,2,0,L|422:64,1,102.000001945496,8|0,0:0|3:0,0:0:0:0:
469,109,116012,1,0,0:0:0:0:
483,189,116179,2,0,L|491:243,2,51.0000009727478,2|0|0,0:0|3:0|3:0,0:0:0:0:
348,281,116845,2,0,L|340:335,2,51.0000009727478,8|0|0,0:0|3:0|3:0,0:0:0:0:
337,116,117512,6,0,P|277:128|209:88,1,102.000001945496,6|0,0:0|3:0,0:0:0:0:
182,56,118012,1,0,3:0:0:0:
102,75,118179,1,8,0:0:0:0:
56,231,118512,2,0,P|116:243|184:203,1,102.000001945496,6|0,0:0|3:0,0:0:0:0:
227,196,119012,1,8,0:0:0:0:
301,228,119179,2,0,L|292:351,2,102.000001945496,0|8|0,3:0|0:0|0:0,0:0:0:0:
334,151,120012,1,0,3:0:0:0:
410,177,120179,6,0,P|457:171|512:163,1,102.000001945496,8|0,0:0|3:0,0:0:0:0:
495,82,120679,2,0,P|447:87|393:96,1,102.000001945496,8|0,0:3|3:0,0:0:0:0:
334,151,121179,1,0,3:0:0:0:
172,126,121512,2,0,P|178:96|187:65,2,51.0000009727478,10|0|8,0:0|3:0|0:0,0:0:0:0:
189,205,122012,1,8,0:0:0:0:
124,255,122179,2,0,P|70:254|47:247,2,51.0000009727478,8|8|8,0:0|0:0|0:0,0:0:0:0:
189,205,122679,1,8,0:0:0:0:
259,245,122845,6,0,P|330:253|396:197,1,153.000002918243,6|0,0:0|3:0,0:0:0:0:
399,124,123512,1,8,0:0:0:0:
245,71,123845,2,0,L|89:56,1,153.000002918243,0|0,3:0|3:0,0:0:0:0:
43,121,124512,2,0,P|61:176|73:200,1,51.0000009727478,2|0,0:0|0:0,0:0:0:0:
135,197,124845,2,0,P|126:253|125:267,1,51.0000009727478,8|0,0:0|0:0,0:0:0:0:
184,306,125179,2,0,P|245:287|259:283,1,51.0000009727478,0|0,0:0|3:0,0:0:0:0:
299,243,125512,6,0,P|368:270|421:276,1,102.000001945496,2|0,0:0|0:0,0:0:0:0:
467,236,126012,1,0,3:0:0:0:
452,155,126179,2,0,L|443:40,1,102.000001945496,8|0,0:0|3:0,0:0:0:0:
285,91,126845,2,0,P|239:84|223:82,1,51.0000009727478,2|8,0:0|0:0,0:0:0:0:
160,48,127179,2,0,P|102:59|88:60,1,51.0000009727478,0|0,3:0|0:0,0:0:0:0:
36,93,127512,1,8,0:0:0:0:
83,159,127679,2,0,P|71:222|70:273,1,102.000001945496,0|0,3:0|3:0,0:0:0:0:
133,310,128179,6,0,L|265:292,1,102.000001945496,2|0,0:0|0:0,0:0:0:0:
315,306,128679,1,0,3:0:0:0:
380,257,128845,2,0,L|391:202,1,51.0000009727478,8|0,0:0|0:0,0:0:0:0:
375,126,129179,2,0,P|311:122|268:159,1,102.000001945496,0|0,3:0|0:0,0:0:0:0:
213,186,129679,1,8,0:0:0:0:
142,145,129845,2,0,B|128:96|128:96|151:44,2,102.000001945496,2|8|0,0:0|0:0|3:0,0:0:0:0:
196,299,130845,6,0,L|334:287,1,102.000001945496,2|0,0:0|0:0,0:0:0:0:
366,333,131345,1,0,3:0:0:0:
423,274,131512,2,0,L|412:148,1,102.000001945496,8|0,0:0|0:0,0:0:0:0:
379,98,132012,1,8,0:0:0:0:
304,64,132179,2,0,L|308:3,2,51.0000009727478,2|8|0,0:0|0:0|3:0,0:0:0:0:
159,145,132845,2,0,L|164:200,1,51.0000009727478,8|0,0:0|3:0,0:0:0:0:
246,177,133179,2,0,L|249:125,1,51.0000009727478,0|6,3:0|0:0,0:0:0:0:
304,64,133512,6,0,P|365:20|450:44,1,153.000002918243,6|0,0:0|3:0,0:0:0:0:
487,99,134179,1,8,0:0:0:0:
386,227,134512,2,0,P|277:207|197:201,1,153.000002918243,0|8,3:0|0:0,0:0:0:0:
160,233,135179,2,0,P|145:178|143:164,1,51.0000009727478,2|0,0:0|0:0,0:0:0:0:
207,130,135512,2,0,P|261:115|280:110,1,51.0000009727478,8|0,0:0|3:0,0:0:0:0:
337,111,135845,2,0,P|341:62|346:37,1,51.0000009727478,0|0,0:0|3:0,0:0:0:0:
416,26,136179,6,0,P|433:83|442:150,1,102.000001945496,2|0,0:0|0:0,0:0:0:0:
379,179,136679,1,0,3:0:0:0:
386,259,136845,2,0,P|445:245|496:235,1,102.000001945496,8|0,0:0|3:0,0:0:0:0:
493,318,137345,1,0,3:0:0:0:
417,348,137512,2,0,P|357:358|340:362,1,51.0000009727478,2|0,0:0|0:0,0:0:0:0:
294,317,137845,2,0,P|306:259|311:248,1,51.0000009727478,0|0,3:0|0:0,0:0:0:0:
331,189,138179,1,8,0:0:0:0:
269,135,138345,2,0,P|219:131|164:182,1,102.000001945496,0|0,3:0|0:0,0:0:0:0:
105,198,138845,6,0,P|93:133|103:70,1,102.000001945496,6|0,0:0|0:0,0:0:0:0:
154,40,139345,1,0,0:0:0:0:
235,45,139512,2,0,L|298:49,1,51.0000009727478,8|0,0:0|0:0,0:0:0:0:
362,19,139845,2,0,P|378:69|382:137,1,102.000001945496,0|0,3:0|0:0,0:0:0:0:
343,190,140345,1,8,0:0:0:0:
279,139,140512,2,0,P|219:126|201:125,1,51.0000009727478,2|0,0:0|0:0,0:0:0:0:
157,166,140845,2,0,P|102:194|88:205,1,51.0000009727478,8|0,0:0|3:0,0:0:0:0:
97,269,141179,2,0,P|73:325|69:343,1,51.0000009727478,0|0,0:0|3:0,0:0:0:0:
142,363,141512,6,0,P|210:343|283:334,1,102.000001945496,2|0,0:0|0:0,0:0:0:0:
320,356,142012,1,0,3:0:0:0:
387,310,142179,2,0,P|402:248|402:188,1,102.000001945496,8|0,0:0|3:0,0:0:0:0:
350,147,142679,1,0,3:0:0:0:
406,89,142845,2,0,L|467:84,2,51.0000009727478,2|0|8,0:0|3:0|0:0,0:0:0:0:
255,25,143512,2,0,L|194:20,2,51.0000009727478,8|8|8,0:0|0:3|0:3,0:0:0:0:
271,104,144012,1,0,3:0:0:0:
231,181,144179,6,0,P|245:258|251:301,1,102.000001945496,6|0,0:0|0:0,0:0:0:0:
192,340,144679,1,0,3:0:0:0:
126,291,144845,2,0,P|74:298|44:298,1,51.0000009727478,8|0,0:0|0:0,0:0:0:0:
20,236,145179,2,0,P|42:182|47:169,1,51.0000009727478,0|0,3:0|3:0,0:0:0:0:
62,110,145512,2,0,P|116:127|172:140,1,102.000001945496,0|2,0:0|0:0,0:0:0:0:
225,87,146012,1,0,3:0:0:0:
287,140,146179,2,0,P|299:202|305:254,1,102.000001945496,8|0,0:0|0:0,0:0:0:0:
259,309,146679,1,0,3:0:0:0:
334,339,146845,6,0,P|412:321|457:311,2,102.000001945496,6|8|0,0:0|0:0|3:0,0:0:0:0:
259,309,147679,2,0,P|191:293|137:287,1,102.000001945496,0|0,3:0|3:0,0:0:0:0:
77,295,148179,2,0,P|93:227|99:173,1,102.000001945496,2|0,0:0|3:0,0:0:0:0:
127,119,148679,2,0,P|195:135|249:141,1,102.000001945496,2|0,0:0|3:0,0:0:0:0:
308,132,149179,2,0,P|292:200|286:254,1,102.000001945496,2|6,0:0|0:0,0:0:0:0:
