osu file format v14

[General]
AudioFilename: scaPEGoat.mp3
AudioLeadIn: 0
PreviewTime: 223240
Countdown: 1
SampleSet: Normal
StackLeniency: 0.7
Mode: 0
LetterboxInBreaks: 1
WidescreenStoryboard: 1

[Editor]
Bookmarks: 12663
DistanceSpacing: 1.4
BeatDivisor: 8
GridSize: 8
TimelineZoom: 1.5

[Metadata]
Title:scaPEGoat
TitleUnicode:scaPEGoat
Artist:SawanoHiroyuki[nZk]:Yosh
ArtistUnicode:SawanoHiroyuki[nZk]:Yosh
Creator:Kaneki_Uchiha
Version:Insane
Source:Seraph of the End
Tags:SawanoHiroyuki Yosh ScaPEGoat SeraphOfTheEnd OwariNoSeraph Anime
BeatmapID:793007
BeatmapSetID:358417

[Difficulty]
HPDrainRate:5
CircleSize:4.5
OverallDifficulty:6
ApproachRate:8
SliderMultiplier:2.4
SliderTickRate:1

[Events]
//Background and Video events
0,0,"Seraph4.jpg",0,0
//Break Periods
2,197286,199606
//Storyboard Layer 0 (Background)
//Storyboard Layer 1 (Fail)
//Storyboard Layer 2 (Pass)
//Storyboard Layer 3 (Foreground)
//Storyboard Sound Samples

[TimingPoints]
356,769.230769230769,4,1,1,70,1,0
49586,-133.333333333333,4,2,0,50,0,0
61894,-66.6666666666667,4,1,1,70,0,1
92663,-100,4,1,1,70,0,0
141894,-66.6666666666667,4,1,1,70,0,1
172663,-100,4,1,1,70,0,0
197279,-133.333333333333,4,2,0,50,0,0
224971,-66.6666666666667,4,1,1,70,0,1
254971,-100,4,1,1,5,0,0
255740,-83.3333333333333,4,1,1,70,0,1
280355,-83.3333333333333,4,1,1,70,0,0

[Colours]
Combo1 : 255,255,255
Combo2 : 128,128,128
Combo3 : 0,255,0
Combo4 : 255,255,0
Combo5 : 0,128,255
Combo6 : 255,0,0

[HitObjects]
156,304,13817,2,0,P|132:280|108:268,1,60,0|0,0:0|0:0,0:0:0:0:
80,188,14202,1,0,0:0:0:0:
112,112,14394,1,0,0:0:0:0:
184,68,14586,1,0,0:0:0:0:
268,64,14779,2,0,P|300:64|332:80,1,60,0|0,0:0|0:0,0:0:0:0:
384,128,15163,1,0,0:0:0:0:
416,208,15356,6,0,P|424:240|440:264,3,60,0|0|0|0,0:0|0:0|0:0|0:0,0:0:0:0:
368,304,16125,1,0,0:0:0:0:
368,304,16317,1,0,0:0:0:0:
288,328,16509,2,0,B|224:328|224:328|168:288,1,120,0|0,0:0|0:0,0:0:0:0:
112,240,17086,1,0,0:0:0:0:
80,160,17279,2,0,P|112:144|144:112,1,60,0|0,0:0|0:0,0:0:0:0:
192,72,17663,2,0,P|216:56|264:48,2,60,0|0|0,0:0|0:0|0:0,0:0:0:0:
248,136,18240,2,0,P|280:136|312:112,1,60,0|0,0:0|0:0,0:0:0:0:
384,96,18625,1,0,0:0:0:0:
384,96,18817,5,0,0:0:0:0:
424,168,19009,2,0,P|424:208|416:232,3,60,0|0|0|0,0:0|0:0|0:0|0:0,0:0:0:0:
376,296,19779,1,0,0:0:0:0:
304,336,19971,2,0,P|274:337|240:320,1,60,0|0,0:0|0:0,0:0:0:0:
104,240,20548,2,0,P|120:216|128:184,1,60,0|0,0:0|0:0,0:0:0:0:
208,168,20932,2,0,P|225:182|264:200,2,60,0|0|0,0:0|0:0|0:0,0:0:0:0:
144,112,21509,2,0,B|192:112|192:112|216:88|216:88|264:88,1,120,0|0,0:0|0:0,0:0:0:0:
336,96,22086,5,0,0:0:0:0:
400,152,22279,1,0,0:0:0:0:
416,232,22471,2,0,P|400:256|352:280,1,60,0|0,0:0|0:0,0:0:0:0:
296,296,22856,1,0,0:0:0:0:
216,288,23048,2,0,P|184:280|152:248,2,60,0|0|0,0:0|0:0|0:0,0:0:0:0:
256,216,23625,1,0,0:0:0:0:
288,136,23817,2,0,P|312:160|344:160,4,60,0|0|0|0|8,0:0|0:0|0:0|0:0|0:0,0:0:0:0:
224,80,24779,1,0,0:0:0:0:
144,88,24971,6,0,B|104:136|104:136|104:200,1,120,4|0,0:0|0:0,0:0:0:0:
104,280,25548,1,0,0:0:0:0:
184,312,25740,2,0,L|240:272,2,60,8|0|0,0:0|0:0|0:0,0:0:0:0:
160,232,26317,1,2,0:0:0:0:
232,184,26509,1,0,0:0:0:0:
160,136,26702,1,2,0:0:0:0:
232,88,26894,1,2,0:0:0:0:
312,72,27086,2,0,P|345:82|368:96,1,60,0|8,0:0|0:0,0:0:0:0:
424,160,27471,2,0,P|424:192|400:224,1,60,0|0,0:0|0:0,0:0:0:0:
352,280,27855,1,0,0:0:0:0:
280,328,28048,6,0,B|240:312|240:312|208:312|208:312|160:288,1,120,2|0,0:0|0:0,0:0:0:0:
88,256,28625,1,0,0:0:0:0:
64,176,28817,2,0,P|96:168|120:152,2,60,8|0|0,0:0|0:0|0:0,0:0:0:0:
80,96,29394,1,2,0:0:0:0:
248,72,29779,1,0,0:0:0:0:
336,72,29971,2,0,P|375:129|360:176,1,120,2|8,0:0|0:0,0:0:0:0:
264,312,30740,1,0,0:0:0:0:
200,256,30932,2,0,P|176:232|176:192,1,60,0|2,0:0|0:0,0:0:0:0:
208,128,31317,5,0,0:0:0:0:
288,136,31509,2,0,B|334:175|334:175|304:232,1,120,0|8,0:0|0:0,0:0:0:0:
184,344,32279,2,0,P|152:336|120:312,3,60,0|2|0|2,0:0|0:0|0:0|0:0,0:0:0:0:
104,240,33048,1,2,0:0:0:0:
88,160,33240,1,0,0:0:0:0:
160,120,33432,2,0,P|200:80|272:80,1,120,8|0,0:0|0:0,0:0:0:0:
336,112,34009,1,0,0:0:0:0:
408,72,34202,6,0,P|424:136|392:176,1,120,2|0,0:0|0:0,0:0:0:0:
432,248,34779,1,0,0:0:0:0:
372,308,34971,2,0,P|340:296|312:296,1,60,8|0,0:0|0:0,0:0:0:0:
232,312,35356,1,2,0:0:0:0:
148,304,35548,1,2,0:0:0:0:
104,224,35740,6,0,L|80:152,1,60,0|8,0:0|0:0,0:0:0:0:
168,160,36125,1,2,0:0:0:0:
200,84,36317,1,0,0:0:0:0:
248,152,36509,1,8,0:0:0:0:
280,76,36702,1,0,0:0:0:0:
248,152,36894,6,0,P|308:176|352:144,1,120,0|6,0:0|0:0,0:0:0:0:
444,288,37663,1,0,0:0:0:0:
364,264,37856,1,0,0:0:0:0:
284,240,38048,1,8,0:0:0:0:
116,240,38432,2,0,P|100:216|100:176,2,60,0|2|0,0:0|0:0|0:0,0:0:0:0:
192,204,39009,1,2,0:0:0:0:
188,120,39202,2,0,P|212:104|260:104,2,60,2|0|8,0:0|0:0|0:0,0:0:0:0:
104,120,39779,1,0,0:0:0:0:
116,240,39971,2,0,B|140:272|140:272|172:280|172:280|204:328,1,120,0|2,0:0|0:0,0:0:0:0:
280,340,40548,5,0,0:0:0:0:
328,272,40740,2,0,P|360:288|408:296,2,60,0|0|8,0:0|0:0|0:0,0:0:0:0:
392,216,41317,1,0,0:0:0:0:
384,136,41509,2,0,P|352:128|328:104,1,60,0|2,0:0|0:0,0:0:0:0:
264,64,41894,1,0,0:0:0:0:
264,64,42279,1,2,0:0:0:0:
104,112,42663,2,0,P|96:136|72:168,2,60,8|0|0,0:0|0:0|0:0,0:0:0:0:
192,120,43240,1,0,0:0:0:0:
264,160,43432,6,0,P|216:200|200:272,1,120,2|0,0:0|0:0,0:0:0:0:
120,232,44009,1,0,0:0:0:0:
72,296,44202,1,8,0:0:0:0:
160,296,44394,1,0,0:0:0:0:
240,296,44586,1,0,0:0:0:0:
320,296,44779,2,0,P|328:264|352:240,3,60,2|0|2|2,0:0|0:0|0:0|0:0,0:0:0:0:
408,296,45548,1,0,0:0:0:0:
448,224,45740,2,0,B|432:160|432:160|368:128,1,120,8|0,0:0|0:0,0:0:0:0:
304,104,46317,1,0,0:0:0:0:
224,72,46509,1,2,0:0:0:0:
104,192,46894,6,0,L|112:264,2,60,0|0|8,0:0|0:0|0:0,0:0:0:0:
184,176,47471,1,0,0:0:0:0:
264,160,47663,2,0,L|304:216,1,60,0|2,0:0|0:0,0:0:0:0:
424,320,48240,2,0,P|392:312|352:312,1,60,0|2,0:0|0:0,0:0:0:0:
280,312,48625,1,0,0:0:0:0:
196,312,48817,2,0,P|164:312|136:300,1,60,8|2,0:0|0:0,0:0:0:0:
132,216,49202,1,2,0:0:0:0:
256,200,49586,6,0,P|296:192|344:168,1,90.0000034332277,4|0,0:0|0:0,0:0:0:0:
312,112,50163,1,0,0:0:0:0:
312,112,50355,2,0,P|292:104|260:96,1,45.0000017166138,2|0,0:0|0:0,0:0:0:0:
208,92,50740,1,0,0:0:0:0:
156,140,50932,1,0,0:0:0:0:
128,264,51317,1,0,0:0:0:0:
164,316,51509,2,0,P|204:324|252:308,1,90.0000034332277,2|0,0:0|0:0,0:0:0:0:
260,248,52086,2,0,P|236:248|204:256,1,45.0000017166138,0|2,0:0|0:0,0:0:0:0:
264,136,52663,5,2,0:0:0:0:
312,92,52855,2,0,P|320:60|320:44,2,45.0000017166138,0|0|0,0:0|0:0|0:0,0:0:0:0:
356,140,53432,1,2,0:0:0:0:
368,204,53625,1,0,0:0:0:0:
328,252,53817,1,0,0:0:0:0:
272,280,54009,2,0,L|176:288,1,90.0000034332277,0|0,0:0|0:0,0:0:0:0:
128,252,54586,1,2,0:0:0:0:
96,200,54779,1,0,0:0:0:0:
136,152,54971,2,0,L|124:104,1,45.0000017166138,0|2,0:0|0:0,0:0:0:0:
176,72,55355,2,0,L|160:16,2,45.0000017166138,0|0|2,0:0|0:0|0:0,0:0:0:0:
240,72,55932,5,0,0:0:0:0:
300,84,56125,2,0,P|300:124|340:172,1,90.0000034332277,0|2,0:0|0:0,0:0:0:0:
384,192,56702,2,0,L|416:144,2,45.0000017166138,0|0|0,0:0|0:0|0:0,0:0:0:0:
304,292,57471,1,0,0:0:0:0:
304,292,57663,2,0,L|248:304,1,45.0000017166138,2|0,0:0|0:0,0:0:0:0:
136,288,58240,1,0,0:0:0:0:
96,240,58432,1,0,0:0:0:0:
96,176,58625,2,0,L|72:120,1,45.0000017166138,0|2,0:0|0:0,0:0:0:0:
204,112,59202,6,0,L|252:88,4,45.0000017166138,0|0|0|0|0,0:0|0:0|0:0|0:0|0:0,0:0:0:0:
256,192,60356,12,0,61510,0:0:0:0:
256,192,61894,5,4,0:0:0:0:
56,344,62279,2,0,P|40:296|48:240,1,90.0000034332277,0|0,0:0|0:0,0:0:0:0:
96,144,62663,1,8,0:0:0:0:
208,88,62855,1,0,0:0:0:0:
336,88,63048,2,0,P|384:88|408:48,2,90.0000034332277,0|2|0,0:0|0:0|0:0,0:0:0:0:
392,200,63625,2,0,P|384:248|352:272,1,90.0000034332277,2|2,0:0|0:0,0:0:0:0:
232,304,64009,1,0,0:0:0:0:
120,248,64202,1,8,0:0:0:0:
232,192,64394,2,0,P|272:208|320:192,2,90.0000034332277,0|0|0,0:0|0:0|0:0,0:0:0:0:
136,104,64971,5,2,0:0:0:0:
264,104,65163,1,0,0:0:0:0:
168,192,65355,2,0,P|120:200|72:176,2,90.0000034332277,0|0|8,0:0|0:0|0:0,0:0:0:0:
80,288,65932,1,0,0:0:0:0:
200,312,66125,1,0,0:0:0:0:
320,272,66317,1,2,0:0:0:0:
400,176,66509,2,0,P|416:128|396:80,1,90.0000034332277,0|0,0:0|0:0,0:0:0:0:
284,132,66894,2,0,P|276:80|300:40,1,90.0000034332277,2|0,0:0|0:0,0:0:0:0:
176,96,67279,2,0,P|196:136|188:184,1,90.0000034332277,8|0,0:0|0:0,0:0:0:0:
76,124,67663,2,0,P|74:180|96:208,1,90.0000034332277,0|0,0:0|0:0,0:0:0:0:
172,304,68048,6,0,B|172:352|172:352|132:392,2,90.0000034332277,2|0|0,0:0|0:0|0:0,0:0:0:0:
272,228,68625,1,0,0:0:0:0:
392,272,68817,1,8,0:0:0:0:
424,152,69009,1,0,0:0:0:0:
308,104,69202,2,0,P|356:112|388:80,2,90.0000034332277,0|2|0,0:0|0:0|0:0,0:0:0:0:
184,72,69779,1,2,0:0:0:0:
88,160,69971,1,2,0:0:0:0:
112,280,70163,1,0,0:0:0:0:
232,312,70355,2,0,P|192:328|152:352,2,90.0000034332277,8|0|0,0:0|0:0|0:0,0:0:0:0:
352,288,70932,1,0,0:0:0:0:
392,168,71125,6,0,P|344:144|296:144,3,90.0000034332277,2|0|0|0,0:0|0:0|0:0|0:0,0:0:0:0:
184,152,71894,1,8,0:0:0:0:
112,256,72086,1,0,0:0:0:0:
232,304,72279,1,0,0:0:0:0:
360,280,72471,1,2,0:0:0:0:
392,160,72663,2,0,L|296:200,1,90.0000034332277,0|0,0:0|0:0,0:0:0:0:
304,72,73048,2,0,L|216:144,1,90.0000034332277,2|0,0:0|0:0,0:0:0:0:
144,40,73432,2,0,L|120:136,1,90.0000034332277,8|0,0:0|0:0,0:0:0:0:
120,256,73817,1,0,0:0:0:0:
232,304,74009,1,0,0:0:0:0:
360,312,74202,6,0,B|384:272|384:272|368:240|368:240|392:200|392:200|368:152,1,180.000006866455,4|0,0:0|0:0,0:0:0:0:
312,40,74779,1,0,0:0:0:0:
192,72,74971,1,8,0:0:0:0:
88,144,75163,2,0,P|128:168|176:176,2,90.0000034332277,0|0|2,0:0|0:0|0:0,0:0:0:0:
120,264,75740,1,0,0:0:0:0:
224,328,75932,2,0,P|256:288|296:272,1,90.0000034332277,2|2,0:0|0:0,0:0:0:0:
416,272,76317,1,0,0:0:0:0:
384,152,76509,2,0,P|424:128|440:72,2,90.0000034332277,8|0|0,0:0|0:0|0:0,0:0:0:0:
264,192,77086,2,0,P|232:216|208:264,2,90.0000034332277,2|2|0,0:0|0:0|0:0,0:0:0:0:
248,64,77663,5,0,0:0:0:0:
136,120,77855,1,0,0:0:0:0:
88,240,78048,1,8,0:0:0:0:
336,304,78432,1,0,0:0:0:0:
424,208,78625,1,2,0:0:0:0:
344,104,78817,2,0,L|272:48,1,90.0000034332277,0|0,0:0|0:0,0:0:0:0:
304,168,79202,2,0,L|200:144,1,90.0000034332277,2|0,0:0|0:0,0:0:0:0:
296,248,79586,2,0,L|200:280,1,90.0000034332277,8|0,0:0|0:0,0:0:0:0:
80,280,79971,1,0,0:0:0:0:
104,160,80163,1,0,0:0:0:0:
200,80,80355,6,0,P|256:64|288:80,1,90.0000034332277,2|0,0:0|0:0,0:0:0:0:
384,152,80740,1,0,0:0:0:0:
384,152,80932,1,0,0:0:0:0:
392,280,81125,2,0,B|336:280|336:280|296:312|296:312|224:312,1,180.000006866455,8|0,0:0|0:0,0:0:0:0:
104,264,81702,1,2,0:0:0:0:
224,216,81894,2,0,P|192:176|128:160,3,90.0000034332277,0|2|2|0,0:0|0:0|0:0|0:0,0:0:0:0:
196,40,82663,6,0,P|236:32|284:-4,1,90.0000034332277,8|0,0:0|0:0,0:0:0:0:
388,64,83048,1,0,0:0:0:0:
284,136,83240,1,0,0:0:0:0:
388,208,83432,6,0,P|409:240|388:296,1,90.0000034332277,2|0,0:0|0:0,0:0:0:0:
280,332,83817,1,0,0:0:0:0:
156,324,84009,1,2,0:0:0:0:
224,216,84202,1,12,0:0:0:0:
412,52,84586,2,0,P|448:48|492:80,3,90.0000034332277,0|2|8|8,0:0|0:0|0:0|0:0,0:0:0:0:
444,196,85356,1,8,0:0:0:0:
348,280,85548,1,8,0:0:0:0:
252,200,85740,6,8,P|228:168|172:160,1,90.0000034332277,8|8,0:0|0:0,0:0:0:0:
80,236,86125,1,8,0:0:0:0:
164,328,86317,1,8,0:0:0:0:
276,276,86509,1,4,0:0:0:0:
428,76,86894,6,0,B|380:84|380:84|348:44,2,90.0000034332277,0|0|8,0:0|0:0|0:0,0:0:0:0:
424,328,87663,2,0,B|408:288|408:288|440:248,2,90.0000034332277,0|2|0,0:0|0:0|0:0,0:0:0:0:
304,288,88240,1,2,0:0:0:0:
192,232,88432,2,0,B|176:272|176:272|128:280,2,90.0000034332277,2|0|8,0:0|0:0|0:0,0:0:0:0:
120,128,89009,1,0,0:0:0:0:
232,72,89202,1,0,0:0:0:0:
360,96,89394,5,8,0:0:0:0:
376,224,89586,2,0,L|304:288,3,90.0000034332277,2|8|0|2,0:0|0:0|0:0|0:0,0:0:0:0:
192,232,90356,2,0,L|168:144,2,90.0000034332277,12|0|2,0:0|0:0|0:0,0:0:0:0:
288,152,90932,1,8,0:0:0:0:
400,104,91125,1,0,0:0:0:0:
432,224,91317,2,0,P|408:272|368:296,1,90.0000034332277,2|8,0:0|0:0,0:0:0:0:
280,216,91702,2,0,P|240:240|192:224,3,90.0000034332277,0|0|0|0,0:0|0:0|0:0|0:0,0:0:0:0:
80,192,92471,1,0,0:0:0:0:
136,128,92663,6,0,B|184:96|184:96|248:112,1,120,4|0,0:0|0:0,0:0:0:0:
328,136,93240,1,0,0:0:0:0:
376,208,93432,1,8,0:0:0:0:
392,288,93625,2,0,P|360:304|328:304,1,60,0|0,0:0|0:0,0:0:0:0:
272,256,94009,2,0,P|240:264|208:288,3,60,2|0|2|2,0:0|0:0|0:0|0:0,0:0:0:0:
136,296,94779,1,0,0:0:0:0:
112,216,94971,2,0,B|120:168|120:168|88:144|88:144|96:96,1,120,8|0,0:0|0:0,0:0:0:0:
176,96,95548,1,0,0:0:0:0:
232,160,95740,6,0,P|256:136|288:128,1,60,2|0,0:0|0:0,0:0:0:0:
360,120,96125,1,0,0:0:0:0:
440,144,96317,1,0,0:0:0:0:
440,224,96509,2,0,B|400:232|400:280|328:272,1,120,8|0,0:0|0:0,0:0:0:0:
256,288,97086,1,2,0:0:0:0:
176,264,97279,2,0,P|144:264|112:272,2,60,0|2|2,0:0|0:0|0:0,0:0:0:0:
104,112,98048,2,0,P|131:100|152:72,2,60,8|0|0,0:0|0:0|0:0,0:0:0:0:
72,192,98625,1,0,0:0:0:0:
112,264,98817,5,2,0:0:0:0:
192,288,99009,2,0,P|224:288|264:272,1,60,0|0,0:0|0:0,0:0:0:0:
320,320,99394,2,0,P|344:296|352:264,1,60,0|8,0:0|0:0,0:0:0:0:
432,248,99779,1,0,0:0:0:0:
416,168,99971,1,0,0:0:0:0:
368,104,100163,1,2,0:0:0:0:
288,80,100356,1,0,0:0:0:0:
208,88,100548,2,0,P|208:112|232:152,2,60,2|2|0,0:0|0:0|0:0,0:0:0:0:
128,104,101125,2,0,B|96:136|96:136|112:168|112:168|80:200,1,120,8|0,0:0|0:0,0:0:0:0:
128,264,101702,1,0,0:0:0:0:
208,272,101894,6,0,P|200:304|184:336,2,60,2|0|0,0:0|0:0|0:0,0:0:0:0:
288,304,102471,1,0,0:0:0:0:
368,296,102663,1,8,0:0:0:0:
432,248,102856,2,0,P|440:280|464:304,2,60,0|0|2,0:0|0:0|0:0,0:0:0:0:
432,160,103432,1,0,0:0:0:0:
376,96,103625,1,0,0:0:0:0:
296,80,103817,2,0,B|248:48|232:128|184:96,2,120,2|8|0,0:0|0:0|0:0,0:0:0:0:
304,160,104779,1,0,0:0:0:0:
240,216,104971,6,0,P|272:224|296:240,2,60,4|0|0,0:0|0:0|0:0,0:0:0:0:
152,224,105548,1,0,0:0:0:0:
104,296,105740,2,0,P|128:320|168:320,1,60,8|0,0:0|0:0,0:0:0:0:
232,312,106125,1,0,0:0:0:0:
312,296,106317,1,2,0:0:0:0:
384,248,106509,2,0,P|408:264|432:296,3,60,0|2|2|0,0:0|0:0|0:0|0:0,0:0:0:0:
432,200,107279,2,0,B|424:176|424:176|360:160|360:160|352:128,1,120,8|0,0:0|0:0,0:0:0:0:
320,56,107856,1,0,0:0:0:0:
240,64,108048,5,2,0:0:0:0:
160,72,108240,2,0,P|134:95|128:120,1,60,0|0,0:0|0:0,0:0:0:0:
200,136,108625,1,0,0:0:0:0:
144,200,108817,1,8,0:0:0:0:
152,280,109009,2,0,P|104:264|96:256,2,60,0|0|2,0:0|0:0|0:0,0:0:0:0:
232,296,109586,1,0,0:0:0:0:
312,272,109779,1,0,0:0:0:0:
392,304,109971,1,2,0:0:0:0:
440,240,110163,2,0,P|438:206|416:176,1,60,0|8,0:0|0:0,0:0:0:0:
304,72,110740,1,0,0:0:0:0:
231,103,110932,2,0,P|207:127|199:159,2,60,0|2|0,0:0|0:0|0:0,0:0:0:0:
288,168,111509,5,0,0:0:0:0:
224,224,111702,2,0,P|208:224|168:240,1,60,0|8,0:0|0:0,0:0:0:0:
104,296,112086,1,0,0:0:0:0:
184,328,112279,2,0,P|216:328|248:320,3,60,0|2|0|2,0:0|0:0|0:0|0:0,0:0:0:0:
328,296,113048,1,2,0:0:0:0:
400,248,113240,2,0,P|408:216|408:176,1,60,0|8,0:0|0:0,0:0:0:0:
400,104,113625,1,0,0:0:0:0:
320,72,113817,1,0,0:0:0:0:
248,120,114009,1,0,0:0:0:0:
296,184,114202,6,0,P|280:208|248:232,2,60,2|0|0,0:0|0:0|0:0,0:0:0:0:
208,184,114779,2,0,P|179:191|152:208,1,60,2|8,0:0|0:0,0:0:0:0:
120,280,115163,1,0,0:0:0:0:
200,296,115356,2,8,P|224:280|264:272,1,60,0|2,0:0|0:0,0:0:0:0:
336,280,115740,6,0,L|344:248,3,30,8|0|0|8,0:0|0:0|0:0|0:0,0:0:0:0:
384,248,116125,2,0,L|392:200,3,30,8|0|8|0,0:0|0:0|0:0|0:0,0:0:0:0:
360,192,116509,2,0,L|368:144,3,30,8|0|8|0,0:0|0:0|0:0|0:0,0:0:0:0:
384,120,116894,6,0,B|416:112|416:112|440:72,2,60,8|8|4,0:0|0:0|0:0,0:0:0:0:
304,104,117471,1,0,0:0:0:0:
232,144,117663,1,0,0:0:0:0:
160,104,117856,1,0,0:0:0:0:
96,160,118048,2,0,L|104:224,1,60,0|0,0:0|0:0,0:0:0:0:
184,232,118432,1,0,0:0:0:0:
264,256,118625,1,0,0:0:0:0:
336,208,118817,1,0,0:0:0:0:
408,256,119009,1,0,0:0:0:0:
352,312,119202,2,0,P|379:309|408:328,2,60,0|0|0,0:0|0:0|0:0,0:0:0:0:
272,336,119779,2,0,P|240:336|208:312,1,60,0|0,0:0|0:0,0:0:0:0:
152,272,120163,1,0,0:0:0:0:
80,232,120355,6,0,P|32:264|24:272,2,60,0|0|0,0:0|0:0|0:0,0:0:0:0:
160,200,120932,1,0,0:0:0:0:
152,120,121125,1,0,0:0:0:0:
224,80,121317,1,0,0:0:0:0:
264,152,121509,2,0,P|288:128|312:112,1,60,0|0,0:0|0:0,0:0:0:0:
392,96,121894,1,0,0:0:0:0:
424,176,122086,1,0,0:0:0:0:
392,256,122279,1,0,0:0:0:0:
416,336,122471,1,0,0:0:0:0:
336,320,122663,2,0,B|300:321|300:321|256:336|256:336|216:336,1,120,0|0,0:0|0:0,0:0:0:0:
144,304,123240,6,0,P|124:279|88:272,2,60,0|0|0,0:0|0:0|0:0,0:0:0:0:
216,256,123817,1,0,0:0:0:0:
296,224,124009,1,0,0:0:0:0:
264,144,124202,2,0,B|216:152|192:192|152:184,1,120,0|0,0:0|0:0,0:0:0:0:
72,160,124779,1,0,0:0:0:0:
120,96,124971,1,0,0:0:0:0:
200,80,125163,1,0,0:0:0:0:
280,64,125356,2,0,P|299:96|320:104,3,60,0|0|0|0,0:0|0:0|0:0|0:0,0:0:0:0:
400,128,126125,1,0,0:0:0:0:
416,208,126317,1,0,0:0:0:0:
336,224,126509,6,0,P|353:245|384:264,2,60,0|0|0,0:0|0:0|0:0,0:0:0:0:
296,296,127086,1,0,0:0:0:0:
240,232,127279,2,0,B|200:288|200:288|144:288,1,120,0|0,0:0|0:0,0:0:0:0:
80,240,127856,1,0,0:0:0:0:
80,152,128048,1,0,0:0:0:0:
152,200,128240,1,0,0:0:0:0:
224,160,128432,2,0,B|200:128|136:128|128:88,1,120,0|0,0:0|0:0,0:0:0:0:
200,56,129009,1,0,0:0:0:0:
280,88,129202,1,0,0:0:0:0:
352,48,129394,1,0,0:0:0:0:
392,120,129586,6,0,P|416:104|440:72,2,60,4|0|0,0:0|0:0|0:0,0:0:0:0:
464,160,130163,2,0,B|448:192|448:192|464:216|464:216|432:280,1,120,0|0,0:0|0:0,0:0:0:0:
368,224,130740,2,0,P|352:256|320:272,2,60,0|0|0,0:0|0:0|0:0,0:0:0:0:
344,144,131317,2,0,P|317:162|304:192,1,60,0|0,0:0|0:0,0:0:0:0:
256,256,131702,1,0,0:0:0:0:
184,304,131894,1,0,0:0:0:0:
112,256,132086,1,0,0:0:0:0:
120,176,132279,6,0,P|136:200|176:208,2,60,0|0|0,0:0|0:0|0:0,0:0:0:0:
88,96,132856,1,0,0:0:0:0:
168,80,133048,2,0,P|192:80|224:56,1,60,0|0,0:0|0:0,0:0:0:0:
224,144,133432,1,0,0:0:0:0:
288,96,133625,1,0,0:0:0:0:
368,72,133817,2,0,L|344:136,1,60,0|0,0:0|0:0,0:0:0:0:
432,112,134202,1,0,0:0:0:0:
440,192,134394,2,0,L|416:256,1,60,0|0,0:0|0:0,0:0:0:0:
344,216,134779,1,0,0:0:0:0:
312,296,134971,1,0,0:0:0:0:
232,264,135163,1,0,0:0:0:0:
152,240,135356,6,0,B|144:272|144:272|112:288,2,60,0|0|0,0:0|0:0|0:0,0:0:0:0:
72,208,135932,1,0,0:0:0:0:
88,128,136125,2,0,P|95:99|120:80,2,60,0|0|0,0:0|0:0|0:0,0:0:0:0:
168,152,136702,1,0,0:0:0:0:
232,96,136894,1,0,0:0:0:0:
248,176,137086,1,0,0:0:0:0:
328,144,137279,2,0,P|355:122|368:88,3,60,0|0|0|0,0:0|0:0|0:0|0:0,0:0:0:0:
392,184,138048,1,0,0:0:0:0:
368,264,138240,1,0,0:0:0:0:
288,296,138432,1,0,0:0:0:0:
216,256,138625,1,0,0:0:0:0:
144,296,138817,6,0,L|120:272,3,30,0|0|0|0,0:0|0:0|0:0|0:0,0:0:0:0:
144,240,139202,2,0,L|168:216,3,30,0|0|0|0,0:0|0:0|0:0|0:0,0:0:0:0:
144,184,139586,2,0,L|120:160,3,30,0|0|0|0,0:0|0:0|0:0|0:0,0:0:0:0:
144,128,139971,2,0,L|168:104,3,30,0|0|0|0,0:0|0:0|0:0|0:0,0:0:0:0:
256,192,140356,12,0,141510,0:0:0:0:
256,192,141894,5,4,0:0:0:0:
448,32,142279,2,0,P|480:40|480:96,2,90.0000034332277,0|0|8,0:0|0:0|0:0,0:0:0:0:
328,64,142855,1,0,0:0:0:0:
208,88,143048,2,0,P|160:112|128:144,1,90.0000034332277,0|2,0:0|0:0,0:0:0:0:
64,240,143432,1,0,0:0:0:0:
176,296,143625,1,2,0:0:0:0:
232,184,143817,1,2,0:0:0:0:
360,168,144009,2,0,P|384:200|432:216,2,90.0000034332277,0|8|0,0:0|0:0|0:0,0:0:0:0:
304,280,144586,2,0,P|360:288|392:304,2,90.0000034332277,0|0|2,0:0|0:0|0:0,0:0:0:0:
184,320,145163,5,0,0:0:0:0:
80,248,145356,1,0,0:0:0:0:
200,224,145548,2,0,P|168:200|128:160,1,90.0000034332277,0|8,0:0|0:0,0:0:0:0:
64,56,145932,1,0,0:0:0:0:
184,80,146125,1,0,0:0:0:0:
280,160,146317,1,2,0:0:0:0:
352,48,146509,2,0,P|376:68|376:128,1,90.0000034332277,0|0,0:0|0:0,0:0:0:0:
492,68,146894,2,0,P|472:112|480:156,1,90.0000034332277,2|0,0:0|0:0,0:0:0:0:
356,188,147279,2,0,P|348:220|384:268,1,90.0000034332277,8|0,0:0|0:0,0:0:0:0:
492,216,147663,2,0,P|484:256|440:288,1,90.0000034332277,0|0,0:0|0:0,0:0:0:0:
320,284,148048,6,0,B|287:312|287:312|288:364,2,90.0000034332277,2|0|0,0:0|0:0|0:0,0:0:0:0:
280,164,148625,1,0,0:0:0:0:
192,76,148817,1,8,0:0:0:0:
84,140,149009,2,0,P|130:163|172:164,2,90.0000034332277,0|0|2,0:0|0:0|0:0,0:0:0:0:
80,268,149586,1,0,0:0:0:0:
180,348,149779,1,2,0:0:0:0:
204,224,149971,1,2,0:0:0:0:
280,324,150163,2,0,P|316:328|360:364,2,90.0000034332277,0|8|0,0:0|0:0|0:0,0:0:0:0:
384,256,150740,1,0,0:0:0:0:
280,184,150932,1,0,0:0:0:0:
384,112,151125,5,2,0:0:0:0:
280,40,151317,1,0,0:0:0:0:
160,80,151509,2,0,B|176:136|176:136|112:152|112:152|128:208,1,180.000006866455,0|8,0:0|0:0,0:0:0:0:
168,328,152086,1,0,0:0:0:0:
280,280,152279,1,0,0:0:0:0:
400,320,152471,1,2,0:0:0:0:
336,208,152663,2,0,L|248:160,1,90.0000034332277,0|8,0:0|0:0,0:0:0:0:
344,72,153048,2,0,L|248:88,1,90.0000034332277,2|2,0:0|0:0,0:0:0:0:
136,64,153432,2,0,L|72:136,1,90.0000034332277,6|0,0:0|0:0,0:0:0:0:
96,256,153817,1,8,0:0:0:0:
208,192,154009,1,8,0:0:0:0:
272,296,154202,6,0,P|224:296|184:312,2,90.0000034332277,4|0|0,0:0|0:0|0:0,0:0:0:0:
400,312,154779,1,0,0:0:0:0:
320,216,154971,1,8,0:0:0:0:
432,160,155163,1,0,0:0:0:0:
312,120,155356,2,0,B|352:112|352:112|400:64,2,90.0000034332277,0|2|0,0:0|0:0|0:0,0:0:0:0:
192,72,155932,1,2,0:0:0:0:
96,152,156125,2,0,P|64:120|72:72,2,90.0000034332277,2|0|8,0:0|0:0|0:0,0:0:0:0:
216,184,156702,2,0,P|168:192|128:232,2,90.0000034332277,0|0|0,0:0|0:0|0:0,0:0:0:0:
344,200,157279,5,2,0:0:0:0:
384,320,157471,1,0,0:0:0:0:
256,296,157663,2,0,B|200:296|200:296|160:336|160:336|104:280,1,180.000006866455,0|8,0:0|0:0,0:0:0:0:
32,192,158240,1,0,0:0:0:0:
160,192,158432,1,0,0:0:0:0:
384,80,158817,2,0,L|344:176,1,90.0000034332277,0|0,0:0|0:0,0:0:0:0:
256,80,159202,2,0,L|280:168,1,90.0000034332277,2|0,0:0|0:0,0:0:0:0:
160,136,159586,2,0,L|224:200,1,90.0000034332277,8|0,0:0|0:0,0:0:0:0:
336,248,159971,1,0,0:0:0:0:
240,328,160163,1,0,0:0:0:0:
120,304,160356,6,0,P|96:256|96:208,1,90.0000034332277,4|0,0:0|0:0,0:0:0:0:
120,96,160740,1,0,0:0:0:0:
240,144,160932,1,0,0:0:0:0:
328,56,161125,2,0,P|368:96|400:112,2,90.0000034332277,8|0|0,0:0|0:0|0:0,0:0:0:0:
344,184,161702,2,0,P|376:216|392:264,1,90.0000034332277,2|0,0:0|0:0,0:0:0:0:
264,272,162086,1,2,0:0:0:0:
144,320,162279,1,2,0:0:0:0:
88,208,162471,5,0,0:0:0:0:
192,136,162663,1,8,0:0:0:0:
84,72,162855,1,0,0:0:0:0:
208,52,163048,2,0,P|244:84|300:72,1,90.0000034332277,0|8,0:0|0:0,0:0:0:0:
244,200,163432,6,0,B|284:184|284:184|284:136,2,90.0000034332277,2|8|8,0:0|0:0|0:0,0:0:0:0:
336,112,164009,2,0,B|416:48,1,90.0000034332277,2|12,0:0|0:0,0:0:0:0:
420,180,164394,1,0,0:0:0:0:
340,276,164586,2,0,P|380:268|428:300,2,90.0000034332277,8|0|4,0:0|0:0|0:0,0:0:0:0:
228,336,165163,1,8,0:0:0:0:
104,308,165356,2,0,P|144:292|192:260,2,90.0000034332277,8|8|8,0:0|0:0|0:0,0:0:0:0:
64,188,165932,5,8,0:0:0:0:
120,76,166125,1,8,0:0:0:0:
164,192,166317,2,0,P|184:148|220:120,1,90.0000034332277,8|4,0:0|0:0,0:0:0:0:
460,64,166894,5,0,0:0:0:0:
360,144,167086,1,0,0:0:0:0:
452,232,167279,1,8,0:0:0:0:
204,276,167663,2,0,B|180:244|180:244|128:236,2,90.0000034332277,0|2|0,0:0|0:0|0:0,0:0:0:0:
256,160,168240,1,2,0:0:0:0:
132,144,168432,2,0,B|148:104|148:104|212:80,2,90.0000034332277,2|0|8,0:0|0:0|0:0,0:0:0:0:
52,244,169009,1,0,0:0:0:0:
148,324,169202,1,0,0:0:0:0:
272,328,169394,5,2,0:0:0:0:
348,228,169586,2,0,L|380:316,2,90.0000034332277,4|0|0,0:0|0:0|0:0,0:0:0:0:
364,104,170163,1,2,0:0:0:0:
252,48,170356,2,0,L|276:136,2,90.0000034332277,12|0|2,0:0|0:0|0:0,0:0:0:0:
128,88,170932,1,8,0:0:0:0:
80,208,171125,1,0,0:0:0:0:
200,184,171317,2,0,P|184:232|160:272,1,90.0000034332277,2|8,0:0|0:0,0:0:0:0:
288,272,171702,1,2,0:0:0:0:
408,224,171894,1,2,0:0:0:0:
304,152,172086,1,2,0:0:0:0:
416,96,172279,1,0,0:0:0:0:
296,48,172471,1,0,0:0:0:0:
216,72,172663,6,0,L|184:80,5,30,4|0|0|0|0|0,0:0|0:0|0:0|0:0|0:0|0:0,0:0:0:0:
152,104,173240,2,0,P|160:136|152:168,3,60,0|2|0|2,0:0|0:0|0:0|0:0,0:0:0:0:
96,224,174009,1,0,0:0:0:0:
64,304,174202,1,2,0:0:0:0:
144,272,174394,1,0,0:0:0:0:
128,352,174586,2,0,P|160:360|192:352,1,60,0|0,0:0|0:0,0:0:0:0:
264,320,174971,1,2,0:0:0:0:
304,248,175163,1,0,0:0:0:0:
376,288,175356,2,0,P|352:320|328:336,2,60,0|0|2,0:0|0:0|0:0,0:0:0:0:
416,216,175932,5,0,0:0:0:0:
416,136,176125,2,0,P|392:152|352:160,1,60,0|0,0:0|0:0,0:0:0:0:
344,80,176509,1,2,0:0:0:0:
264,112,176702,1,0,0:0:0:0:
272,192,176894,1,0,0:0:0:0:
200,152,177086,2,0,B|160:144|160:144|128:168|128:168|80:160,1,120,0|0,0:0|0:0,0:0:0:0:
112,80,177663,1,0,0:0:0:0:
89,161,177856,2,0,P|112:192|152:208,2,60,0|2|0,0:0|0:0|0:0,0:0:0:0:
64,240,178432,1,0,0:0:0:0:
96,320,178625,1,0,0:0:0:0:
168,272,178817,6,0,L|152:208,2,60,2|0|0,0:0|0:0|0:0,0:0:0:0:
248,256,179394,2,0,L|256:192,2,60,0|2|0,0:0|0:0|0:0,0:0:0:0:
320,216,179971,1,0,0:0:0:0:
296,136,180163,2,0,P|280:112|240:88,2,60,2|2|0,0:0|0:0|0:0,0:0:0:0:
344,64,180740,1,0,0:0:0:0:
416,104,180932,1,2,0:0:0:0:
424,184,181125,2,0,P|392:184|352:152,2,60,2|0|0,0:0|0:0|0:0,0:0:0:0:
408,264,181702,1,0,0:0:0:0:
328,240,181894,5,2,0:0:0:0:
328,320,182086,1,0,0:0:0:0:
264,264,182279,2,0,P|248:296|224:320,1,60,0|0,0:0|0:0,0:0:0:0:
176,248,182663,1,2,0:0:0:0:
96,256,182856,2,0,P|104:288|128:320,2,60,0|0|0,0:0|0:0|0:0,0:0:0:0:
104,176,183432,1,2,0:0:0:0:
128,96,183625,1,0,0:0:0:0:
216,96,183817,2,0,P|200:120|192:152,3,60,0|0|2|0,0:0|0:0|0:0|0:0,0:0:0:0:
272,176,184586,1,0,0:0:0:0:
304,96,184779,1,0,0:0:0:0:
368,152,184971,6,0,P|392:128|400:88,2,60,4|0|0,0:0|0:0|0:0,0:0:0:0:
432,208,185548,1,0,0:0:0:0:
352,232,185740,1,2,0:0:0:0:
384,312,185932,1,0,0:0:0:0:
304,312,186125,2,0,P|280:288|264:256,1,60,0|0,0:0|0:0,0:0:0:0:
184,272,186509,2,0,L|184:336,2,60,2|0|0,0:0|0:0|0:0,0:0:0:0:
104,304,187086,1,0,0:0:0:0:
48,240,187279,1,2,0:0:0:0:
104,176,187471,1,0,0:0:0:0:
120,96,187663,2,0,P|88:96|56:104,2,60,0|0|2,0:0|0:0|0:0,0:0:0:0:
208,96,188240,5,0,0:0:0:0:
208,176,188432,2,0,P|200:208|176:240,2,60,0|0|2,0:0|0:0|0:0,0:0:0:0:
280,128,189009,1,0,0:0:0:0:
304,48,189202,2,0,P|328:48|368:72,1,60,0|0,0:0|0:0,0:0:0:0:
440,72,189586,1,2,0:0:0:0:
384,136,189779,1,0,0:0:0:0:
440,200,189971,1,0,0:0:0:0:
384,264,190163,1,0,0:0:0:0:
440,320,190356,2,0,P|416:336|376:344,2,60,2|0|0,0:0|0:0|0:0,0:0:0:0:
384,264,190932,1,0,0:0:0:0:
304,280,191125,6,0,L|248:312,2,60,2|0|0,0:0|0:0|0:0,0:0:0:0:
240,224,191702,6,0,L|176:232,2,60,0|2|0,0:0|0:0|0:0,0:0:0:0:
200,144,192279,6,0,L|144:112,2,60,0|0|2,0:0|0:0|0:0,0:0:0:0:
216,64,192856,5,0,0:0:0:0:
272,128,193048,1,0,0:0:0:0:
320,64,193240,1,0,0:0:0:0:
368,144,193432,2,0,P|384:120|416:96,2,60,2|0|0,0:0|0:0|0:0,0:0:0:0:
440,184,194009,1,0,0:0:0:0:
376,240,194202,6,0,L|416:288,2,60,2|0|0,0:0|0:0|0:0,0:0:0:0:
296,264,194779,6,0,L|304:328,2,60,0|2|0,0:0|0:0|0:0,0:0:0:0:
208,264,195356,6,0,L|176:328,2,60,2|2|2,0:0|0:0|0:0,0:0:0:0:
136,216,195932,6,0,L|64:248,2,60,2|2|2,0:0|0:0|0:0,0:0:0:0:
128,128,196509,1,2,0:0:0:0:
208,96,196702,1,2,0:0:0:0:
272,152,196894,1,2,0:0:0:0:
240,232,197086,1,2,0:0:0:0:
256,192,200356,5,2,0:0:0:0:
128,192,200740,2,0,L|88:152,2,45.0000017166138,2|0|0,0:0|0:0|0:0,0:0:0:0:
208,272,201509,2,0,L|264:272,2,45.0000017166138,0|2|0,0:0|0:0|0:0,0:0:0:0:
168,224,202086,1,0,0:0:0:0:
208,176,202279,1,2,0:0:0:0:
208,112,202471,2,0,L|208:64,2,45.0000017166138,0|0|0,0:0|0:0|0:0,0:0:0:0:
264,144,203048,2,0,P|304:128|344:96,1,90.0000034332277,0|2,0:0|0:0,0:0:0:0:
384,216,203817,1,2,0:0:0:0:
280,288,204202,5,0,0:0:0:0:
160,264,204586,1,0,0:0:0:0:
104,152,204971,2,0,L|56:168,2,45.0000017166138,0|0|2,0:0|0:0|0:0,0:0:0:0:
160,128,205548,2,0,L|120:96,1,45.0000017166138,0|0,0:0|0:0,0:0:0:0:
88,48,205932,2,0,L|144:40,1,45.0000017166138,2|0,0:0|0:0,0:0:0:0:
256,48,206509,2,0,P|296:56|344:80,1,90.0000034332277,2|2,0:0|0:0,0:0:0:0:
376,128,207086,5,0,0:0:0:0:
376,128,207279,1,0,0:0:0:0:
348,252,207663,2,0,P|304:268|268:304,1,90.0000034332277,0|0,0:0|0:0,0:0:0:0:
120,176,208625,2,0,L|88:216,2,45.0000017166138,0|0|0,0:0|0:0|0:0,0:0:0:0:
120,176,209202,2,0,P|160:192|192:232,1,90.0000034332277,0|2,0:0|0:0,0:0:0:0:
224,280,209779,6,0,L|280:296,1,45.0000017166138,0|2,0:0|0:0,0:0:0:0:
392,272,210356,1,0,0:0:0:0:
400,144,210740,1,0,0:0:0:0:
304,64,211125,2,0,L|264:16,1,45.0000017166138,0|0,0:0|0:0,0:0:0:0:
256,88,211509,2,0,L|232:136,1,45.0000017166138,2|0,0:0|0:0,0:0:0:0:
288,168,211894,2,0,L|320:208,1,45.0000017166138,0|2,0:0|0:0,0:0:0:0:
264,240,212279,1,0,0:0:0:0:
224,192,212471,2,0,P|184:192|136:168,1,90.0000034332277,0|0,0:0|0:0,0:0:0:0:
128,232,213048,6,0,L|168:264,2,45.0000017166138,2|0|0,0:0|0:0|0:0,0:0:0:0:
48,136,213817,2,0,L|88:96,1,45.0000017166138,0|2,0:0|0:0,0:0:0:0:
200,136,214394,2,0,L|256:120,2,45.0000017166138,0|2|0,0:0|0:0|0:0,0:0:0:0:
224,192,214971,2,0,P|256:200|296:248,1,90.0000034332277,0|0,0:0|0:0,0:0:0:0:
352,224,215548,1,0,0:0:0:0:
408,192,215740,6,0,P|392:160|344:120,1,90.0000034332277,2|2,0:0|0:0,0:0:0:0:
240,72,216509,2,0,L|192:56,2,45.0000017166138,0|2|0,0:0|0:0|0:0,0:0:0:0:
160,168,217279,2,0,L|96:152,1,45.0000017166138,0|0,0:0|0:0,0:0:0:0:
72,200,217663,2,0,L|32:248,1,45.0000017166138,2|0,0:0|0:0,0:0:0:0:
88,280,218048,2,0,L|144:264,1,45.0000017166138,0|2,0:0|0:0,0:0:0:0:
184,232,218432,1,0,0:0:0:0:
240,264,218625,2,0,P|280:272|320:312,1,90.0000034332277,0|0,0:0|0:0,0:0:0:0:
360,264,219202,5,2,0:0:0:0:
376,208,219394,1,0,0:0:0:0:
336,88,219779,2,0,L|288:56,2,45.0000017166138,2|0|2,0:0|0:0|0:0,0:0:0:0:
224,144,220548,2,0,L|168:128,1,45.0000017166138,0|2,0:0|0:0,0:0:0:0:
64,184,221125,1,0,0:0:0:0:
288,296,221894,6,0,L|360:232,3,90.0000034332277,0|0|2|0,0:0|0:0|0:0|0:0,0:0:0:0:
256,192,223432,12,0,224586,0:0:0:0:
256,192,224971,5,4,0:0:0:0:
448,352,225356,2,0,P|464:304|464:256,1,90.0000034332277,0|0,0:0|0:0,0:0:0:0:
448,136,225740,1,8,0:0:0:0:
328,96,225932,1,0,0:0:0:0:
328,224,226125,2,0,P|360:256|384:296,2,90.0000034332277,0|2|0,0:0|0:0|0:0,0:0:0:0:
224,152,226702,1,2,0:0:0:0:
104,104,226894,1,2,0:0:0:0:
88,232,227086,2,0,P|104:272|152:312,2,90.0000034332277,0|8|0,0:0|0:0|0:0,0:0:0:0:
216,240,227663,1,0,0:0:0:0:
304,328,227856,2,0,P|336:312|376:264,1,90.0000034332277,0|2,0:0|0:0,0:0:0:0:
416,152,228240,5,0,0:0:0:0:
328,64,228432,1,0,0:0:0:0:
272,176,228625,1,0,0:0:0:0:
176,96,228817,2,0,P|144:128|88:144,3,90.0000034332277,8|0|0|2,0:0|0:0|0:0|0:0,0:0:0:0:
76,268,229586,2,0,P|60:308|24:340,1,90.0000034332277,0|0,0:0|0:0,0:0:0:0:
132,268,229971,2,0,P|132:304|116:356,1,90.0000034332277,2|0,0:0|0:0,0:0:0:0:
184,248,230356,2,0,P|196:270|240:316,1,90.0000034332277,8|0,0:0|0:0,0:0:0:0:
196,200,230740,2,0,P|222:211|296:224,1,90.0000034332277,0|0,0:0|0:0,0:0:0:0:
316,100,231125,6,0,B|348:124|348:124|356:188,2,90.0000034332277,2|0|0,0:0|0:0|0:0,0:0:0:0:
428,160,231702,1,0,0:0:0:0:
316,100,231894,1,8,0:0:0:0:
192,92,232086,1,0,0:0:0:0:
96,172,232279,2,0,P|144:180|176:140,2,90.0000034332277,0|2|0,0:0|0:0|0:0,0:0:0:0:
104,300,232856,1,2,0:0:0:0:
224,256,233048,1,2,0:0:0:0:
336,312,233240,2,0,P|368:280|384:232,2,90.0000034332277,0|8|0,0:0|0:0|0:0,0:0:0:0:
224,256,233817,1,0,0:0:0:0:
328,184,234009,2,0,P|280:184|240:152,1,90.0000034332277,0|2,0:0|0:0,0:0:0:0:
168,64,234394,5,0,0:0:0:0:
96,168,234586,1,0,0:0:0:0:
120,288,234779,2,0,B|144:280|144:280|152:240|152:240|184:224,2,90.0000034332277,2|12|0,0:0|0:0|0:0,0:0:0:0:
240,320,235356,1,0,0:0:0:0:
368,304,235548,1,2,0:0:0:0:
400,184,235740,2,0,L|320:240,1,90.0000034332277,12|2,0:0|0:0,0:0:0:0:
296,112,236125,2,0,L|248:200,1,90.0000034332277,8|8,0:0|0:0,0:0:0:0:
160,104,236509,2,0,L|168:208,1,90.0000034332277,8|0,0:0|0:0,0:0:0:0:
88,288,236894,1,8,0:0:0:0:
216,280,237086,1,0,0:0:0:0:
336,328,237279,6,0,P|376:344|432:352,2,90.0000034332277,4|0|0,0:0|0:0|0:0,0:0:0:0:
440,256,237856,1,0,0:0:0:0:
328,192,238048,1,8,0:0:0:0:
432,120,238240,2,0,B|400:88|400:88|328:88,1,90.0000034332277,0|0,0:0|0:0,0:0:0:0:
232,88,238625,1,2,0:0:0:0:
136,168,238817,1,0,0:0:0:0:
120,296,239009,1,2,0:0:0:0:
232,240,239202,2,0,P|256:280|256:328,2,90.0000034332277,2|0|8,0:0|0:0|0:0,0:0:0:0:
352,280,239779,2,0,P|320:248|296:184,2,90.0000034332277,0|0|0,0:0|0:0|0:0,0:0:0:0:
416,168,240356,5,2,0:0:0:0:
304,104,240548,1,0,0:0:0:0:
192,88,240740,2,0,B|152:144|152:144|112:144|112:144|64:216,1,180.000006866455,0|8,0:0|0:0,0:0:0:0:
144,304,241317,1,0,0:0:0:0:
216,200,241509,1,0,0:0:0:0:
280,304,241702,1,2,0:0:0:0:
408,288,241894,2,0,L|320:240,1,90.0000034332277,0|0,0:0|0:0,0:0:0:0:
384,136,242279,2,0,L|304:176,1,90.0000034332277,2|0,0:0|0:0,0:0:0:0:
256,56,242663,2,0,L|240:168,1,90.0000034332277,8|0,0:0|0:0,0:0:0:0:
152,232,243048,1,0,0:0:0:0:
192,352,243240,1,0,0:0:0:0:
152,232,243432,6,0,P|176:264|224:288,2,90.0000034332277,4|0|0,0:0|0:0|0:0,0:0:0:0:
80,128,244009,1,0,0:0:0:0:
176,48,244202,1,8,0:0:0:0:
304,64,244394,1,0,0:0:0:0:
384,160,244586,2,0,L|384:264,1,90.0000034332277,0|2,0:0|0:0,0:0:0:0:
272,312,244971,1,0,0:0:0:0:
152,288,245163,1,2,0:0:0:0:
112,168,245356,2,0,P|160:160|208:128,1,90.0000034332277,2|0,0:0|0:0,0:0:0:0:
320,104,245740,6,0,P|276:128|256:164,1,90.0000034332277,12|0,0:0|0:0,0:0:0:0:
380,188,246125,2,0,P|412:208|472:212,1,90.0000034332277,12|0,0:0|0:0,0:0:0:0:
356,276,246509,6,0,B|404:284|404:284|444:332,2,90.0000034332277,2|8|0,0:0|0:0|0:0,0:0:0:0:
232,292,247086,2,0,B|184:284|184:284|160:244,2,90.0000034332277,2|8|8,0:0|0:0|0:0,0:0:0:0:
144,200,247663,1,8,0:0:0:0:
96,84,247856,1,8,0:0:0:0:
216,128,248048,6,0,P|264:128|304:88,2,90.0000034332277,4|8|8,0:0|0:0|0:0,0:0:0:0:
272,240,248625,1,8,0:0:0:0:
384,176,248817,6,0,P|392:120|352:80,2,90.0000034332277,8|8|8,0:0|0:0|0:0,0:0:0:0:
424,296,249394,2,0,P|384:312|328:312,1,90.0000034332277,12|4,0:0|0:0,0:0:0:0:
88,272,249971,5,0,0:0:0:0:
168,176,250163,1,0,0:0:0:0:
88,80,250356,1,8,0:0:0:0:
336,112,250740,2,0,B|304:80|304:80|240:88,2,90.0000034332277,0|2|0,0:0|0:0|0:0,0:0:0:0:
416,208,251317,1,2,0:0:0:0:
288,200,251509,1,2,0:0:0:0:
384,288,251702,2,0,B|352:320|352:320|296:320,1,90.0000034332277,0|8,0:0|0:0,0:0:0:0:
192,272,252086,1,0,0:0:0:0:
76,320,252279,1,0,0:0:0:0:
104,196,252471,1,2,0:0:0:0:
104,72,252663,6,0,L|200:56,2,90.0000034332277,8|2|0,0:0|0:0|0:0,0:0:0:0:
192,168,253240,1,2,0:0:0:0:
280,80,253432,2,0,L|288:176,2,90.0000034332277,8|2|2,0:0|0:0|0:0,0:0:0:0:
400,112,254009,1,2,0:0:0:0:
376,232,254202,1,8,0:0:0:0:
440,336,254394,2,8,P|392:344|344:320,1,90.0000034332277,8|2,0:0|0:0,0:0:0:0:
256,256,254779,1,0,0:0:0:0:
16,176,255356,1,0,0:0:0:0:
180,288,255740,6,0,P|188:320|216:360,2,71.9999978027344,4|0|0,0:0|0:0|0:0,0:0:0:0:
200,188,256317,1,0,0:0:0:0:
144,104,256509,1,8,0:0:0:0:
244,100,256702,2,8,P|276:100|316:84,2,71.9999978027344,0|0|2,0:0|0:0|0:0,0:0:0:0:
300,184,257279,1,0,0:0:0:0:
400,160,257471,1,2,0:0:0:0:
368,256,257663,2,0,B|324:292|324:292|324:316|324:316|272:360,1,143.999995605469,2|8,0:0|0:0,0:0:0:0:
88,284,258432,6,0,L|20:260,2,71.9999978027344,0|0|2,0:0|0:0|0:0,0:0:0:0:
160,212,259009,1,0,0:0:0:0:
76,156,259202,1,0,0:0:0:0:
160,100,259394,2,0,B|216:64|224:164|292:116,1,143.999995605469,0|0,0:0|0:0,0:0:0:0:
376,68,259971,2,0,P|352:36|316:28,2,71.9999978027344,0|2|0,0:0|0:0|0:0,0:0:0:0:
444,140,260548,2,0,B|436:180|436:180|388:172|388:172|372:228,1,143.999995605469,0|0,0:0|0:0,0:0:0:0:
440,312,261317,2,0,L|460:236,1,71.9999978027344,0|0,0:0|0:0,0:0:0:0:
280,340,261894,6,0,P|312:332|348:304,2,71.9999978027344,4|0|0,0:0|0:0|0:0,0:0:0:0:
272,240,262471,1,0,0:0:0:0:
188,296,262663,1,8,0:0:0:0:
92,324,262856,2,8,P|60:316|28:288,2,71.9999978027344,0|0|2,0:0|0:0|0:0,0:0:0:0:
68,124,263625,2,0,P|100:156|132:168,2,71.9999978027344,2|2|0,0:0|0:0|0:0,0:0:0:0:
156,76,264202,1,8,0:0:0:0:
240,24,264394,1,0,0:0:0:0:
260,124,264586,1,0,0:0:0:0:
176,180,264779,1,2,0:0:0:0:
264,228,264971,6,0,B|304:184|304:184|328:184|328:184|368:136,1,143.999995605469,2|0,0:0|0:0,0:0:0:0:
452,188,265548,2,0,P|420:204|396:232,1,71.9999978027344,2|8,0:0|0:0,0:0:0:0:
332,308,265932,2,0,P|358:315|404:308,2,71.9999978027344,0|2|8,0:0|0:0|0:0,0:0:0:0:
244,260,266509,1,2,0:0:0:0:
164,324,266702,2,8,P|132:324|96:304,2,71.9999978027344,2|8|2,0:0|0:0|0:0,0:0:0:0:
160,224,267279,1,8,0:0:0:0:
60,208,267471,1,8,0:0:0:0:
160,224,267663,1,8,0:0:0:0:
60,208,267855,1,8,0:0:0:0:
108,120,268048,6,0,B|124:80|196:120|228:52,1,143.999995605469,4|0,0:0|0:0,0:0:0:0:
224,156,268625,2,0,P|272:140|288:124,2,71.9999978027344,0|8|0,0:0|0:0|0:0,0:0:0:0:
256,252,269202,1,0,0:0:0:0:
340,196,269394,2,0,L|360:120,2,71.9999978027344,2|0|2,0:0|0:0|0:0,0:0:0:0:
436,224,269971,2,0,L|468:80,1,143.999995605469,2|8,0:0|0:0,0:0:0:0:
264,68,270740,6,0,P|240:84|188:84,2,71.9999978027344,0|0|2,0:0|0:0|0:0,0:0:0:0:
272,168,271317,1,0,0:0:0:0:
172,180,271509,2,0,P|148:156|100:136,2,71.9999978027344,0|0|8,0:0|0:0|0:0,0:0:0:0:
88,236,272086,1,0,0:0:0:0:
160,308,272279,1,0,0:0:0:0:
244,252,272471,2,0,B|284:276|284:276|324:276|324:276|372:308,1,143.999995605469,2|0,0:0|0:0,0:0:0:0:
456,256,273048,1,2,0:0:0:0:
376,196,273240,1,0,0:0:0:0:
460,144,273432,1,8,0:0:0:0:
376,88,273625,1,2,0:0:0:0:
284,44,273817,2,0,P|252:36|208:40,1,71.9999978027344,0|0,0:0|0:0,0:0:0:0:
140,108,274202,6,0,P|116:140|80:152,1,71.9999978027344,4|0,0:0|0:0,0:0:0:0:
180,192,274586,1,0,0:0:0:0:
84,220,274779,6,0,P|116:240|136:280,1,71.9999978027344,0|8,0:0|0:0,0:0:0:0:
60,340,275163,1,0,0:0:0:0:
160,352,275355,6,0,P|194:352|240:336,1,71.9999978027344,0|2,0:0|0:0,0:0:0:0:
232,240,275740,1,0,0:0:0:0:
312,300,275932,6,0,P|344:276|356:248,2,71.9999978027344,8|0|2,0:0|0:0|0:0,0:0:0:0:
404,344,276509,2,0,P|428:328|444:288,1,71.9999978027344,8|2,0:0|0:0,0:0:0:0:
444,188,276894,1,0,0:0:0:0:
348,156,277086,1,2,0:0:0:0:
276,88,277279,6,0,L|316:28,2,71.9999978027344,8|2|0,0:0|0:0|0:0,0:0:0:0:
192,144,277856,6,0,L|180:56,2,71.9999978027344,2|12|2,0:0|0:0|0:0,0:0:0:0:
132,228,278432,6,0,L|92:164,2,71.9999978027344,8|8|8,0:0|0:0|0:0,0:0:0:0:
224,268,279009,6,0,L|260:240,10,35.9999989013672,2|2|2|2|2|2|2|2|2|2|2,0:0|0:0|0:0|0:0|0:0|0:0|0:0|0:0|0:0|0:0|0:0,0:0:0:0:
124,252,280163,1,2,0:0:0:0:
80,168,280356,6,0,P|80:136|96:96,2,71.9999978027344,4|0|0,0:0|0:0|0:0,0:0:0:0:
180,172,280932,1,2,0:0:0:0:
196,72,281125,2,0,P|212:56|264:48,2,71.9999978027344,12|0|0,0:0|0:0|0:0,0:0:0:0:
272,140,281702,1,2,0:0:0:0:
328,56,281894,2,0,P|352:80|372:120,2,71.9999978027344,0|2|2,0:0|0:0|0:0,0:0:0:0:
428,36,282471,1,0,0:0:0:0:
456,132,282663,2,0,P|472:108|492:60,2,71.9999978027344,8|0|0,0:0|0:0|0:0,0:0:0:0:
416,328,283432,5,2,0:0:0:0:
352,248,283625,1,0,0:0:0:0:
296,332,283817,1,0,0:0:0:0:
240,248,284009,1,0,0:0:0:0:
184,332,284202,1,8,0:0:0:0:
128,248,284394,1,0,0:0:0:0:
76,160,284586,2,0,B|112:124|112:124|112:96|112:96|160:48,2,143.999995605469,0|0|2,0:0|0:0|0:0,0:0:0:0:
128,248,285548,1,0,0:0:0:0:
196,176,285740,1,8,0:0:0:0:
264,248,285932,1,2,0:0:0:0:
332,176,286125,1,0,0:0:0:0:
464,328,286509,6,0,L|464:252,2,71.9999978027344,4|0|0,0:0|0:0|0:0,0:0:0:0:
364,332,287086,1,0,0:0:0:0:
264,332,287279,2,0,L|264:256,2,71.9999978027344,8|0|0,0:0|0:0|0:0,0:0:0:0:
164,332,287856,1,2,0:0:0:0:
64,332,288048,2,0,L|64:256,1,71.9999978027344,0|2,0:0|0:0,0:0:0:0:
60,160,288432,1,2,0:0:0:0:
160,156,288625,1,0,0:0:0:0:
260,148,288817,2,0,L|404:148,1,143.999995605469,8|0,0:0|0:0,0:0:0:0:
376,348,289586,5,2,0:0:0:0:
332,256,289779,2,0,P|288:268|264:288,2,71.9999978027344,8|0|2,0:0|0:0|0:0,0:0:0:0:
304,352,290355,1,8,0:0:0:0:
212,308,290548,1,8,0:0:0:0:
144,236,290740,2,0,P|144:200|176:160,1,71.9999978027344,0|2,0:0|0:0,0:0:0:0:
224,204,291125,6,0,P|248:180|268:148,2,71.9999978027344,8|2|2,0:0|0:0|0:0,0:0:0:0:
144,236,291702,1,2,0:0:0:0:
44,236,291894,2,0,P|52:268|88:308,1,71.9999978027344,8|2,0:0|0:0,0:0:0:0:
160,356,292279,2,0,L|148:312,3,35.9999989013672,8|2|2|2,0:0|0:0|0:0|0:0,0:0:0:0:
192,296,292663,6,0,P|224:288|256:260,1,71.9999978027344,4|0,0:0|0:0,0:0:0:0:
348,292,293048,1,0,0:0:0:0:
444,256,293240,1,0,0:0:0:0:
380,180,293432,2,0,P|364:148|364:100,1,71.9999978027344,8|0,0:0|0:0,0:0:0:0:
292,188,293817,1,0,0:0:0:0:
208,128,294009,1,2,0:0:0:0:
212,28,294202,6,0,P|180:12|136:12,1,71.9999978027344,0|8,0:0|0:0,0:0:0:0:
80,88,294586,1,0,0:0:0:0:
208,128,294779,1,2,0:0:0:0:
116,164,294971,2,0,P|124:196|148:228,1,71.9999978027344,8|2,0:0|0:0,0:0:0:0:
236,272,295356,1,0,0:0:0:0:
280,184,295548,1,2,0:0:0:0:
288,84,295740,6,0,P|312:76|364:76,1,71.9999978027344,2|0,0:0|0:0,0:0:0:0:
428,148,296125,1,0,0:0:0:0:
340,196,296317,1,0,0:0:0:0:
424,252,296509,2,0,P|416:292|396:316,1,71.9999978027344,8|0,0:0|0:0,0:0:0:0:
296,332,296894,1,0,0:0:0:0:
248,244,297086,1,2,0:0:0:0:
192,328,297279,2,0,L|164:260,1,71.9999978027344,0|2,0:0|0:0,0:0:0:0:
64,248,297663,2,0,L|100:180,1,71.9999978027344,2|0,0:0|0:0,0:0:0:0:
72,88,298048,2,0,L|140:56,1,71.9999978027344,8|2,0:0|0:0,0:0:0:0:
192,144,298432,1,0,0:0:0:0:
256,68,298625,1,0,0:0:0:0:
304,156,298817,6,0,L|344:96,3,71.9999978027344,4|0|0|0,0:0|0:0|0:0|0:0,0:0:0:0:
408,172,299586,2,0,L|444:96,3,71.9999978027344,8|0|0|2,0:0|0:0|0:0|0:0,0:0:0:0:
376,28,300356,1,0,0:0:0:0:
276,48,300548,5,8,0:0:0:0:
232,140,300740,1,2,0:0:0:0:
160,68,300932,1,2,0:0:0:0:
116,160,301125,2,0,P|84:144|56:108,2,71.9999978027344,8|2|0,0:0|0:0|0:0,0:0:0:0:
68,252,301702,1,2,0:0:0:0:
112,344,301894,6,0,P|136:328|180:316,1,71.9999978027344,0|2,0:0|0:0,0:0:0:0:
192,268,302182,1,2,0:0:0:0:
192,268,302279,2,0,P|228:272|260:292,1,71.9999978027344,12|2,0:0|0:0,0:0:0:0:
344,344,302663,1,12,0:0:0:0:
356,244,302856,1,2,0:0:0:0:
280,172,303048,1,0,0:0:0:0:
376,140,303240,1,2,0:0:0:0:
380,40,303432,5,12,0:0:0:0:
288,80,303625,2,0,L|252:108,2,35.9999989013672,0|8|8,0:0|0:0|0:0,0:0:0:0:
192,40,304009,1,8,0:0:0:0:
92,60,304202,1,8,0:0:0:0:
156,140,304394,1,8,0:0:0:0:
56,160,304586,1,8,0:0:0:0:
132,228,304779,2,0,P|172:236|208:216,1,71.9999978027344,4|0,0:0|0:0,0:0:0:0:
