osu file format v14

[General]
AudioFilename: audio.mp3
AudioLeadIn: 0
PreviewTime: 51081
Countdown: 0
SampleSet: Soft
StackLeniency: 0.7
Mode: 2
LetterboxInBreaks: 0
WidescreenStoryboard: 0

[Editor]
Bookmarks: 13106
DistanceSpacing: 0.4
BeatDivisor: 8
GridSize: 32
TimelineZoom: 1

[Metadata]
Title:Binary Star
TitleUnicode:Binary Star
Artist:SawanoHiroyuki[nZk]:Uru
ArtistUnicode:SawanoHiroyuki[nZk]:Uru
Creator:Ultima Fox
Version:Shine
Source:銀河英雄伝説 Die Neue These 邂逅
Tags:the legend of galactic heroes sawano hiroyuki uru
BeatmapID:1730121
BeatmapSetID:825465

[Difficulty]
HPDrainRate:6.2
CircleSize:4.2
OverallDifficulty:7.8
ApproachRate:8.3
SliderMultiplier:3.4
SliderTickRate:1

[Events]
//Background and Video events
0,0,"Konachan.com - 267909 brown_hair clouds japanese_clothes original pink_eyes ponytail short_hair sky stars sutorora yukata.jpg",0,0
//Break Periods
//Storyboard Layer 0 (Background)
//Storyboard Layer 1 (Fail)
//Storyboard Layer 2 (Pass)
//Storyboard Layer 3 (Foreground)
//Storyboard Sound Samples

[TimingPoints]
955,759.493670886076,4,2,1,46,1,0
52600,-100,4,2,1,72,0,1
64372,-100,4,2,1,72,0,0
64752,-100,4,2,1,72,0,1
76144,-100,4,2,1,72,0,0
76904,-100,4,2,1,72,0,1
89056,-100,4,2,1,72,0,0

[Colours]
Combo1 : 132,182,124
Combo2 : 237,126,215
Combo3 : 235,239,67
Combo4 : 80,89,211
Combo5 : 249,115,57

[HitObjects]
291,216,955,5,0,0:0:0:0:
173,245,1144,2,0,P|237:328|277:392,1,170
452,384,1714,2,0,P|405:312|353:245,1,170
247,250,2284,2,0,L|194:323,1,85
443,240,3043,2,0,L|390:167,1,85
99,199,3992,5,0,0:0:0:0:
216,179,4182,2,0,P|169:107|117:40,1,170
298,45,4752,2,0,B|381:68|381:68|292:84,1,170
192,87,5322,2,0,L|245:160,1,85
472,177,6081,2,0,L|422:108,1,85
145,259,7030,5,0,0:0:0:0:
256,297,7220,2,0,P|302:225|354:158,1,170
183,152,7790,2,0,P|136:80|84:13,1,170
190,13,8360,2,0,L|239:81,1,85
449,77,9119,2,0,L|498:145,1,85
292,222,10068,5,0,0:0:0:0:
404,205,10258,2,0,B|487:228|487:228|398:244,1,170
225,206,10828,2,0,P|178:134|126:67,1,170
237,91,11398,2,0,L|287:22,1,85
94,156,12157,2,0,L|44:87,1,85
291,231,12727,2,0,L|315:149,1,85
142,78,13106,6,0,P|31:155|-9:192,2,170
398,145,14246,2,0,L|429:61,2,85
229,170,15005,1,0,0:0:0:0:
449,195,15385,1,0,0:0:0:0:
269,336,15765,2,0,P|254:277|240:233,1,85
68,241,16144,6,0,P|156:212|198:119,2,170
262,74,17284,2,0,L|283:159,2,85
89,129,18043,1,0,0:0:0:0:
291,215,18423,2,0,L|269:133,1,85
155,189,18803,2,0,L|177:107,1,85
351,75,19182,6,0,L|485:197,2,170
135,165,20322,2,0,L|173:82,1,85
205,9,20701,1,0,0:0:0:0:
361,171,21081,1,0,0:0:0:0:
154,202,21461,1,0,0:0:0:0:
325,294,21841,2,0,L|338:202,1,85
164,100,22220,6,0,P|100:117|49:209,2,170
384,177,23360,2,0,L|419:98,2,85
165,181,24119,1,0,0:0:0:0:
319,232,24499,2,0,L|299:324,1,85
164,351,24879,2,0,L|145:267,1,85
315,149,25258,6,0,L|425:288,1,170
469,335,25828,1,0,0:0:0:0:
396,311,26018,1,0,0:0:0:0:
188,221,26398,2,0,L|214:131,1,85
388,145,26777,2,0,L|264:27,1,170
57,177,27537,1,0,0:0:0:0:
275,252,27917,2,0,L|285:159,1,85
110,141,28296,6,0,B|27:174|27:174|117:204,1,170
186,183,28866,1,0,0:0:0:0:
262,150,29056,1,0,0:0:0:0:
43,3,29436,2,0,L|24:91,1,85
198,108,29815,2,0,L|256:46,2,85
21,174,30575,1,0,0:0:0:0:
195,267,30955,2,0,L|181:180,1,85
355,104,31334,6,0,L|484:229,1,170
421,319,31904,1,0,0:0:0:0:
244,305,32094,2,0,P|188:249|247:222,1,170
325,272,32663,1,0,0:0:0:0:
496,210,32853,2,0,L|330:17,1,255
146,25,33613,2,0,P|185:124|212:203,1,170
299,208,34182,1,0,0:0:0:0:
125,262,34372,6,0,L|64:198,2,85
201,273,34942,2,0,L|279:217,1,85
488,187,35511,2,0,L|449:98,1,85
181,220,36651,1,0,0:0:0:0:
262,196,36841,1,0,0:0:0:0:
343,172,37030,1,0,0:0:0:0:
108,153,37410,6,0,P|15:208|161:338,1,340
366,278,38549,1,0,0:0:0:0:
432,327,38739,2,0,B|490:309|520:243|520:243|486:199|445:184|445:184|399:162|380:116|380:116|409:56|465:45,1,425
209,73,40068,1,0,0:0:0:0:
112,82,40258,2,0,L|175:310,1,170
269,222,42537,5,0,0:0:0:0:
361,187,42727,2,0,L|429:241,2,85
108,354,43486,2,0,P|96:245|57:14,1,340
323,150,44625,1,0,0:0:0:0:
398,57,44815,2,0,P|511:155|372:346,1,425
99,241,46144,5,0,0:0:0:0:
204,152,46334,2,0,L|320:378,1,255
129,368,47094,1,0,0:0:0:0:
55,329,47284,2,0,P|22:276|403:31,1,680
256,192,49562,12,0,52220,0:0:0:0:
159,192,52600,6,0,B|242:214|242:214|152:231,1,170,4|0,3:2|0:0,0:0:0:0:
84,218,53170,1,0,0:0:0:0:
344,154,53360,2,0,P|368:217|375:265,1,85,8|0,0:0|0:0,0:0:0:0:
178,312,53739,2,0,L|153:204,1,85
447,175,54119,2,0,P|457:133|474:94,1,85,0|0,3:0|0:0,0:0:0:0:
249,122,54499,2,0,P|259:80|276:41,1,85,2|0,0:0|0:0,0:0:0:0:
497,257,54879,1,8,0:0:0:0:
125,276,55258,2,0,L|148:193,1,85
399,109,55638,6,0,L|224:84,1,170,0|0,3:2|0:0,0:0:0:0:
304,23,56208,1,0,0:0:0:0:
41,140,56398,2,0,L|25:227,1,85,8|0,0:0|0:0,0:0:0:0:
199,188,56777,2,0,L|183:275,1,85
444,144,57157,2,0,L|460:231,1,85,0|0,3:0|0:0,0:0:0:0:
241,204,57537,2,0,L|257:291,1,85,2|0,0:0|0:0,0:0:0:0:
473,333,57917,1,8,0:0:0:0:
181,352,58296,2,0,L|162:258,1,85
423,286,58676,6,0,P|437:175|454:89,1,170,0|0,3:2|0:0,0:0:0:0:
375,73,59246,1,0,0:0:0:0:
121,162,59436,2,0,L|202:211,1,85,8|0,0:0|0:0,0:0:0:0:
383,290,59815,2,0,L|409:189,1,85
138,285,60195,2,0,L|112:184,1,85,0|0,3:0|0:0,0:0:0:0:
333,223,60575,2,0,L|260:179,1,85,2|0,0:0|0:0,0:0:0:0:
35,93,60955,1,8,0:0:0:0:
322,312,61334,2,0,L|352:231,1,85
94,111,61714,6,0,P|108:165|120:206,1,85,0|0,3:0|0:0,0:0:0:0:
296,220,62094,1,0,0:0:0:0:
443,192,62284,1,0,0:0:0:0:
296,220,62473,2,0,P|260:135|251:57,1,170,8|0,0:0|0:0,0:0:0:0:
461,305,63233,2,0,L|415:223,1,85,0|0,3:0|0:0,0:0:0:0:
242,318,63613,2,0,L|283:243,1,85,2|0,0:0|0:0,0:0:0:0:
486,293,63992,2,0,L|501:198,1,85,8|0,0:0|0:0,0:0:0:0:
242,172,64372,1,8,0:0:0:0:
67,168,64562,1,2,0:0:0:0:
356,255,64752,6,0,P|413:222|346:164,1,170,4|0,3:2|0:0,0:0:0:0:
278,200,65322,1,0,0:0:0:0:
23,252,65511,2,0,P|14:205|11:147,1,85,8|0,0:0|0:0,0:0:0:0:
201,155,65891,2,0,P|210:108|213:50,1,85
476,242,66271,2,0,L|381:269,1,85,0|0,3:0|0:0,0:0:0:0:
189,159,66651,2,0,L|284:186,1,85,2|0,0:0|0:0,0:0:0:0:
488,142,67030,1,8,0:0:0:0:
209,332,67410,2,0,P|195:272|184:236,1,85
448,259,67790,6,0,P|465:163|491:86,1,170,0|0,3:0|0:0,0:0:0:0:
407,58,68360,1,0,0:0:0:0:
221,112,68549,2,0,P|201:157|194:206,1,85,8|0,0:0|0:0,0:0:0:0:
381,241,68929,2,0,P|361:196|354:147,1,85
97,180,69309,2,0,P|105:221|123:259,1,85,0|0,3:0|0:0,0:0:0:0:
339,333,69689,2,0,P|359:288|366:239,1,85,2|0,0:0|0:0,0:0:0:0:
148,286,70068,2,0,P|92:145|53:36,1,255,8|0,0:0|0:0,0:0:0:0:
317,152,70828,5,4,3:2:0:0:
81,277,71208,2,0,L|188:298,1,85
422,352,71587,2,0,P|471:282|423:270,1,170,8|0,0:0|0:0,0:0:0:0:
174,317,72347,1,0,3:0:0:0:
382,197,72727,2,0,P|373:162|361:113,1,85,2|0,0:0|0:0,0:0:0:0:
153,147,73106,2,0,P|200:165|238:176,1,85,8|0,0:0|0:0,0:0:0:0:
447,86,73486,2,0,P|351:73|304:58,1,85
106,42,73866,5,0,3:0:0:0:
322,228,74246,2,0,P|333:168|344:133,1,85
81,145,74625,2,0,P|22:200|83:243,1,170,8|0,0:0|0:0,0:0:0:0:
160,199,75195,1,8,0:0:0:0:
413,151,75385,1,0,3:0:0:0:
504,198,75575,1,8,0:0:0:0:
375,254,75765,1,2,0:0:0:0:
249,376,76144,6,0,P|241:228|261:83,1,255
506,176,76904,6,0,L|260:217,1,170,4|0,3:2|0:0,0:0:0:0:
253,220,77473,1,0,0:0:0:0:
422,106,77663,2,0,L|263:135,2,85,8|0|0,0:2|0:0|0:0,0:0:0:0:
505,91,78233,1,0,0:0:0:0:
246,218,78423,2,0,L|211:111,1,85,0|0,3:0|0:0,0:0:0:0:
338,121,78803,1,2,0:0:0:0:
82,289,79182,2,0,P|110:200|162:43,1,255,8|0,0:0|0:0,0:0:0:0:
418,77,79942,6,0,P|473:135|410:166,1,170,0|0,3:0|0:0,0:0:0:0:
165,280,80701,2,0,P|149:224|125:151,1,85,8|0,0:0|0:0,0:0:0:0:
229,147,81081,1,0,0:0:0:0:
487,124,81271,1,0,0:0:0:0:
398,42,81461,2,0,L|379:128,1,85,0|0,3:0|0:0,0:0:0:0:
486,211,81841,1,2,0:0:0:0:
227,166,82030,2,0,L|258:262,1,85,0|8,0:0|0:0,0:0:0:0:
279,326,82410,1,0,0:0:0:0:
195,306,82600,1,0,0:0:0:0:
366,295,82790,1,0,0:0:0:0:
106,358,82980,6,0,P|87:257|64:155,1,170,4|0,3:2|0:0,0:0:0:0:
332,91,83739,2,0,P|349:174|365:257,1,170,8|0,0:2|0:0,0:0:0:0:
298,297,84309,1,0,0:0:0:0:
129,228,84499,2,0,L|240:210,1,85,0|0,3:0|0:0,0:0:0:0:
384,186,84879,1,2,0:0:0:0:
126,132,85258,2,0,P|69:160|128:219,1,170,8|0,0:0|0:0,0:0:0:0:
221,183,85828,1,8,0:0:0:0:
427,293,86018,5,0,3:0:0:0:
485,223,86208,1,0,0:0:0:0:
329,154,86398,1,8,0:3:0:0:
341,245,86587,1,4,0:3:0:0:
500,103,86777,1,12,0:0:0:0:
23,57,87157,5,8,0:0:0:0:
196,191,87347,2,0,P|240:192|304:157,1,85,0|0,3:0|0:0,0:0:0:0:
344,86,87727,1,8,0:0:0:0:
80,130,87917,1,0,3:0:0:0:
56,223,88106,1,2,0:0:0:0:
76,241,88201,1,0,0:0:0:0:
182,210,88296,1,8,0:0:0:0:
15,83,88486,1,8,0:0:0:0:
303,209,88676,2,0,P|311:153|322:117,1,85,0|0,0:3|0:0,0:0:0:0:
