osu file format v14

[General]
AudioFilename: audio.mp3
AudioLeadIn: 0
PreviewTime: 51081
Countdown: 0
SampleSet: Soft
StackLeniency: 0.3
Mode: 0
LetterboxInBreaks: 0
WidescreenStoryboard: 1

[Editor]
DistanceSpacing: 0.4
BeatDivisor: 8
GridSize: 32
TimelineZoom: 1.6

[Metadata]
Title:Binary Star (TV Size)
TitleUnicode:Binary Star (TV Size)
Artist:SawanoHiroyuki[nZk]:Uru
ArtistUnicode:SawanoHiroyuki[nZk]:Uru
Creator:toybot
Version:Eternal
Source:銀河英雄伝説 Die Neue These 邂逅
Tags:ginga eiyuu densetsu kaikou the legend of galactic heroes sawano hiroyuki uru delis air stingy
BeatmapID:1631437
BeatmapSetID:776041

[Difficulty]
HPDrainRate:6
CircleSize:5
OverallDifficulty:7.5
ApproachRate:8
SliderMultiplier:3.3
SliderTickRate:1

[Events]
//Background and Video events
Video,-230,"ginga.flv"
0,0,"waa.jpg",0,0
//Break Periods
//Storyboard Layer 0 (Background)
//Storyboard Layer 1 (Fail)
//Storyboard Layer 2 (Pass)
//Storyboard Layer 3 (Foreground)
//Storyboard Sound Samples

[TimingPoints]
955,759.493670886076,4,2,2,25,1,0
955,-200,4,2,2,25,0,0
13106,-200,4,2,2,30,0,0
15385,-200,4,2,2,25,0,0
16144,-200,4,2,2,30,0,0
18423,-200,4,2,2,25,0,0
19182,-200,4,2,2,30,0,0
21461,-200,4,2,2,25,0,0
22220,-200,4,2,2,30,0,0
24499,-200,4,2,2,25,0,0
25258,-200,4,2,2,30,0,0
27157,-200,4,2,2,25,0,0
28296,-200,4,2,2,30,0,0
30195,-200,4,2,2,25,0,0
31334,-200,4,2,2,30,0,0
41967,-200,4,2,2,20,0,0
43486,-200,4,2,2,30,0,0
49562,-300,4,2,2,30,0,0
51081,-133.333333333333,4,2,2,25,0,0
52505,-133.333333333333,4,2,2,5,0,0
52600,-100,4,2,1,80,0,1
53644,-100,4,2,1,5,0,1
53739,-100,4,2,1,80,0,1
54784,-100,4,2,1,5,0,1
54879,-100,4,2,1,80,0,1
57062,-100,4,2,1,5,0,1
57157,-100,4,2,1,80,0,1
58961,-100,4,2,1,5,0,1
59056,-100,4,2,1,80,0,1
60860,-100,4,2,1,5,0,1
60955,-100,4,2,1,80,0,1
62758,-100,4,2,1,5,0,1
62853,-100,4,2,1,80,0,1
65037,-100,4,2,1,5,0,1
65132,-100,4,2,1,80,0,1
66556,-100,4,2,1,5,0,1
66651,-100,4,2,1,80,0,1
67695,-100,4,2,1,5,0,1
67790,-100,4,2,1,80,0,1
72252,-100,4,2,1,5,0,1
72347,-100,4,2,1,80,0,1
73391,-100,4,2,1,5,0,1
73486,-100,4,2,1,80,0,1
74910,-100,4,2,1,5,0,1
75005,-100,4,2,1,80,0,1
76049,-100,4,2,1,5,0,1
76144,-166.666666666667,4,2,1,40,0,0
76904,-90.9090909090909,4,2,1,70,0,1
78708,-90.9090909090909,4,2,1,5,0,1
78803,-90.9090909090909,4,2,1,70,0,1
80986,-90.9090909090909,4,2,1,5,0,1
81081,-90.9090909090909,4,2,1,70,0,1
82505,-90.9090909090909,4,2,1,5,0,1
82600,-90.9090909090909,4,2,1,70,0,1
84024,-90.9090909090909,4,2,1,5,0,1
84119,-90.9090909090909,4,2,1,70,0,1
84784,-90.9090909090909,4,2,1,5,0,1
84879,-90.9090909090909,4,2,1,70,0,1
85543,-90.9090909090909,4,2,1,5,0,1
85638,-90.9090909090909,4,2,1,70,0,1
87062,-90.9090909090909,4,2,1,5,0,1
87157,-90.9090909090909,4,2,1,70,0,1
87632,-90.9090909090909,4,2,1,5,0,1
87727,-90.9090909090909,4,2,1,70,0,1
88676,-133.333333333333,4,2,1,70,0,0
89056,-133.333333333333,4,2,1,5,0,0

[Colours]
Combo1 : 155,255,55
Combo2 : 155,155,255
Combo3 : 213,0,0
Combo4 : 179,231,255
Combo5 : 255,157,60
Combo6 : 192,192,192

[HitObjects]
93,42,955,6,0,P|110:45|119:76,1,41.25,2|0,0:0|0:0,0:0:0:0:
209,233,1524,1,0,0:0:0:0:
147,202,1714,2,0,P|134:217|140:236,1,41.25,2|0,0:0|0:0,0:0:0:0:
302,138,2284,1,0,0:0:0:0:
359,179,2473,2,0,P|383:157|361:114,1,82.5,2|0,0:0|0:0,0:0:0:0:
298,209,3043,1,0,0:0:0:0:
318,272,3233,2,0,P|268:235|208:232,1,123.75,0|0,0:0|0:0,0:0:0:0:
73,329,3992,22,0,P|96:332|122:314,1,41.25,2|0,0:0|0:0,0:0:0:0:
193,129,4562,1,0,0:0:0:0:
130,164,4752,2,0,P|119:146|101:138,1,41.25,2|0,0:0|0:0,0:0:0:0:
251,269,5322,1,0,0:0:0:0:
308,232,5511,2,0,P|304:196|346:152,1,82.5,2|0,0:0|0:0,0:0:0:0:
329,159,6081,1,0,0:0:0:0:
379,218,6271,2,0,L|391:312,1,82.5,0|0,0:0|0:0,0:0:0:0:
365,364,6841,1,0,0:0:0:0:
258,339,7030,54,0,P|279:341|297:352,1,41.25,2|0,0:0|0:0,0:0:0:0:
110,199,7600,1,0,0:0:0:0:
186,210,7790,2,0,P|169:217|146:216,1,41.25,2|0,0:0|0:0,0:0:0:0:
221,45,8360,1,0,0:0:0:0:
114,50,8549,2,0,P|154:47|200:68,1,82.5,2|0,0:0|0:0,0:0:0:0:
243,114,9119,1,0,0:0:0:0:
316,83,9309,2,0,B|340:70|340:70|358:111|350:142|325:157,1,123.75
326,157,10068,22,0,L|330:207,1,41.25,2|0,0:0|0:0,0:0:0:0:
195,220,10638,1,0,0:0:0:0:
208,148,10828,2,0,L|211:189,1,41.25,2|0,0:0|0:0,0:0:0:0:
77,211,11397,1,0,0:0:0:0:
90,139,11587,2,0,L|93:180,1,41.25,2|0,0:0|0:0,0:0:0:0:
65,299,11967,1,0,0:0:0:0:
65,299,12157,2,0,P|101:280|142:278,1,82.5,2|0,0:0|0:0,0:0:0:0:
206,312,12727,1,0,0:0:0:0:
279,317,12917,1,0,0:0:0:0:
350,291,13106,53,2,0:0:0:0:
277,305,13486,1,0,0:0:0:0:
222,355,13866,1,0,0:0:0:0:
160,309,14246,2,0,B|132:307|113:327|113:327|129:294|135:263|117:223|101:209,1,165,0|0,0:0|0:0,0:0:0:0:
49,152,15385,2,0,P|47:114|89:100,1,82.5,2|0,0:0|0:0,0:0:0:0:
145,126,15955,1,0,0:0:0:0:
208,98,16144,21,2,0:0:0:0:
287,98,16524,1,0,0:0:0:0:
354,138,16904,1,0,0:0:0:0:
392,205,17284,2,0,B|409:224|409:245|409:245|398:278|362:288|317:274|301:251,1,165,0|0,0:0|0:0,0:0:0:0:
139,339,18423,2,0,P|171:306|211:312,1,82.5,2|0,0:0|0:0,0:0:0:0:
237,248,18992,1,0,0:0:0:0:
200,378,19182,53,2,0:0:0:0:
126,352,19562,1,0,0:0:0:0:
48,365,19942,1,0,0:0:0:0:
122,336,20322,2,0,B|136:306|145:268|115:205|115:205|110:221|95:233,1,165,0|0,0:0|0:0,0:0:0:0:
168,149,21461,1,2,0:0:0:0:
16,156,21841,2,0,P|31:170|51:177,1,41.25,0|0,0:0|0:0,0:0:0:0:
176,137,22220,21,2,0:0:0:0:
258,122,22600,1,0,0:0:0:0:
332,157,22980,1,0,0:0:0:0:
253,108,23360,2,0,B|237:71|246:23|305:1|305:1|290:21|289:36,1,165,0|0,0:0|0:0,0:0:0:0:
359,53,24499,1,2,0:0:0:0:
381,120,24689,1,0,0:0:0:0:
314,199,24879,53,0,0:0:0:0:
318,221,25068,1,0,0:0:0:0:
232,277,25258,21,2,0:0:0:0:
201,352,25638,1,0,0:0:0:0:
131,370,26018,1,0,0:0:0:0:
93,353,26398,1,0,0:0:0:0:
83,335,26777,2,0,P|101:263|93:163,1,165,0|2,0:0|0:0,0:0:0:0:
36,216,27917,2,0,P|45:233|64:239,1,41.25,0|0,0:0|0:0,0:0:0:0:
172,156,28296,53,2,0:0:0:0:
257,131,28676,1,0,0:0:0:0:
327,153,29056,1,0,0:0:0:0:
357,189,29436,1,0,0:0:0:0:
363,213,29815,2,0,B|362:285|266:291|250:242|275:216,1,165,0|2,0:0|0:0,0:0:0:0:
336,336,30955,2,0,P|312:344|294:337,1,41.25,0|0,0:0|0:0,0:0:0:0:
400,302,31334,22,0,P|441:306|500:317,1,82.5,2|0,0:0|0:0,0:0:0:0:
429,376,31904,1,0,0:0:0:0:
368,219,32094,2,0,P|409:223|468:234,1,82.5,2|0,0:0|0:0,0:0:0:0:
397,293,32664,1,0,0:0:0:0:
336,136,32853,2,0,P|377:140|436:151,1,82.5,2|0,0:0|0:0,0:0:0:0:
365,210,33423,1,0,0:0:0:0:
312,276,33613,54,0,P|276:265|247:302,1,82.5,2|0,0:0|0:0,0:0:0:0:
232,363,34182,1,0,0:0:0:0:
162,344,34372,21,2,0:0:0:0:
79,334,34752,1,0,0:0:0:0:
79,334,34942,1,0,0:0:0:0:
146,202,35132,53,2,0:0:0:0:
71,237,35511,1,0,0:0:0:0:
71,237,35701,2,0,B|165:228|130:296|240:278,1,165,2|0,0:0|0:0,0:0:0:0:
341,355,36651,21,2,0:0:0:0:
353,334,36841,1,0,0:0:0:0:
351,306,37030,1,2,0:0:0:0:
282,318,37220,1,0,0:0:0:0:
422,348,37410,54,0,B|432:310|475:291|509:307|509:307|498:266|430:268|436:198,1,247.5,4|0,0:3|0:0,0:0:0:0:
506,205,38739,1,2,0:0:0:0:
371,231,38929,22,0,B|357:181|382:127|443:102|443:102|378:120|355:76,1,247.5,4|0,0:3|0:0,0:0:0:0:
490,173,40258,54,0,P|465:169|437:215,1,82.5,2|0,0:0|0:0,0:0:0:0:
222,278,42537,21,0,0:0:0:0:
168,326,42727,1,2,0:0:0:0:
153,303,42917,1,0,0:0:0:0:
151,275,43106,1,2,0:0:0:0:
222,278,43486,54,0,B|209:297|190:291|190:291|184:251|190:206|217:193|252:184|252:184|205:183|180:147,1,247.5,4|0,0:3|0:0,0:0:0:0:
245,113,44815,1,2,0:0:0:0:
132,199,45005,22,0,B|102:196|80:169|80:169|113:225|111:269|94:322|51:343,1,247.5,4|0,0:3|0:0,0:0:0:0:
10,203,46334,54,0,P|33:236|24:276,1,82.5,2|0,0:0|0:0,0:0:0:0:
25,275,46904,1,0,0:0:0:0:
21,131,47094,21,0,0:0:0:0:
21,131,47284,2,0,B|26:214|167:238|210:198|203:104|119:100|72:170|99:219,1,330,2|0,0:0|0:0,0:0:0:0:
256,192,49562,12,0,52505,0:0:0:0:
306,123,52600,70,0,P|344:113|377:136,1,82.5,4|0,1:2|0:0,0:0:0:0:
401,343,52980,2,0,P|385:304|385:263,1,82.5,2|0,0:0|0:0,0:0:0:0:
432,74,53360,2,0,P|459:136|438:194,1,123.75,8|0,0:0|0:0,0:0:0:0:
455,207,53739,1,2,0:0:0:0:
306,124,53929,1,0,0:0:0:0:
386,263,54119,22,0,P|347:233|296:233,1,82.5,0|0,1:0|0:0,0:0:0:0:
320,307,54499,2,0,P|266:309|238:376,1,123.75,2|0,1:2|0:0,0:0:0:0:
214,352,54879,2,0,L|128:373,1,82.5,8|0,0:0|0:0,0:0:0:0:
22,168,55258,1,2,0:0:0:0:
147,272,55448,1,0,0:0:0:0:
61,291,55638,54,0,B|68:239|68:239|101:196|101:196|107:115,1,165,0|2,1:0|0:0,0:0:0:0:
67,29,56208,1,0,0:0:0:0:
206,34,56398,2,0,P|181:63|129:61,1,82.5,8|0,0:0|0:0,0:0:0:0:
279,213,56777,2,0,P|252:149|195:145,1,123.75,2|0,0:0|0:0,0:0:0:0:
188,162,57157,22,0,L|200:248,1,82.5,0|0,1:0|0:0,0:0:0:0:
371,38,57537,2,0,L|362:120,1,82.5,2|0,1:2|0:0,0:0:0:0:
319,286,57917,1,8,0:0:0:0:
279,142,58106,1,0,0:0:0:0:
393,241,58296,1,2,0:0:0:0:
265,348,58486,1,8,0:0:0:0:
243,335,58581,1,2,3:0:0:0:
219,328,58676,54,0,B|176:319|141:343|141:343|159:321|154:282,1,123.75,0|0,1:0|0:0,0:0:0:0:
136,287,59056,2,0,P|120:246|139:201,1,82.5,2|0,0:0|0:0,0:0:0:0:
290,97,59436,2,0,B|307:130|290:167|290:167|322:202|309:243|293:267,1,165,8|2,0:0|0:0,0:0:0:0:
237,216,60005,1,0,0:0:0:0:
438,119,60195,22,0,P|397:126|367:153,1,82.5,0|0,1:0|0:0,0:0:0:0:
253,33,60575,2,0,P|312:28|356:70,1,123.75,2|0,1:2|0:0,0:0:0:0:
290,97,60955,2,0,L|197:111,1,82.5,8|0,0:0|0:0,0:0:0:0:
29,150,61334,54,0,B|62:117|62:117|109:157|109:217|66:246,1,165,2|0,0:0|1:0,0:0:0:0:
81,237,62094,1,2,0:0:0:0:
10,64,62284,1,0,0:0:0:0:
171,155,62473,2,0,P|116:157|101:92,1,123.75,8|0,0:0|0:0,0:0:0:0:
167,82,62853,2,0,L|253:66,1,82.5,2|0,0:0|0:0,0:0:0:0:
373,247,63233,21,0,1:0:0:0:
245,227,63423,1,2,3:0:0:0:
401,138,63613,53,0,1:0:0:0:
407,162,63803,1,8,3:0:0:0:
295,316,63992,21,8,0:0:0:0:
318,163,64182,1,4,3:0:0:0:
202,17,64372,53,4,1:3:0:0:
245,227,64562,1,12,1:2:0:0:
479,168,64752,22,0,B|498:109|470:68|430:73,1,123.75,4|0,1:2|0:0,0:0:0:0:
439,50,65132,2,0,P|396:65|345:57,1,82.5,2|0,0:0|0:0,0:0:0:0:
187,181,65511,2,0,P|225:190|244:226,1,82.5,8|0,0:0|0:0,0:0:0:0:
210,360,65891,1,2,0:0:0:0:
172,255,66081,1,0,0:0:0:0:
422,309,66271,54,0,B|378:320|344:283|344:283|321:290|313:321,1,123.75,0|0,1:0|0:0,0:0:0:0:
333,325,66651,2,0,L|341:222,1,82.5,2|0,1:2|0:0,0:0:0:0:
183,98,67030,2,0,L|196:191,1,82.5,8|0,0:0|0:0,0:0:0:0:
353,291,67410,2,0,L|361:157,1,123.75,2|0,0:0|0:0,0:0:0:0:
400,104,67790,22,0,P|365:136|320:133,1,82.5,0|0,1:0|0:0,0:0:0:0:
196,277,68170,2,0,P|160:248|119:247,1,82.5,2|0,0:0|0:0,0:0:0:0:
252,190,68549,2,0,P|173:183|125:245,1,165,8|2,0:0|0:0,0:0:0:0:
140,353,69119,1,0,0:0:0:0:
204,251,69309,54,0,L|190:169,1,82.5,0|0,1:0|0:0,0:0:0:0:
59,60,69689,2,0,P|24:102|33:148,1,82.5,2|0,1:2|0:0,0:0:0:0:
183,320,70068,1,8,0:0:0:0:
109,124,70258,1,8,3:0:0:0:
288,32,70448,1,2,1:2:0:0:
190,169,70638,1,4,3:0:0:0:
259,370,70828,22,0,B|281:339|281:339|334:324|379:337|395:371,1,165,4|2,1:2|0:0,0:0:0:0:
311,204,71398,1,0,0:0:0:0:
467,240,71587,2,0,P|452:277|413:281,1,82.5,8|0,0:0|0:0,0:0:0:0:
334,69,71967,2,0,P|379:108|375:167,1,123.75,2|0,0:0|0:0,0:0:0:0:
356,178,72347,54,0,P|311:168|263:166,1,82.5,0|0,1:0|0:0,0:0:0:0:
224,289,72727,2,0,P|176:293|139:311,1,82.5,2|0,1:2|0:0,0:0:0:0:
7,88,73106,2,0,B|53:133|103:108|103:108|86:106|68:94,1,123.75,8|0,0:0|0:0,0:0:0:0:
72,90,73486,1,2,0:0:0:0:
167,224,73676,1,0,0:0:0:0:
0,205,73866,22,0,L|81:190,1,82.5,0|0,1:0|0:0,0:0:0:0:
227,63,74246,1,2,0:0:0:0:
101,268,74436,1,0,0:0:0:0:
153,33,74625,2,0,P|196:79|186:141,1,123.75,8|0,0:0|0:0,0:0:0:0:
168,127,75005,1,2,0:0:0:0:
276,269,75195,53,2,3:0:0:0:
254,256,75290,1,8,0:0:0:0:
229,254,75385,1,2,1:2:0:0:
366,196,75575,1,8,0:0:0:0:
233,329,75765,2,0,P|219:357|269:354,1,82.5,4|0,1:3|0:0,0:0:0:0:
204,164,76144,22,2,P|158:138|141:218,1,148.49999546814,2|0,0:0|0:0,0:0:0:0:
204,164,76904,6,0,P|310:171|372:259,1,181.500005538941,6|2,1:2|0:0,0:0:0:0:
351,332,77473,1,0,0:0:0:0:
434,197,77663,2,0,P|444:251|412:277,1,90.7500027694703,8|0,0:0|0:0,0:0:0:0:
266,241,78043,1,2,0:0:0:0:
366,94,78233,2,0,P|380:115|378:148,1,45.3750013847352,2|0,0:3|0:0,0:0:0:0:
312,140,78423,6,0,B|337:97|306:45|306:45|319:34|314:3,1,136.125004154205,0|0,1:0|0:0,0:0:0:0:
292,33,78803,2,0,L|196:51,1,90.7500027694703,2|0,1:2|0:0,0:0:0:0:
55,250,79182,1,8,0:0:0:0:
205,223,79372,2,0,B|171:188|113:205|113:205|76:162|25:183,1,181.500005538941,2|2,0:3|3:0,0:0:0:0:
65,168,79847,1,2,3:0:0:0:
83,148,79942,70,0,P|91:94|62:57,1,90.7500027694703,0|0,1:0|0:0,0:0:0:0:
148,272,80322,1,2,0:0:0:0:
19,109,80511,1,0,0:0:0:0:
87,227,80701,2,0,P|145:195|205:223,1,136.125004154205,8|0,0:0|0:0,0:0:0:0:
220,247,81081,1,2,0:0:0:0:
187,100,81271,1,2,0:3:0:0:
334,153,81461,6,0,B|326:179|326:179|294:195|256:172,1,90.7500027694703,0|0,1:0|0:0,0:0:0:0:
368,61,81841,1,2,1:2:0:0:
386,245,82030,1,2,0:3:0:0:
274,106,82220,2,0,P|269:61|358:81,1,136.125004154205,8|0,0:0|0:0,0:0:0:0:
368,61,82600,2,0,L|357:128,1,45.3750013847352,2|0,0:0|0:0,0:0:0:0:
346,182,82790,2,0,L|335:249,1,45.3750013847352,2|0,0:3|0:0,0:0:0:0:
420,351,82980,70,0,B|438:320|438:320|412:235,1,90.7500027694703,4|0,1:2|0:0,0:0:0:0:
246,236,83360,1,2,0:0:0:0:
337,359,83549,1,0,0:0:0:0:
434,195,83739,2,0,B|391:186|391:186|362:219|362:219|291:231,1,136.125004154205,8|0,0:0|0:0,0:0:0:0:
246,236,84119,2,0,L|235:167,1,45.3750013847352,2|0,0:0|0:0,0:0:0:0:
227,121,84309,2,0,L|216:52,1,45.3750013847352,2|0,0:3|0:0,0:0:0:0:
128,30,84499,6,0,B|101:60|101:60|123:113|84:178,1,136.125004154205,0|0,1:0|0:0,0:0:0:0:
75,171,84879,2,0,P|91:130|134:123,1,90.7500027694703,2|0,1:2|0:0,0:0:0:0:
205,324,85258,2,0,P|164:353|91:298,1,136.125004154205,8|0,0:0|0:0,0:0:0:0:
105,292,85638,1,2,0:0:0:0:
269,364,85828,1,2,0:3:0:0:
370,222,86018,69,0,1:0:0:0:
255,241,86208,2,0,L|346:247,1,90.7500027694703,8|0,3:0|0:0,0:0:0:0:
210,89,86587,1,4,3:0:0:0:
362,76,86777,2,0,B|313:81|313:81|287:105|287:105|216:114,1,136.125004154205,8|0,0:0|0:0,0:0:0:0:
210,89,87157,6,0,P|217:64|252:54,1,45.3750013847352,0|0,1:2|0:0,0:0:0:0:
444,157,87347,2,0,P|407:198|335:163,1,136.125004154205,8|0,0:0|0:0,0:0:0:0:
350,151,87727,70,0,P|368:166|367:210,1,45.3750013847352,0|0,1:0|0:0,0:0:0:0:
331,318,87917,2,0,L|238:336,1,90.7500027694703,8|2,0:0|0:0,0:0:0:0:
215,343,88201,1,8,0:0:0:0:
188,350,88296,5,0,1:2:0:0:
260,193,88486,1,8,0:0:0:0:
106,86,88676,2,0,B|88:66|73:96|92:138|137:142|176:123,1,123.750004720688,2|0,0:0|0:0,0:0:0:0:
