osu file format v14

[General]
AudioFilename: audio.mp3
AudioLeadIn: 0
PreviewTime: 63543
Countdown: 0
SampleSet: Soft
StackLeniency: 0.3
Mode: 0
LetterboxInBreaks: 0
WidescreenStoryboard: 1

[Editor]
Bookmarks: 25304,49608,64798,89102,113406,128595,152899,177203,204545,228849,253152,277456
DistanceSpacing: 0.8
BeatDivisor: 8
GridSize: 4
TimelineZoom: 1.199999

[Metadata]
Title:Binary Star
TitleUnicode:Binary Star
Artist:SawanoHiroyuki[nZk]:Uru
ArtistUnicode:SawanoHiroyuki[nZk]:Uru
Creator:Irohas
Version:Vow
Source:銀河英雄伝説 Die Neue These 邂逅
Tags:mugiwarasekai ginga eiyuu densetsu kaikou the legend of galactic heroes 澤野弘之 anime cage english
BeatmapID:2319853
BeatmapSetID:1110164

[Difficulty]
HPDrainRate:5
CircleSize:4.2
OverallDifficulty:7
ApproachRate:8.4
SliderMultiplier:2.3
SliderTickRate:1

[Events]
//Background and Video events
0,0,"e.jpg",0,0
//Break Periods
//Storyboard Layer 0 (Background)
//Storyboard Layer 1 (Fail)
//Storyboard Layer 2 (Pass)
//Storyboard Layer 3 (Foreground)
//Storyboard Layer 4 (Overlay)
//Storyboard Sound Samples

[TimingPoints]
1050,759.493670886076,4,2,2,30,1,0
1050,-125,4,2,2,30,0,0
1809,-500,4,2,2,30,0,0
4277,-125,4,2,2,30,0,0
4847,-500,4,2,2,30,0,0
7315,-125,4,2,2,30,0,0
10733,-250,4,2,2,30,0,0
13391,-125,4,2,2,35,0,0
13771,-250,4,2,2,35,0,0
16429,-125,4,2,2,40,0,0
25353,-117.647058823529,4,2,2,40,0,0
26493,-181.818181818181,4,2,2,40,0,0
28391,-117.647058823529,4,2,2,40,0,0
31050,-117.647058823529,4,2,2,30,0,0
31429,-117.647058823529,4,2,2,40,0,0
31809,-117.647058823529,4,2,2,40,0,0
31904,-117.647058823529,4,2,2,5,0,0
31999,-117.647058823529,4,2,2,40,0,0
32189,-117.647058823529,4,2,2,40,0,0
32284,-117.647058823529,4,2,2,5,0,0
32379,-117.647058823529,4,2,2,40,0,0
32948,-181.818181818181,4,2,2,40,0,0
34467,-117.647058823529,4,2,2,40,0,0
34847,-117.647058823529,4,2,2,40,0,0
39024,-181.818181818181,4,2,2,40,0,0
40543,-117.647058823529,4,2,2,40,0,0
42062,-181.818181818181,4,2,2,40,0,0
43581,-117.647058823529,4,2,2,40,0,0
49277,-117.647058823529,4,2,2,30,0,0
49657,-166.666666666667,4,2,2,40,0,0
61050,-333.333333333333,4,2,2,40,0,0
61714,-250,4,2,2,5,0,0
61809,-222.222222222222,4,2,2,40,0,0
63708,-95.2380952380952,4,2,2,30,0,0
64087,-64.5161290322581,4,2,2,35,0,0
64467,-35.0877192982456,4,2,2,40,0,0
64847,-100,4,2,17,55,0,1
65037,-142.857142857143,4,2,2,50,0,0
67790,-142.857142857143,4,2,2,5,0,0
67885,-142.857142857143,4,2,2,50,0,0
70828,-142.857142857143,4,2,2,5,0,0
70923,-142.857142857143,4,2,2,50,0,0
73961,-142.857142857143,4,2,2,50,0,0
74341,-142.857142857143,4,2,2,50,0,0
76999,-125,4,2,2,55,0,0
77758,-142.857142857143,4,2,2,55,0,0
79942,-142.857142857143,4,2,2,5,0,0
80037,-142.857142857143,4,2,2,55,0,0
83075,-117.647058823529,4,2,2,55,0,0
84214,-117.647058823529,4,2,2,55,0,0
85353,-117.647058823529,4,2,2,55,0,0
88012,-117.647058823529,4,2,2,40,0,0
88391,-117.647058823529,4,2,2,40,0,0
88771,-64.5161290322581,4,2,2,40,0,0
89151,-90.9090909090909,4,2,1,50,0,0
101682,-90.9090909090909,4,2,1,50,0,0
101777,-90.9090909090909,4,2,1,5,0,0
101872,-90.9090909090909,4,2,1,50,0,0
102442,-90.9090909090909,4,2,1,50,0,0
102537,-90.9090909090909,4,2,1,5,0,0
102632,-90.9090909090909,4,2,1,50,0,0
113455,-142.857142857143,4,2,1,40,0,0
116682,-142.857142857143,4,2,1,40,0,0
119531,-142.857142857143,4,2,1,40,0,0
125606,-196.078431372549,4,2,1,35,0,0
125796,-142.857142857143,4,2,1,60,0,0
127410,-133.333333333333,4,2,1,5,0,0
127505,-64.5161290322581,4,2,1,30,0,0
127885,-28.169014084507,4,2,1,35,0,0
128265,-25,4,2,1,40,0,0
128644,-76.9230769230769,4,2,17,55,0,1
128834,-76.9230769230769,4,2,1,60,0,0
130543,-76.9230769230769,4,2,1,60,0,0
131682,-76.9230769230769,4,2,1,60,0,0
133581,-76.9230769230769,4,2,1,60,0,0
136619,-76.9230769230769,4,2,1,60,0,0
140037,-76.9230769230769,4,2,1,60,0,0
143834,-76.9230769230769,4,2,1,60,0,0
148771,-76.9230769230769,4,2,1,60,0,0
152948,-83.3333333333333,4,2,1,60,0,0
165100,-68.9655172413793,4,2,1,60,0,0
165480,-83.3333333333333,4,2,1,60,0,0
175543,-142.857142857143,4,2,1,30,0,0
176493,-54.054054054054,4,2,1,30,0,0
176682,-54.054054054054,4,2,1,35,0,0
176872,-54.054054054054,4,2,1,40,0,0
177252,-71.4285714285714,4,2,17,55,0,1
177442,-71.4285714285714,4,2,1,60,0,0
178012,-71.4285714285714,4,2,1,60,0,0
189024,-71.4285714285714,4,2,1,80,0,0
189404,-71.4285714285714,4,2,1,60,0,0
198898,-71.4285714285714,4,2,1,70,0,0
198993,-71.4285714285714,4,2,1,5,0,0
199277,-71.4285714285714,4,2,1,70,0,0
199372,-71.4285714285714,4,2,1,5,0,0
199657,-58.8235294117647,4,2,1,70,0,0
200132,-58.8235294117647,4,2,1,5,0,0
200417,-58.8235294117647,4,2,1,70,0,0
200512,-58.8235294117647,4,2,1,5,0,0
200606,-58.8235294117647,4,2,1,60,0,0
200796,-58.8235294117647,4,2,1,70,0,0
201556,-58.8235294117647,4,2,1,30,0,0
202315,-58.8235294117647,4,2,1,30,0,0
204404,-58.8235294117647,4,2,1,10,0,0
204594,-58.8235294117647,4,2,1,25,0,0
213328,-166.666666666667,4,2,1,25,0,0
213613,-166.666666666667,4,2,1,5,0,0
213708,-166.666666666667,4,2,1,25,0,0
216746,-166.666666666667,4,2,1,30,0,0
227758,-41.6666666666667,4,2,1,30,0,0
228138,-41.6666666666667,4,2,1,35,0,0
228518,-41.6666666666667,4,2,1,40,0,0
228898,-71.4285714285714,4,2,17,55,0,1
229087,-71.4285714285714,4,2,1,60,0,0
231936,-71.4285714285714,4,2,1,60,0,0
233834,-71.4285714285714,4,2,1,60,0,0
235353,-71.4285714285714,4,2,1,60,0,0
239910,-62.5,4,2,1,60,0,0
240290,-71.4285714285714,4,2,1,60,0,0
240671,-71.4285714285714,4,2,1,60,0,0
240860,-71.4285714285714,4,2,17,60,0,0
241050,-71.4285714285714,4,2,1,60,0,0
241429,-71.4285714285714,4,2,1,60,0,0
242948,-71.4285714285714,4,2,1,60,0,0
245986,-71.4285714285714,4,2,1,60,0,0
251493,-71.4285714285714,4,2,1,70,0,0
252442,-166.666666666667,4,2,1,50,0,0
253106,-166.666666666667,4,2,1,5,0,0
253201,-71.4285714285714,4,2,1,60,0,1
254720,-58.8235294117647,4,2,1,60,0,1
254815,-58.8235294117647,4,2,1,5,0,1
254910,-58.8235294117647,4,2,1,60,0,1
255005,-58.8235294117647,4,2,1,5,0,1
255100,-58.8235294117647,4,2,1,60,0,1
255480,-71.4285714285714,4,2,1,60,0,1
255860,-58.8235294117647,4,2,1,60,0,1
255955,-58.8235294117647,4,2,1,5,0,1
256050,-58.8235294117647,4,2,1,60,0,1
256144,-58.8235294117647,4,2,1,5,0,1
256239,-71.4285714285714,4,2,1,60,0,1
257758,-58.8235294117647,4,2,1,60,0,1
257853,-58.8235294117647,4,2,1,5,0,1
257948,-58.8235294117647,4,2,1,60,0,1
258043,-58.8235294117647,4,2,1,5,0,1
258138,-58.8235294117647,4,2,1,60,0,1
258803,-58.8235294117647,4,2,1,5,0,1
258898,-58.8235294117647,4,2,1,60,0,1
258993,-58.8235294117647,4,2,1,5,0,1
259087,-58.8235294117647,4,2,1,60,0,1
259182,-58.8235294117647,4,2,1,5,0,1
259277,-71.4285714285714,4,2,1,60,0,1
259847,-58.8235294117647,4,2,1,60,0,1
259942,-58.8235294117647,4,2,1,5,0,1
260037,-58.8235294117647,4,2,1,60,0,1
260891,-58.8235294117647,4,2,1,5,0,1
260986,-58.8235294117647,4,2,1,60,0,1
261081,-58.8235294117647,4,2,1,5,0,1
261176,-58.8235294117647,4,2,1,60,0,1
261461,-58.8235294117647,4,2,1,5,0,1
261556,-58.8235294117647,4,2,1,60,0,1
262410,-58.8235294117647,4,2,1,5,0,1
262505,-58.8235294117647,4,2,1,60,0,1
262600,-58.8235294117647,4,2,1,5,0,1
262695,-52.6315789473684,4,2,1,60,0,1
262790,-52.6315789473684,4,2,1,5,0,1
262885,-52.6315789473684,4,2,1,60,0,1
262980,-52.6315789473684,4,2,1,5,0,1
263075,-52.6315789473684,4,2,1,70,0,1
265163,-100,4,2,1,60,0,0
265353,-71.4285714285714,4,2,1,60,0,1
266872,-58.8235294117647,4,2,1,60,0,1
266967,-58.8235294117647,4,2,1,5,0,1
267062,-58.8235294117647,4,2,1,60,0,1
267157,-58.8235294117647,4,2,1,5,0,1
267252,-58.8235294117647,4,2,1,60,0,1
267632,-71.4285714285714,4,2,1,60,0,1
268012,-58.8235294117647,4,2,1,60,0,1
268106,-58.8235294117647,4,2,1,5,0,1
268201,-58.8235294117647,4,2,1,60,0,1
268296,-58.8235294117647,4,2,1,5,0,1
268391,-71.4285714285714,4,2,1,60,0,1
270100,-71.4285714285714,4,2,1,70,0,1
270290,-58.8235294117647,4,2,1,60,0,1
270385,-58.8235294117647,4,2,1,5,0,1
270480,-58.8235294117647,4,2,1,60,0,1
270670,-58.8235294117647,4,2,1,70,0,1
270860,-58.8235294117647,4,2,1,60,0,1
271144,-58.8235294117647,4,2,1,5,0,1
271239,-58.8235294117647,4,2,1,60,0,1
271334,-58.8235294117647,4,2,1,5,0,1
271429,-71.4285714285714,4,2,1,60,0,1
272758,-58.8235294117647,4,2,1,60,0,1
273043,-58.8235294117647,4,2,1,5,0,1
273138,-58.8235294117647,4,2,1,60,0,1
273233,-58.8235294117647,4,2,1,5,0,1
273328,-58.8235294117647,4,2,1,60,0,1
274277,-58.8235294117647,4,2,1,70,0,1
277505,-100,4,2,1,20,0,0

[Colours]
Combo1 : 231,207,207
Combo2 : 251,196,210
Combo3 : 254,213,192
Combo4 : 154,175,250
Combo5 : 241,146,172
Combo6 : 217,217,255

[HitObjects]
415,384,1050,5,2,3:2:0:0:
365,315,1239,2,0,L|384:211,1,92,2|0,0:3|1:0,0:0:0:0:
321,163,1809,2,0,L|271:172,2,46,2|2|2,0:1|0:1|0:1,0:0:0:0:
480,32,4087,5,2,3:2:0:0:
511,113,4277,2,0,P|457:118|415:93,1,92,2|2,1:2|0:2,0:0:0:0:
350,60,4847,2,0,L|298:70,2,46,2|2|2,0:1|0:1|0:1,0:0:0:0:
178,219,7125,37,2,3:2:0:0:
121,156,7315,2,0,L|133:97,1,46,2|0,0:3|0:0,0:0:0:0:
0,0,7695,1,0,1:0:0:0:
45,73,7885,5,2,0:1:0:0:
45,73,8644,1,2,0:1:0:0:
45,73,9404,1,2,0:1:0:0:
170,345,10163,1,2,3:2:0:0:
112,283,10353,2,0,P|114:256|123:221,1,46,2|0,1:2|0:0,0:0:0:0:
97,218,10733,6,0,L|-8:239,1,92,2|2,0:2|0:3,0:0:0:0:
324,374,12252,2,0,L|414:355,1,92,2|2,0:3|0:3,0:0:0:0:
480,305,13201,1,2,3:2:0:0:
423,203,13391,2,0,L|412:258,1,46,2|0,0:3|0:0,0:0:0:0:
502,141,13771,6,0,P|502:94|481:54,1,92,0|2,1:0|0:3,0:0:0:0:
336,259,15290,2,0,P|315:299|315:345,1,92,2|2,0:3|0:3,0:0:0:0:
395,384,16239,1,2,3:2:0:0:
314,344,16429,70,0,L|268:353,1,46,2|0,1:2|0:0,0:0:0:0:
177,299,16809,1,2,0:2:0:0:
101,368,16999,53,2,0:1:0:0:
261,210,17569,1,2,0:3:0:0:
257,204,17758,1,2,0:1:0:0:
202,130,18328,5,2,0:3:0:0:
206,124,18517,1,2,0:1:0:0:
256,36,19087,5,2,0:3:0:0:
262,49,19277,5,2,3:2:0:0:
340,26,19467,1,2,0:3:0:0:
419,0,19657,37,2,0:0:0:0:
493,40,19847,1,0,1:0:0:0:
421,85,20037,1,2,0:1:0:0:
421,85,20796,1,2,0:1:0:0:
421,85,21556,1,2,0:1:0:0:
271,327,22315,5,2,3:2:0:0:
193,304,22505,1,2,1:2:0:0:
114,278,22695,5,2,0:0:0:0:
40,318,22885,1,2,0:2:0:0:
112,363,23075,1,2,0:1:0:0:
112,363,23834,1,2,0:1:0:0:
112,363,24594,1,2,0:1:0:0:
88,324,24974,5,2,0:2:0:0:
93,321,25163,1,2,0:3:0:0:
87,318,25353,1,2,0:0:0:0:
301,209,25733,38,0,L|290:265,1,48.8750009322167,2|0,0:1|0:0,0:0:0:0:
219,356,26113,2,0,P|214:326|207:307,1,48.8750009322167,2|0,0:0|0:0,0:0:0:0:
300,282,26493,2,0,P|358:293|438:309,1,126.500003860474,2|2,0:0|0:3,0:0:0:0:
512,153,27632,2,0,L|439:139,1,63.2500019302369,2|0,0:0|0:0,0:0:0:0:
385,74,28201,1,2,0:1:0:0:
325,137,28391,6,0,L|334:193,1,48.8750009322167,2|0,3:2|0:0,0:0:0:0:
255,69,28771,2,0,P|261:44|264:12,1,48.8750009322167,2|0,0:3|0:0,0:0:0:0:
187,143,29151,6,0,L|133:156,1,48.8750009322167,2|0,0:1|0:0,0:0:0:0:
14,98,29531,2,0,L|68:85,1,48.8750009322167,2|2,0:1|1:3,0:0:0:0:
126,154,29910,5,2,0:0:0:0:
109,239,30100,1,0,0:0:0:0:
89,321,30290,1,2,0:0:0:0:
383,370,30670,1,2,1:0:0:0:
386,361,30860,1,2,0:3:0:0:
386,352,31050,1,2,0:1:0:0:
382,346,31239,1,2,0:0:0:0:
364,332,31429,38,0,L|276:346,1,73.312501398325,2|0,0:0|0:0,0:0:0:0:
270,328,31809,2,0,L|280:291,1,24.4375004661083,2|0,0:1|0:0,0:0:0:0:
232,124,32189,2,0,L|225:147,1,24.4375004661083,2|0,0:0|0:0,0:0:0:0:
114,218,32568,1,2,0:0:0:0:
187,262,32758,1,2,1:3:0:0:
119,308,32948,2,0,P|81:326|-2:317,1,126.500003860474,0|2,0:0|0:0,0:0:0:0:
323,203,34087,2,0,L|365:211,1,31.6250009651184,2|0,0:1|0:0,0:0:0:0:
429,152,34467,6,0,L|413:58,1,73.312501398325,2|0,3:2|0:0,0:0:0:0:
386,77,34847,2,0,P|391:48|400:21,1,48.8750009322167,2|0,0:3|0:0,0:0:0:0:
298,58,35227,2,0,L|245:70,1,48.8750009322167,2|0,0:3|0:0,0:0:0:0:
170,122,35606,2,0,L|117:110,1,48.8750009322167,2|2,0:1|1:3,0:0:0:0:
0,29,35986,5,2,0:0:0:0:
83,20,36176,1,0,0:0:0:0:
43,97,36366,1,2,0:0:0:0:
83,336,36746,5,2,1:0:0:0:
0,345,36936,1,2,0:3:0:0:
40,268,37126,1,2,0:3:0:0:
1,196,37315,1,0,0:0:0:0:
40,268,37505,37,2,0:0:0:0:
231,303,37885,2,0,L|287:294,1,48.8750009322167,2|0,0:1|0:0,0:0:0:0:
353,350,38265,2,0,L|409:341,1,48.8750009322167,2|0,0:0|0:0,0:0:0:0:
511,270,38644,2,0,P|471:270|452:262,1,48.8750009322167,2|2,0:0|1:3,0:0:0:0:
413,206,39024,2,0,P|428:133|441:71,1,126.500003860474,0|2,0:0|0:0,0:0:0:0:
316,6,40163,2,0,L|359:-3,1,31.6250009651184,2|0,0:1|0:0,0:0:0:0:
438,82,40543,6,0,P|415:75|388:71,1,48.8750009322167,2|0,3:2|0:0,0:0:0:0:
313,1,40923,2,0,P|290:8|263:12,1,48.8750009322167,2|0,0:3|0:0,0:0:0:0:
194,57,41303,2,0,L|109:46,1,73.312501398325,2|0,0:1|0:0,0:0:0:0:
99,56,41682,1,2,0:1:0:0:
37,142,41872,1,2,1:3:0:0:
0,212,42062,6,0,P|48:179|121:185,1,126.500003860474,2|2,0:0|1:0,0:0:0:0:
211,294,43201,2,0,L|205:325,1,31.6250009651184,2|0,0:1|0:0,0:0:0:0:
223,352,43581,6,0,B|296:357|294:309|379:329,1,146.62500279665,2|2,0:0|0:0,0:0:0:0:
469,384,44341,2,0,P|490:278|505:224,1,146.62500279665,2|2,0:1|0:0,0:0:0:0:
418,113,45100,38,0,B|369:96|369:96|394:193,1,146.62500279665,2|2,0:1|0:0,0:0:0:0:
301,252,45860,2,0,P|265:247|194:237,1,97.7500018644333,2|0,0:3|0:0,0:0:0:0:
112,262,46429,1,2,0:0:0:0:
168,370,46619,6,0,L|181:307,1,48.8750009322167,2|0,3:0|0:0,0:0:0:0:
82,148,46999,2,0,L|95:85,1,48.8750009322167,2|2,0:3|0:3,0:0:0:0:
159,194,47284,1,2,0:0:0:0:
154,189,47379,2,0,P|116:179|29:241,1,146.62500279665,2|2,1:3|0:3,0:0:0:0:
291,127,48518,2,0,L|341:138,1,48.8750009322167,0|0,0:0|0:0,0:0:0:0:
482,31,48898,1,2,0:0:0:0:
399,64,49087,1,2,0:0:0:0:
457,131,49277,2,0,L|445:185,1,48.8750009322167,0|0,3:0|3:0,0:0:0:0:
512,280,49657,6,0,B|409:264|424:345|304:326,1,206.999993682861,0|2,1:1|0:1,0:0:0:0:
205,384,50986,1,2,0:0:0:0:
146,321,51176,2,0,P|155:278|189:110,1,206.999993682861,0|2,3:0|0:1,0:0:0:0:
122,59,52505,2,0,L|88:65,1,34.4999989471436,2|0,0:0|3:0,0:0:0:0:
228,18,52885,6,0,B|316:5|330:113|427:133|495:57|420:-11,1,310.499990524292,0|0,0:0|0:0,0:0:0:0:
408,3,54784,37,0,0:0:0:0:
403,9,54974,2,0,L|410:50,1,34.4999989471436,0|0,1:0|1:0,0:0:0:0:
510,126,55353,1,2,0:1:0:0:
510,126,55733,6,0,P|426:207|335:189,1,206.999993682861,0|2,1:1|0:1,0:0:0:0:
335,323,57062,1,2,0:0:0:0:
340,316,57252,2,0,P|439:309|505:384,1,206.999993682861,0|2,3:0|0:0,0:0:0:0:
269,241,58581,1,2,0:1:0:0:
265,237,58771,2,0,L|187:249,1,68.9999978942872,0|0,3:0|0:0,0:0:0:0:
116,192,59341,1,2,0:0:0:0:
23,153,59531,6,0,P|82:167|189:68,1,206.999993682861,0|0,1:0|0:0,0:0:0:0:
333,13,61050,2,0,L|319:72,1,60.3749981575013,2|0,0:0|0:0,0:0:0:0:
385,127,61809,6,0,B|525:104|525:104|485:119|477:150,1,206.999993682861,0|0,3:0|0:0,0:0:0:0:
407,230,63708,38,0,P|399:227|399:231,7,15.0937495393753,4|4|4|4|4|4|4|4,0:3|0:3|0:3|0:3|0:3|0:3|0:3|0:3,0:0:0:0:
478,284,64087,6,0,P|486:276|475:278,7,22.2812501699924,4|4|4|4|4|4|4|4,0:3|0:3|0:3|0:3|0:3|0:3|0:3|0:3,0:0:0:0:
403,313,64467,6,0,P|402:327|406:316,6,40.9687503907084,4|4|4|4|4|4|0,0:3|0:3|0:3|0:3|0:3|0:3|3:0,0:0:0:0:
428,276,64847,5,14,3:0:0:0:
265,378,65227,2,0,L|276:327,1,40.2499987716675,2|0,0:3|0:0,0:0:0:0:
206,245,65606,37,2,0:1:0:0:
121,233,65986,1,2,0:3:0:0:
51,280,66366,1,2,0:0:0:0:
55,362,66746,1,2,0:3:0:0:
310,201,67125,1,2,0:1:0:0:
267,66,67505,2,0,L|255:125,1,60.3749981575013,2|0,0:3|0:0,0:0:0:0:
310,201,67885,5,2,3:1:0:0:
134,68,68265,2,0,L|183:59,1,40.2499987716675,2|2,0:3|0:0,0:0:0:0:
7,169,68644,1,2,0:1:0:0:
72,0,69024,1,2,0:3:0:0:
184,155,69404,5,2,0:0:0:0:
208,251,69784,1,2,1:3:0:0:
236,344,70163,1,2,0:1:0:0:
112,270,70543,2,0,P|96:278|114:271,1,60.3749981575013,2|0,1:3|0:0,0:0:0:0:
208,251,70923,5,2,3:1:0:0:
42,341,71303,2,0,L|-1:331,1,40.2499987716675,2|2,0:3|0:0,0:0:0:0:
142,375,71682,1,2,0:1:0:0:
112,270,72062,1,2,0:3:0:0:
83,164,72442,37,2,0:1:0:0:
317,234,72822,1,2,0:3:0:0:
242,286,73201,2,0,L|210:294,2,20.1249993858338,0|0|0,1:0|0:0|0:0,0:0:0:0:
228,137,73581,6,0,L|216:203,1,60.3749981575013,2|0,0:3|0:0,0:0:0:0:
315,384,73961,2,0,L|327:318,1,60.3749981575013,2|0,3:1|0:0,0:0:0:0:
242,286,74341,2,0,L|196:294,1,40.2499987716675,2|2,0:3|0:3,0:0:0:0:
367,216,74720,6,0,B|430:230|430:230|445:255|445:255|529:274,1,160.99999508667,2|2,3:1|0:1,0:0:0:0:
296,46,75860,1,2,3:0:0:0:
220,82,76239,1,2,0:0:0:0:
220,82,76429,2,0,L|131:69,1,80.499997543335,0|2,3:0|0:0,0:0:0:0:
67,19,76999,5,4,3:1:0:0:
241,188,77379,1,2,0:0:0:0:
322,230,77568,1,2,1:3:0:0:
244,281,77758,1,10,0:1:0:0:
244,281,78518,1,10,0:1:0:0:
244,281,79277,1,10,0:1:0:0:
244,281,79657,2,0,L|232:350,1,60.3749981575013,2|0,0:0|0:0,0:0:0:0:
307,384,80037,37,2,3:1:0:0:
7,234,80417,1,2,0:0:0:0:
92,223,80606,1,2,0:3:0:0:
133,147,80796,1,10,0:1:0:0:
133,147,81556,1,10,0:1:0:0:
133,147,82315,1,10,0:1:0:0:
89,48,82505,5,0,0:0:0:0:
83,70,82695,1,2,1:2:0:0:
268,245,83075,6,0,L|321:235,1,48.8750009322167,2|2,3:1|0:0,0:0:0:0:
391,276,83455,1,2,0:0:0:0:
397,280,83644,1,2,1:3:0:0:
404,285,83834,2,0,L|391:340,1,48.8750009322167,10|2,0:1|0:0,0:0:0:0:
470,96,84214,1,2,1:2:0:0:
512,177,84404,2,0,P|438:184|380:130,1,146.62500279665,2|2,0:3|3:0,0:0:0:0:
312,46,85163,1,2,1:3:0:0:
234,81,85353,2,0,L|175:71,1,48.8750009322167,10|2,0:1|0:0,0:0:0:0:
62,133,85733,2,0,L|121:143,1,48.8750009322167,10|2,0:1|0:0,0:0:0:0:
55,35,86113,5,2,3:1:0:0:
262,197,86493,1,2,0:0:0:0:
179,236,86682,1,2,0:3:0:0:
242,294,86872,2,0,L|229:347,1,48.8750009322167,10|0,0:1|0:0,0:0:0:0:
399,227,87252,37,2,1:2:0:0:
361,143,87442,2,0,P|385:35|397:-20,1,146.62500279665,2|4,0:3|1:3,0:0:0:0:
477,158,88391,6,0,P|492:175|466:165,1,73.312501398325,8|0,3:0|0:0,0:0:0:0:
400,227,88771,2,0,L|406:257,7,22.2812501699924,12|4|4|4|4|4|4|4,0:3|0:3|0:3|0:3|0:3|0:3|0:3|0:3,0:0:0:0:
450,321,89151,6,0,P|396:287|328:295,1,126.500003860474,4|2,3:2|0:0,0:0:0:0:
39,217,89910,2,0,L|164:200,1,126.500003860474,8|4,0:0|0:3,0:0:0:0:
231,141,90480,1,2,0:3:0:0:
288,207,90670,2,0,L|275:276,1,63.2500019302369,8|0,0:3|0:0,0:0:0:0:
381,144,91050,2,0,L|367:71,1,63.2500019302369,8|0,0:3|0:0,0:0:0:0:
512,230,91429,6,0,P|452:264|393:252,1,126.500003860474,8|2,0:0|0:0,0:0:0:0:
293,361,91999,1,0,0:0:0:0:
221,293,92189,2,0,L|235:223,1,63.2500019302369,4|0,3:0|0:0,0:0:0:0:
120,270,92568,2,0,L|49:287,1,63.2500019302369,2|2,0:1|0:3,0:0:0:0:
293,361,92948,2,0,L|364:344,1,63.2500019302369,8|0,0:0|0:0,0:0:0:0:
458,166,93328,1,4,0:3:0:0:
365,216,93518,1,2,0:3:0:0:
451,270,93708,2,0,P|482:280|520:278,1,63.2500019302369,8|0,0:3|3:0,0:0:0:0:
277,205,94087,2,0,L|210:219,1,63.2500019302369,12|0,0:3|0:0,0:0:0:0:
385,131,94467,38,0,P|394:89|412:-1,1,126.500003860474,8|4,0:0|0:3,0:0:0:0:
277,205,95037,1,2,0:0:0:0:
200,148,95227,2,0,L|217:79,1,63.2500019302369,8|0,3:3|0:0,0:0:0:0:
370,284,95606,2,0,L|387:215,1,63.2500019302369,2|0,0:3|0:0,0:0:0:0:
235,323,95986,2,0,L|252:392,1,63.2500019302369,8|0,0:0|0:0,0:0:0:0:
90,243,96366,1,4,0:3:0:0:
15,325,96556,1,2,0:3:0:0:
144,293,96746,6,0,L|120:167,1,126.500003860474,8|8,0:3|0:3,0:0:0:0:
386,0,97505,2,0,L|410:126,1,126.500003860474,8|2,0:0|3:2,0:0:0:0:
336,180,98075,1,0,0:0:0:0:
415,233,98265,2,0,P|450:231|479:217,1,63.2500019302369,4|0,3:0|0:0,0:0:0:0:
328,287,98644,2,0,L|314:358,1,63.2500019302369,2|2,0:1|0:3,0:0:0:0:
204,247,99024,2,0,L|190:176,1,63.2500019302369,8|0,0:0|0:0,0:0:0:0:
33,318,99404,6,0,P|89:309|155:350,1,126.500003860474,2|8,3:2|0:3,0:0:0:0:
455,165,100163,2,0,P|401:196|339:188,1,126.500003860474,8|8,0:3|0:0,0:0:0:0:
330,183,100733,1,2,0:3:0:0:
258,101,100923,2,0,L|273:34,1,63.2500019302369,4|2,0:3|0:0,0:0:0:0:
142,141,101303,6,0,L|29:169,1,94.8750028953553,8|0,3:0|0:0,0:0:0:0:
43,154,101682,2,0,L|86:143,1,31.6250009651184,2|0,0:0|0:0,0:0:0:0:
277,263,102062,38,0,P|302:312|301:353,1,94.8750028953553,8|0,0:0|0:0,0:0:0:0:
261,384,102442,2,0,L|273:336,1,31.6250009651184,4|0,0:3|0:0,0:0:0:0:
0,259,102822,6,0,P|60:250|126:236,1,126.500003860474,8|8,0:3|0:3,0:0:0:0:
512,353,103581,2,0,P|451:361|386:376,1,126.500003860474,8|2,0:0|0:0,0:0:0:0:
315,327,104151,1,0,0:0:0:0:
401,201,104341,6,0,L|386:269,1,63.2500019302369,4|0,3:0|0:0,0:0:0:0:
202,365,104720,2,0,L|128:350,1,63.2500019302369,2|2,0:1|0:3,0:0:0:0:
302,202,105100,2,0,L|317:134,1,63.2500019302369,8|0,0:0|0:0,0:0:0:0:
174,256,105480,6,0,P|128:245|38:236,1,126.500003860474,2|8,3:2|0:3,0:0:0:0:
388,140,106239,2,0,P|454:158|523:167,1,126.500003860474,12|8,0:3|0:0,0:0:0:0:
267,36,106999,2,0,L|281:100,1,63.2500019302369,4|2,0:3|0:0,0:0:0:0:
194,181,107379,38,0,B|101:177|112:243|16:236,1,189.750005790711,8|0,3:3|0:0,0:0:0:0:
260,371,108138,2,0,B|292:247|292:247|270:279|225:276,1,189.750005790711,8|2,0:0|0:3,0:0:0:0:
380,361,108898,2,8,P|419:368|481:311,1,126.500003860474,8|8,0:3|0:3,0:0:0:0:
364,230,109467,1,0,0:0:0:0:
433,164,109657,2,0,P|443:193|448:238,1,63.2500019302369,8|0,0:0|0:3,0:0:0:0:
339,70,110037,2,0,P|344:44|359:7,1,63.2500019302369,2|0,3:2|0:0,0:0:0:0:
238,137,110417,6,0,L|107:162,1,126.500003860474,12|2,3:0|0:3,0:0:0:0:
0,81,110986,2,0,L|38:75,1,31.6250009651184,2|2,0:0|0:0,0:0:0:0:
46,90,111176,2,0,L|60:15,1,63.2500019302369,8|0,0:0|0:0,0:0:0:0:
182,236,111556,2,0,L|168:311,1,63.2500019302369,2|2,0:0|0:3,0:0:0:0:
39,267,111936,1,8,3:0:0:0:
287,151,112315,1,12,3:0:0:0:
498,335,112695,5,8,3:2:0:0:
402,305,112885,1,8,3:0:0:0:
307,279,113075,1,8,3:0:0:0:
307,279,113455,6,0,B|189:272|207:360|74:345,1,241.499992630005,4|2,0:0|0:3,0:0:0:0:
297,185,114784,37,2,0:0:0:0:
305,182,114974,2,0,B|379:131|381:37|337:-1|279:34|287:86,1,241.499992630005,0|2,3:0|0:3,0:0:0:0:
446,203,116303,2,0,L|436:252,1,40.2499987716675,2|8,0:0|3:0,0:0:0:0:
512,261,116682,6,0,B|443:260|403:344|403:344|339:280|268:316,1,281.749991401673,0|0,0:0|3:0,0:0:0:0:
46,272,118771,1,2,3:0:0:0:
131,217,118961,1,0,0:0:0:0:
49,180,119151,1,2,0:0:0:0:
49,180,119531,6,0,B|15:36|15:36|110:65,1,241.499992630005,8|2,3:0|0:3,0:0:0:0:
260,160,120860,5,2,1:2:0:0:
266,170,121050,2,0,B|337:154|337:154|372:179|372:179|471:157,1,201.249993858338,0|0,3:0|0:0,0:0:0:0:
399,23,122189,2,0,L|388:70,1,40.2499987716675,2|2,0:3|0:0,0:0:0:0:
455,160,122568,2,0,L|465:115,2,40.2499987716675,8|0|2,3:0|0:0|0:0,0:0:0:0:
512,254,123138,38,0,P|468:242|401:334,1,160.99999508667,0|2,0:3|0:0,0:0:0:0:
299,157,124087,2,0,P|307:122|334:-10,1,160.99999508667,0|2,3:0|3:0,0:0:0:0:
366,24,125037,1,2,0:0:0:0:
366,24,125227,2,0,L|327:33,1,40.2499987716675,2|0,0:1|1:0,0:0:0:0:
140,308,125606,6,0,B|64:234|-26:238|-56:291|9:353|66:289|56:239,1,278.587501700363,8|0,0:1|0:0,0:0:0:0:
9,171,127505,6,4,P|-1:168|5:180,7,22.2812501699924,4|4|4|4|4|4|4|4,0:3|0:3|0:3|0:3|0:3|0:3|0:3|0:3,0:0:0:0:
43,102,127885,6,4,P|57:92|36:93,7,51.0312501946688,4|4|4|4|4|4|4|4,0:3|0:3|0:3|0:3|0:3|0:3|0:3|0:3,0:0:0:0:
135,104,128265,38,4,P|150:90|132:100,6,57.5,4|4|4|4|4|4|0,0:3|0:3|0:3|0:3|0:3|0:3|3:3,0:0:0:0:
71,171,128644,6,0,P|51:84|87:14,1,149.499993156433,14|4,3:0|0:3,0:0:0:0:
224,222,129214,1,0,0:0:0:0:
146,282,129404,2,0,L|130:360,1,74.7499965782167,8|0,0:0|0:0,0:0:0:0:
321,195,129784,2,0,L|305:117,1,74.7499965782167,4|0,0:3|3:0,0:0:0:0:
512,277,130163,6,0,P|473:305|397:293,1,112.124994867325,8|0,3:0|0:0,0:0:0:0:
380,282,130543,2,0,P|370:320|363:354,1,74.7499965782167,12|0,3:0|0:0,0:0:0:0:
305,121,130923,2,0,P|315:83|321:48,1,74.7499965782167,8|0,0:0|0:0,0:0:0:0:
196,213,131303,2,0,L|77:238,1,112.124994867325,4|0,3:0|0:0,0:0:0:0:
0,174,131682,6,0,P|67:122|136:134,1,149.499993156433,10|4,1:3|0:3,0:0:0:0:
277,268,132252,1,0,0:0:0:0:
171,298,132442,2,0,L|188:216,1,74.7499965782167,8|0,0:0|0:0,0:0:0:0:
332,361,132822,2,0,P|293:375|258:372,1,74.7499965782167,4|0,0:3|3:0,0:0:0:0:
422,252,133201,2,0,P|468:249|511:306,1,112.124994867325,8|0,3:0|0:0,0:0:0:0:
482,324,133581,2,0,P|487:287|499:245,1,74.7499965782167,12|0,3:0|0:0,0:0:0:0:
343,115,133961,2,0,L|356:195,1,74.7499965782167,8|8,0:0|3:1,0:0:0:0:
452,123,134341,1,4,3:0:0:0:
312,15,134531,1,8,0:1:0:0:
243,66,134720,38,0,L|91:44,1,149.499993156433,10|4,1:3|0:3,0:0:0:0:
57,230,135290,1,0,0:0:0:0:
0,156,135480,2,0,P|38:142|83:142,1,74.7499965782167,8|0,0:0|0:0,0:0:0:0:
198,258,135860,2,0,L|183:336,1,74.7499965782167,4|0,0:3|3:0,0:0:0:0:
445,235,136239,2,0,P|397:247|336:213,1,112.124994867325,8|0,3:0|0:0,0:0:0:0:
316,223,136619,2,0,L|334:142,1,74.7499965782167,12|0,3:0|0:0,0:0:0:0:
445,235,136999,5,8,0:0:0:0:
278,318,137189,1,0,0:0:0:0:
365,384,137379,5,4,3:0:0:0:
389,302,137568,1,2,0:0:0:0:
207,206,137758,6,0,P|155:216|47:237,1,149.499993156433,10|4,1:3|0:3,0:0:0:0:
60,234,138328,1,0,0:0:0:0:
174,381,138518,2,0,P|180:345|191:309,1,74.7499965782167,8|0,0:0|0:0,0:0:0:0:
130,111,138898,1,4,1:3:0:0:
249,180,139087,38,0,P|319:187|381:135,1,149.499993156433,0|0,3:0|0:0,0:0:0:0:
436,9,139657,2,0,P|453:47|466:126,1,112.124994867325,12|0,1:3|0:0,0:0:0:0:
492,149,140037,2,0,P|503:101|513:60,1,74.7499965782167,8|10,1:2|3:1,0:0:0:0:
368,187,140417,1,4,3:0:0:0:
499,349,140606,1,8,0:1:0:0:
486,263,140796,6,0,P|390:280|326:291,1,149.499993156433,6|4,1:2|0:3,0:0:0:0:
265,232,141366,1,0,0:0:0:0:
204,362,141556,2,0,L|188:285,1,74.7499965782167,8|0,0:0|0:0,0:0:0:0:
351,112,141936,2,0,L|367:189,1,74.7499965782167,4|0,0:3|3:0,0:0:0:0:
239,70,142315,2,0,P|244:25|258:-8,1,74.7499965782167,8|0,3:0|0:0,0:0:0:0:
134,152,142695,2,0,P|55:192|-9:173,1,149.499993156433,12|8,3:0|1:2,0:0:0:0:
52,92,143265,1,0,0:0:0:0:
197,379,143455,2,0,P|203:324|220:259,1,112.124994867325,4|0,3:0|0:0,0:0:0:0:
139,202,143834,6,0,L|62:218,1,74.7499965782167,10|0,1:3|0:0,0:0:0:0:
339,333,144214,2,0,P|383:345|418:342,1,74.7499965782167,4|0,0:3|0:0,0:0:0:0:
216,268,144594,6,0,L|200:342,1,74.7499965782167,8|0,0:0|0:0,0:0:0:0:
289,134,144974,2,0,L|273:60,1,74.7499965782167,4|0,0:3|3:0,0:0:0:0:
496,248,145353,2,0,P|428:215|380:227,1,112.124994867325,8|0,0:3|0:0,0:0:0:0:
328,285,145733,2,0,L|343:366,1,74.7499965782167,12|0,0:3|3:0,0:0:0:0:
422,307,146113,69,8,0:0:0:0:
251,367,146303,1,8,0:1:0:0:
90,200,146493,5,4,3:0:0:0:
216,251,146682,1,8,0:1:0:0:
138,321,146872,38,0,P|95:348|-5:335,1,149.499993156433,10|4,1:3|0:3,0:0:0:0:
216,251,147442,1,0,0:0:0:0:
301,301,147632,2,0,P|318:337|320:375,1,74.7499965782167,8|0,0:0|0:0,0:0:0:0:
178,134,148012,2,0,L|195:60,1,74.7499965782167,4|8,0:3|3:1,0:0:0:0:
435,136,148391,2,0,L|325:158,1,112.124994867325,8|0,3:0|0:0,0:0:0:0:
298,141,148771,2,0,L|281:213,1,74.7499965782167,12|0,3:0|0:0,0:0:0:0:
402,334,149151,2,0,P|403:293|389:254,1,74.7499965782167,8|0,0:0|0:0,0:0:0:0:
297,311,149531,1,4,3:0:0:0:
512,364,149720,1,2,0:0:0:0:
297,311,149910,6,0,P|249:320|137:340,1,149.499993156433,10|4,1:3|0:3,0:0:0:0:
21,159,150480,1,0,0:0:0:0:
0,257,150670,2,0,L|88:239,1,74.7499965782167,8|0,0:0|0:0,0:0:0:0:
208,159,151050,2,0,L|194:235,1,74.7499965782167,4|0,1:3|3:0,0:0:0:0:
110,163,151429,5,8,3:0:0:0:
321,53,151619,1,8,0:0:0:0:
211,5,151809,5,0,3:0:0:0:
232,78,151999,1,0,3:0:0:0:
370,177,152189,37,12,1:2:0:0:
244,293,152379,5,2,3:0:0:0:
261,378,152568,1,4,3:0:0:0:
326,321,152758,1,8,3:0:0:0:
276,190,152948,6,0,L|139:213,1,137.999995788574,4|0,3:2|1:0,0:0:0:0:
0,120,153518,1,2,0:0:0:0:
41,207,153708,2,0,L|25:278,1,68.9999978942872,10|0,0:0|0:0,0:0:0:0:
189,384,154087,1,2,0:3:0:0:
117,319,154277,1,2,0:0:0:0:
215,216,154467,2,0,L|199:288,1,68.9999978942872,10|0,3:1|3:0,0:0:0:0:
445,374,154847,6,0,P|481:363|518:361,1,68.9999978942872,8|0,3:0|3:0,0:0:0:0:
309,317,155227,2,0,L|291:392,1,68.9999978942872,10|2,0:0|0:3,0:0:0:0:
411,234,155606,2,0,P|403:202|400:164,1,68.9999978942872,2|0,0:0|0:0,0:0:0:0:
313,114,155986,38,0,L|175:141,1,137.999995788574,10|0,3:1|1:0,0:0:0:0:
70,31,156556,1,2,0:0:0:0:
15,100,156746,2,0,L|30:171,1,68.9999978942872,10|0,0:0|0:0,0:0:0:0:
128,205,157125,5,2,0:3:0:0:
63,366,157315,1,2,0:0:0:0:
0,292,157505,6,0,L|72:279,1,68.9999978942872,10|0,3:1|3:0,0:0:0:0:
261,372,157885,2,0,P|224:376|189:385,1,68.9999978942872,8|0,3:0|3:0,0:0:0:0:
341,290,158265,2,0,P|389:283|457:336,1,137.999995788574,10|2,0:0|0:0,0:0:0:0:
382,183,158834,5,2,3:2:0:0:
378,179,158929,1,0,3:0:0:0:
375,172,159024,2,0,P|385:126|405:30,1,137.999995788574,10|0,3:1|1:0,0:0:0:0:
473,174,159594,1,2,0:0:0:0:
289,231,159784,2,0,B|227:222|224:263|153:258,1,137.999995788574,10|2,0:0|0:3,0:0:0:0:
92,198,160353,37,2,3:2:0:0:
88,194,160448,1,0,3:0:0:0:
85,189,160543,2,0,P|90:150|106:104,1,68.9999978942872,10|0,1:1|3:0,0:0:0:0:
0,13,160923,2,0,L|15:96,1,68.9999978942872,10|0,1:0|3:0,0:0:0:0:
204,205,161303,2,0,P|271:191|349:184,1,137.999995788574,10|2,0:0|3:0,0:0:0:0:
461,2,161872,1,0,3:0:0:0:
512,95,162062,6,0,P|457:106|347:14,1,206.999993682861,10|2,3:1|0:0,0:0:0:0:
262,89,162822,2,0,L|183:75,1,68.9999978942872,10|0,0:0|0:0,0:0:0:0:
251,0,163201,1,2,0:3:0:0:
202,169,163391,1,2,0:0:0:0:
97,93,163581,6,0,P|101:55|121:14,1,68.9999978942872,10|2,3:1|0:1,0:0:0:0:
283,206,163961,2,0,P|295:238|299:272,1,68.9999978942872,10|2,3:1|0:0,0:0:0:0:
128,384,164341,2,0,L|161:228,1,137.999995788574,14|2,1:2|3:0,0:0:0:0:
45,299,164910,1,2,3:0:0:0:
253,357,165100,6,0,B|348:337|348:337|374:378|422:371,1,166.750005088806,4|0,3:2|1:0,0:0:0:0:
512,162,165670,1,2,0:0:0:0:
420,95,165860,2,0,L|446:234,1,137.999995788574,10|2,0:0|0:3,0:0:0:0:
377,284,166429,1,2,0:0:0:0:
500,374,166619,38,0,P|507:330|519:283,1,68.9999978942872,10|0,3:1|3:0,0:0:0:0:
302,225,166999,2,0,L|229:240,1,68.9999978942872,8|0,3:0|3:0,0:0:0:0:
277,328,167379,5,10,0:0:0:0:
387,176,167568,1,2,0:3:0:0:
318,109,167758,5,2,0:0:0:0:
339,26,167948,1,0,0:0:0:0:
213,116,168138,6,0,P|140:148|80:132,1,137.999995788574,10|0,3:1|1:0,0:0:0:0:
23,71,168708,1,2,0:0:0:0:
85,231,168898,2,0,L|68:303,1,68.9999978942872,10|0,0:0|0:0,0:0:0:0:
167,296,169277,1,2,0:3:0:0:
0,198,169467,1,2,0:0:0:0:
112,355,169657,38,8,L|255:334,1,137.999995788574,10|8,3:1|3:0,0:0:0:0:
440,212,170227,1,0,3:0:0:0:
489,284,170417,2,0,P|445:253|360:258,1,137.999995788574,10|2,0:0|0:0,0:0:0:0:
290,305,170986,1,0,0:0:0:0:
223,205,171176,6,0,P|232:165|235:131,1,68.9999978942872,10|0,3:1|0:0,0:0:0:0:
123,253,171556,2,0,P|87:261|51:267,1,68.9999978942872,0|2,1:0|0:0,0:0:0:0:
290,305,171936,2,0,L|443:277,1,137.999995788574,10|2,0:0|0:3,0:0:0:0:
407,73,172505,1,2,0:0:0:0:
496,122,172695,2,0,L|480:201,1,68.9999978942872,10|0,1:1|3:0,0:0:0:0:
232,40,173075,2,0,L|313:28,1,68.9999978942872,10|0,1:0|3:0,0:0:0:0:
373,206,173455,6,0,L|409:63,1,137.999995788574,10|2,0:0|3:0,0:0:0:0:
452,253,174024,1,0,3:0:0:0:
221,383,174214,5,10,3:1:0:0:
189,292,174404,1,2,0:3:0:0:
282,255,174594,1,2,0:0:0:0:
322,343,174784,1,2,0:0:0:0:
55,261,174974,37,10,0:0:0:0:
430,384,175353,1,2,0:3:0:0:
487,319,175543,2,0,L|468:223,1,80.499997543335,2|2,0:0|0:1,0:0:0:0:
402,185,176113,2,0,L|413:138,1,40.2499987716675,10|2,3:1|3:0,0:0:0:0:
474,49,176493,6,0,P|486:49|480:54,15,26.5937498985529,4|4|4|4|4|4|4|4|4|4|4|4|4|4|4|4,0:3|0:3|0:3|0:3|0:3|0:3|0:3|0:3|0:3|0:3|0:3|0:3|0:3|0:3|0:3|3:0,0:0:0:0:
512,127,177252,6,0,P|434:73|369:80,1,160.99999508667,14|4,3:0|0:3,0:0:0:0:
189,25,177822,1,2,0:3:0:0:
265,133,178012,2,0,P|273:84|283:44,1,80.499997543335,10|0,0:0|0:0,0:0:0:0:
168,185,178391,2,0,L|183:264,1,80.499997543335,4|0,0:3|1:0,0:0:0:0:
265,133,178771,1,10,3:1:0:0:
62,226,178961,1,0,3:0:0:0:
263,339,179151,6,0,B|324:325|324:325|351:344|351:344|426:329,1,160.99999508667,12|10,0:3|0:0,0:0:0:0:
512,130,179720,1,0,3:0:0:0:
426,155,179910,2,0,L|411:234,1,80.499997543335,4|2,0:3|0:0,0:0:0:0:
512,218,180290,37,10,3:1:0:0:
410,49,180480,1,0,0:0:0:0:
316,95,180670,6,0,P|237:102|180:40,1,160.99999508667,4|8,0:3|0:0,0:0:0:0:
65,206,181239,1,0,0:0:0:0:
0,130,181429,2,0,L|82:115,1,80.499997543335,4|2,0:3|0:1,0:0:0:0:
236,267,181809,2,0,P|246:217|254:176,1,80.499997543335,10|0,3:1|3:0,0:0:0:0:
125,288,182189,2,0,B|43:279|57:332|-29:332,1,160.99999508667,12|10,1:3|0:0,0:0:0:0:
205,176,182758,1,0,3:0:0:0:
236,267,182948,1,4,1:3:0:0:
260,351,183138,1,2,0:0:0:0:
154,365,183328,5,10,1:3:0:0:
350,261,183518,1,0,0:0:0:0:
435,315,183708,6,0,P|477:328|522:319,1,80.499997543335,4|2,0:3|0:3,0:0:0:0:
320,176,184087,2,0,L|288:340,1,160.99999508667,8|4,0:0|0:3,0:0:0:0:
423,218,184657,1,2,0:1:0:0:
352,74,184847,38,0,P|300:64|219:127,1,160.99999508667,10|12,3:1|1:3,0:0:0:0:
35,191,185417,1,2,1:2:0:0:
122,253,185606,2,0,L|139:170,1,80.499997543335,10|0,0:0|3:0,0:0:0:0:
53,99,185986,5,4,1:3:0:0:
222,216,186176,1,2,0:0:0:0:
1,364,186366,6,4,B|83:344|83:344|109:383|164:378,1,160.99999508667,10|4,1:3|0:3,0:0:0:0:
310,272,186936,1,2,0:3:0:0:
222,216,187125,2,0,P|206:264|207:297,1,80.499997543335,8|0,0:0|0:0,0:0:0:0:
453,172,187505,6,0,P|391:184|333:140,1,120.749996315003,4|0,1:3|0:0,0:0:0:0:
297,75,187885,2,0,L|315:-8,1,80.499997543335,10|0,3:1|3:0,0:0:0:0:
181,135,188265,2,0,P|125:151|14:168,1,160.99999508667,12|10,1:3|0:0,0:0:0:0:
180,250,188834,1,0,3:0:0:0:
65,320,189024,37,8,0:2:0:0:
285,177,189214,1,10,0:0:0:0:
373,227,189404,6,0,L|338:392,1,160.99999508667,4|4,3:2|0:3,0:0:0:0:
448,333,189974,1,2,0:3:0:0:
266,266,190163,2,0,L|245:357,1,80.499997543335,8|0,1:2|0:0,0:0:0:0:
448,221,190543,2,0,L|427:130,1,80.499997543335,4|2,0:3|0:1,0:0:0:0:
257,0,190923,1,10,3:1:0:0:
305,153,191113,1,0,3:0:0:0:
367,52,191303,6,0,P|444:38|511:79,1,160.99999508667,12|10,3:0|0:0,0:0:0:0:
305,153,191872,1,0,3:0:0:0:
218,94,192062,2,0,P|215:52|232:7,1,80.499997543335,4|2,1:3|0:0,0:0:0:0:
150,198,192442,6,0,B|74:193|82:244|-4:244,1,160.99999508667,10|4,1:3|0:3,0:0:0:0:
218,94,193012,1,2,0:3:0:0:
305,153,193201,2,0,L|270:318,1,160.99999508667,8|4,1:2|0:3,0:0:0:0:
345,371,193771,1,2,0:1:0:0:
489,270,193961,2,0,P|444:276|412:294,1,80.499997543335,10|0,1:1|3:0,0:0:0:0:
305,153,194341,2,0,L|325:65,1,80.499997543335,12|2,3:0|1:2,0:0:0:0:
174,247,194720,38,0,P|135:279|22:270,1,160.99999508667,10|4,0:0|1:3,0:0:0:0:
84,187,195290,1,2,0:0:0:0:
302,346,195480,6,0,P|341:314|454:323,1,160.99999508667,6|4,3:2|1:3,0:0:0:0:
340,121,196050,1,2,0:3:0:0:
344,130,196239,2,0,L|329:210,1,80.499997543335,8|0,1:2|0:0,0:0:0:0:
455,120,196619,1,4,1:3:0:0:
304,23,196809,1,2,0:1:0:0:
220,73,196999,5,10,3:1:0:0:
141,55,197189,1,0,3:0:0:0:
13,172,197379,5,12,3:0:0:0:
92,192,197568,1,2,1:2:0:0:
187,322,197758,37,10,0:0:0:0:
241,230,197948,1,0,3:0:0:0:
168,141,198138,5,4,1:3:0:0:
272,379,198328,1,8,0:0:0:0:
331,280,198518,5,10,1:3:0:0:
422,302,198708,1,0,0:0:0:0:
507,332,198898,6,0,P|511:349|499:340,1,40.2499987716675,12|0,0:0|0:0,0:0:0:0:
326,183,199277,2,0,P|322:166|334:175,1,40.2499987716675,12|0,0:0|0:0,0:0:0:0:
512,98,199657,1,4,3:0:0:0:
439,160,199847,37,8,3:0:0:0:
386,32,200037,2,0,L|373:89,1,48.8750009322167,8|0,0:0|0:0,0:0:0:0:
502,253,200417,2,0,L|515:196,1,48.8750009322167,8|0,3:0|0:0,0:0:0:0:
418,280,200606,1,0,3:0:0:0:
512,355,200796,37,8,0:0:0:0:
303,224,200986,1,8,0:0:0:0:
168,290,201176,1,4,0:3:0:0:
252,323,201366,1,0,0:0:0:0:
176,377,201556,37,0,0:0:0:0:
256,192,202315,12,0,204404,0:0:0:0:
0,314,204594,5,2,1:3:0:0:
61,238,204974,1,2,0:0:0:0:
155,229,205353,1,2,1:3:0:0:
242,266,205733,1,2,0:0:0:0:
264,355,206113,1,2,1:3:0:0:
264,355,206493,5,2,0:3:0:0:
241,370,206682,1,0,0:0:0:0:
266,384,206872,1,2,1:3:0:0:
512,70,207632,5,2,1:3:0:0:
451,146,208012,1,2,0:0:0:0:
357,155,208391,1,2,1:3:0:0:
270,118,208771,1,2,0:0:0:0:
248,29,209151,1,2,1:3:0:0:
248,29,209531,37,2,0:3:0:0:
271,14,209720,1,0,0:0:0:0:
246,0,209910,1,2,1:3:0:0:
502,315,210670,5,2,1:3:0:0:
412,287,211050,1,2,0:0:0:0:
315,258,211430,1,2,1:3:0:0:
213,224,211809,1,2,0:0:0:0:
284,167,212189,1,2,1:3:0:0:
199,115,212568,5,2,0:3:0:0:
201,127,212758,1,0,0:0:0:0:
203,140,212948,1,2,1:3:0:0:
116,274,213328,2,0,L|62:264,1,51.7499984207154,2|0,0:0|0:0,0:0:0:0:
2,214,213708,6,0,P|-4:141|43:88,2,137.999995788574,2|2|2,1:3|1:3|1:3,0:0:0:0:
121,275,215606,37,2,0:3:0:0:
220,224,215986,1,2,1:3:0:0:
302,264,216366,1,2,0:0:0:0:
380,221,216746,5,4,3:2:0:0:
380,221,217505,1,2,1:3:0:0:
380,221,218265,1,2,1:3:0:0:
458,282,218644,5,2,0:3:0:0:
449,299,218834,1,0,0:0:0:0:
448,315,219024,1,2,1:3:0:0:
502,383,219404,1,2,0:0:0:0:
380,221,219784,5,2,3:1:0:0:
380,221,220543,1,2,1:3:0:0:
380,221,221303,1,2,1:3:0:0:
449,299,222062,37,2,1:3:0:0:
249,187,222442,1,0,0:0:0:0:
447,75,222822,1,2,3:1:0:0:
374,186,223201,2,0,L|381:230,1,34.4999989471436,2|0,0:3|0:0,0:0:0:0:
305,301,223581,5,2,1:3:0:0:
213,281,224341,1,2,1:3:0:0:
120,260,224720,2,0,L|127:304,1,34.4999989471436,0|0,3:0|0:0,0:0:0:0:
155,379,225100,5,2,1:3:0:0:
81,88,225480,1,2,0:0:0:0:
41,211,225860,6,0,P|124:215|171:173,2,137.999995788574,2|2|2,3:1|1:3|1:3,0:0:0:0:
249,352,227758,38,0,P|260:334|284:330,7,34.4999989471436,4|4|4|4|4|4|4|4,0:3|0:3|0:3|0:3|0:3|0:3|0:3|0:3,0:0:0:0:
312,252,228138,6,0,P|338:269|338:285,7,34.4999989471436,4|4|4|4|4|4|4|4,0:3|0:3|0:3|0:3|0:3|0:3|0:3|0:3,0:0:0:0:
384,371,228518,6,0,P|365:361|362:341,6,34.4999989471436,4|4|4|4|4|4|0,0:3|0:3|0:3|0:3|0:3|0:3|3:0,0:0:0:0:
324,315,228898,6,0,L|356:140,1,160.99999508667,14|4,3:0|0:3,0:0:0:0:
206,11,229467,1,0,0:0:0:0:
161,113,229657,2,0,L|252:95,1,80.499997543335,8|0,0:0|0:0,0:0:0:0:
321,30,230037,1,4,0:3:0:0:
182,221,230227,1,0,3:0:0:0:
63,142,230417,38,0,P|62:99|82:57,1,80.499997543335,8|0,3:0|0:0,0:0:0:0:
162,316,230796,2,0,P|84:359|16:342,1,160.99999508667,12|8,3:0|0:0,0:0:0:0:
275,196,231366,1,0,0:0:0:0:
470,256,231556,2,0,L|339:282,1,120.749996315003,4|0,3:0|0:0,0:0:0:0:
283,318,231936,2,0,L|382:299,1,80.499997543335,10|0,1:3|0:0,0:0:0:0:
501,134,232315,2,0,P|512:92|504:44,1,80.499997543335,4|0,0:3|0:0,0:0:0:0:
400,232,232695,6,0,L|499:251,1,80.499997543335,8|0,0:0|0:0,0:0:0:0:
293,41,233075,2,0,L|392:60,1,80.499997543335,4|0,0:3|3:0,0:0:0:0:
219,168,233455,2,0,P|174:197|97:186,1,120.749996315003,8|0,3:0|0:0,0:0:0:0:
28,231,233834,2,0,P|10:272|9:312,1,80.499997543335,12|0,3:0|0:0,0:0:0:0:
109,192,234214,5,8,0:0:0:0:
6,62,234404,1,8,3:1:0:0:
199,270,234594,5,4,3:0:0:0:
139,344,234784,1,8,0:1:0:0:
240,360,234974,38,0,L|365:338,1,120.749996315003,10|0,1:3|0:0,0:0:0:0:
445,384,235353,2,0,P|451:338|465:300,1,80.499997543335,4|0,0:3|0:0,0:0:0:0:
482,124,235733,2,0,P|425:113|338:180,1,160.99999508667,8|4,0:0|0:3,0:0:0:0:
447,216,236303,1,0,3:0:0:0:
219,104,236493,2,0,L|239:10,1,80.499997543335,8|0,3:0|0:0,0:0:0:0:
343,167,236872,2,0,L|323:261,1,80.499997543335,12|0,3:0|0:0,0:0:0:0:
169,371,237252,1,8,0:0:0:0:
222,210,237442,1,0,0:0:0:0:
337,341,237632,6,0,L|304:336,6,20.1249993858338,4|4|4|4|6|4|4,3:3|0:3|0:3|0:3|0:3|0:3|0:3,0:0:0:0:
431,364,238012,5,10,1:3:0:0:
410,267,238201,1,0,0:0:0:0:
498,298,238391,1,4,0:3:0:0:
277,384,238581,1,0,0:0:0:0:
208,318,238771,2,0,L|228:225,1,80.499997543335,8|0,0:0|0:0,0:0:0:0:
54,59,239151,1,4,1:3:0:0:
1,165,239341,2,0,B|77:167|76:115|170:128,1,160.99999508667,0|0,3:0|0:0,0:0:0:0:
319,0,239910,1,12,1:3:0:0:
217,53,240100,1,0,0:0:0:0:
311,136,240290,5,8,1:2:0:0:
342,217,240480,1,10,3:1:0:0:
291,344,240670,37,8,0:0:0:0:
411,72,240860,1,12,3:0:0:0:
163,267,241050,6,0,B|82:265|98:318|0:316,1,160.99999508667,4|4,1:2|0:3,0:0:0:0:
222,174,241619,1,0,0:0:0:0:
321,322,241809,2,0,L|339:236,1,80.499997543335,8|0,0:0|0:0,0:0:0:0:
228,373,242189,1,4,0:3:0:0:
423,302,242379,1,0,3:0:0:0:
265,8,242568,2,0,L|243:131,1,120.749996315003,8|0,3:0|0:0,0:0:0:0:
325,198,242948,2,0,P|364:201|402:186,1,80.499997543335,12|0,3:0|0:0,0:0:0:0:
142,60,243328,2,0,L|-25:96,1,160.99999508667,8|4,1:2|3:0,0:0:0:0:
184,195,243898,1,2,0:0:0:0:
101,251,244087,6,0,L|9:237,1,80.499997543335,10|0,1:3|0:0,0:0:0:0:
314,116,244467,1,4,0:3:0:0:
205,73,244657,1,0,0:0:0:0:
269,205,244847,2,0,L|287:295,1,80.499997543335,8|0,0:0|0:0,0:0:0:0:
161,384,245227,2,0,P|157:353|177:303,1,80.499997543335,4|0,0:3|3:0,0:0:0:0:
512,340,245606,2,0,P|472:370|391:359,1,120.749996315003,8|0,3:0|0:0,0:0:0:0:
344,296,245986,2,0,L|359:217,1,80.499997543335,12|0,3:0|0:0,0:0:0:0:
155,0,246366,5,8,0:0:0:0:
226,147,246556,1,8,0:1:0:0:
261,36,246746,1,4,3:0:0:0:
114,109,246936,1,8,0:1:0:0:
360,218,247125,38,0,B|425:204|425:204|449:221|449:221|525:202,1,160.99999508667,6|4,1:2|0:3,0:0:0:0:
371,104,247695,1,0,0:0:0:0:
456,368,247885,2,0,L|474:283,1,80.499997543335,8|0,0:0|0:0,0:0:0:0:
266,168,248265,1,4,0:3:0:0:
212,274,248455,2,0,L|298:259,1,80.499997543335,8|8,3:1|3:0,0:0:0:0:
277,369,248834,1,0,0:0:0:0:
102,227,249024,2,0,P|83:274|86:320,1,80.499997543335,12|0,3:0|0:0,0:0:0:0:
222,93,249404,2,0,L|204:8,1,80.499997543335,8|0,0:0|0:0,0:0:0:0:
83,116,249784,6,0,P|34:133|-4:132,1,80.499997543335,4|2,3:0|0:0,0:0:0:0:
291,260,250163,2,0,P|390:212|444:228,1,160.99999508667,10|4,1:3|0:3,0:0:0:0:
505,279,250733,1,0,0:0:0:0:
450,48,250923,2,0,L|432:133,1,80.499997543335,8|0,0:0|0:0,0:0:0:0:
347,73,251303,5,4,1:3:0:0:
505,279,251493,1,8,0:0:0:0:
409,347,251682,5,8,3:0:0:0:
508,163,251872,1,8,0:0:0:0:
421,221,252062,38,0,L|342:208,1,80.499997543335,0|0,3:0|3:0,0:0:0:0:
213,286,252442,6,0,L|94:267,1,120.749996315003,6|0,1:3|0:0,0:0:0:0:
10,326,253201,38,0,P|2:228|47:178,1,160.99999508667,4|0,3:2|1:0,0:0:0:0:
208,53,253771,1,2,0:0:0:0:
103,0,253961,2,0,L|118:82,1,80.499997543335,10|0,0:0|0:0,0:0:0:0:
245,210,254341,1,2,0:3:0:0:
300,13,254531,1,2,0:0:0:0:
485,94,254720,6,0,L|423:82,1,48.8750009322167,10|0,3:1|0:0,0:0:0:0:
316,139,254910,2,0,L|378:151,1,48.8750009322167,0|0,3:0|0:0,0:0:0:0:
426,206,255100,1,8,3:0:0:0:
377,2,255290,1,0,3:0:0:0:
512,209,255480,2,0,L|493:294,1,80.499997543335,10|2,0:0|0:3,0:0:0:0:
384,364,255860,70,0,L|335:355,1,48.8750009322167,2|0,0:0|0:0,0:0:0:0:
224,241,256050,2,0,L|272:232,1,48.8750009322167,0|0,0:0|0:0,0:0:0:0:
368,269,256239,6,0,P|306:262|232:326,1,160.99999508667,10|0,3:1|1:0,0:0:0:0:
118,376,256809,1,2,0:0:0:0:
48,316,256999,2,0,L|69:228,1,80.499997543335,10|0,0:0|0:0,0:0:0:0:
152,187,257379,1,2,0:3:0:0:
56,14,257568,1,2,0:0:0:0:
9,129,257758,70,0,L|73:117,1,48.8750009322167,10|0,3:1|0:0,0:0:0:0:
167,41,257948,2,0,L|215:50,1,48.8750009322167,0|0,3:0|0:0,0:0:0:0:
286,126,258138,5,8,3:0:0:0:
436,0,258328,1,0,3:0:0:0:
332,25,258518,1,10,0:0:0:0:
400,107,258708,2,0,L|383:167,1,48.8750009322167,2|0,0:3|0:0,0:0:0:0:
497,295,258898,2,0,L|514:235,1,48.8750009322167,2|0,0:0|0:0,0:0:0:0:
362,315,259087,2,0,P|354:335|368:324,1,48.8750009322167,0|0,0:0|0:0,0:0:0:0:
420,251,259277,70,0,L|247:289,1,160.99999508667,10|0,3:1|1:0,0:0:0:0:
14,154,259847,2,0,L|66:144,1,48.8750009322167,2|0,0:0|0:0,0:0:0:0:
120,57,260037,6,0,B|189:37|189:37|154:163,1,195.500003728867,10|2,0:0|0:3,0:0:0:0:
85,243,260606,1,2,0:0:0:0:
192,302,260796,2,0,L|132:317,1,48.8750009322167,10|0,1:1|0:0,0:0:0:0:
8,153,260986,2,0,L|55:164,1,48.8750009322167,0|0,3:0|0:0,0:0:0:0:
0,266,261176,69,10,1:0:0:0:
212,116,261366,2,0,L|197:61,1,48.8750009322167,0|0,3:0|0:0,0:0:0:0:
281,14,261556,6,0,B|380:18|350:81|463:94,1,195.500003728867,10|2,0:0|3:0,0:0:0:0:
512,24,262125,1,0,3:0:0:0:
328,146,262315,70,0,L|337:193,1,48.8750009322167,10|0,3:1|0:0,0:0:0:0:
451,252,262505,2,0,L|441:204,1,48.8750009322167,2|0,0:3|0:0,0:0:0:0:
349,306,262695,2,0,L|288:323,1,54.6249985413552,2|0,0:0|0:0,0:0:0:0:
175,155,262885,2,0,L|227:169,1,54.6249985413552,2|0,0:3|0:0,0:0:0:0:
156,262,263075,2,0,B|91:276|91:276|76:302|76:302|3:321,1,163.874995624065,14|0,0:0|0:0,0:0:0:0:
0,311,263455,5,0,0:3:0:0:
226,384,263644,1,8,0:0:0:0:
175,155,263834,5,10,3:1:0:0:
202,65,264024,1,8,0:3:0:0:
336,175,264214,5,10,3:0:0:0:
367,254,264404,1,10,3:0:0:0:
294,340,264594,37,14,1:2:0:0:
466,197,264784,1,0,3:0:0:0:
338,87,264974,53,10,3:0:0:0:
392,13,265163,1,10,3:0:0:0:
202,65,265353,22,0,P|126:81|34:100,1,160.99999508667,4|0,3:2|0:0,0:0:0:0:
228,201,265923,1,2,0:0:0:0:
155,265,266113,2,0,L|140:349,1,80.499997543335,10|0,0:0|0:0,0:0:0:0:
248,323,266493,5,2,0:3:0:0:
135,131,266682,1,2,0:0:0:0:
345,204,266872,70,0,L|407:192,1,48.8750009322167,10|0,3:1|0:0,0:0:0:0:
512,257,267062,2,0,L|450:269,1,48.8750009322167,0|0,3:0|0:0,0:0:0:0:
364,305,267252,1,8,3:0:0:0:
512,384,267442,1,0,3:0:0:0:
345,204,267632,2,0,P|354:157|363:112,1,80.499997543335,10|2,0:0|0:3,0:0:0:0:
162,178,268012,2,0,L|176:240,1,48.8750009322167,2|0,0:0|0:0,0:0:0:0:
253,276,268201,2,0,L|240:336,1,48.8750009322167,0|0,0:0|0:0,0:0:0:0:
140,329,268391,6,0,P|99:342|9:263,1,160.99999508667,10|0,3:1|1:0,0:0:0:0:
253,276,268961,1,2,0:0:0:0:
347,326,269151,2,0,L|434:310,1,80.499997543335,10|0,0:0|0:0,0:0:0:0:
507,92,269531,1,2,0:3:0:0:
379,172,269720,1,2,0:0:0:0:
498,247,269910,69,10,3:1:0:0:
392,3,270100,1,8,0:0:0:0:
301,59,270290,2,0,L|242:50,1,48.8750009322167,8|0,3:0|0:0,0:0:0:0:
184,0,270480,1,0,3:0:0:0:
52,152,270670,5,14,0:0:0:0:
119,235,270860,1,2,0:3:0:0:
11,336,271050,70,0,L|27:281,1,48.8750009322167,2|0,0:0|0:0,0:0:0:0:
211,158,271239,2,0,L|227:213,1,48.8750009322167,0|0,0:0|0:0,0:0:0:0:
335,256,271429,6,0,P|396:264|470:186,1,160.99999508667,4|0,3:2|1:0,0:0:0:0:
370,150,271999,1,2,0:0:0:0:
224,359,272189,2,0,P|162:304|80:313,1,160.99999508667,10|2,0:0|0:3,0:0:0:0:
241,222,272758,1,2,0:0:0:0:
505,288,272948,70,0,L|452:300,1,48.8750009322167,10|0,1:1|0:0,0:0:0:0:
319,374,273138,2,0,P|341:377|366:384,1,48.8750009322167,0|0,3:0|0:0,0:0:0:0:
372,277,273328,2,0,P|363:231|342:115,1,146.62500279665,10|0,1:0|0:0,0:0:0:0:
384,48,273708,5,10,0:0:0:0:
451,111,273898,1,2,3:3:0:0:
277,38,274087,69,2,3:0:0:0:
512,192,274277,1,8,0:0:0:0:
372,277,274467,1,10,3:1:0:0:
237,197,274657,69,8,0:3:0:0:
140,179,274847,1,2,3:2:0:0:
60,227,275037,1,10,3:3:0:0:
43,316,275227,5,14,0:0:0:0:
220,112,275417,1,0,0:0:0:0:
91,35,275606,5,12,0:2:0:0:
241,305,275796,1,0,3:0:0:0:
335,250,275986,69,2,3:1:0:0:
140,179,276176,1,8,0:0:0:0:
309,384,276366,1,8,3:0:0:0:
390,344,276556,1,2,3:0:0:0:
399,348,276651,1,8,0:0:0:0:
407,351,276746,1,8,0:0:0:0:
505,318,276936,5,8,0:0:0:0:
378,123,277125,1,4,0:3:0:0:
462,163,277315,1,2,0:3:0:0:
382,220,277505,1,0,0:0:0:0:
