osu file format v14

[General]
AudioFilename: audio.mp3
AudioLeadIn: 0
PreviewTime: 178387
Countdown: 0
SampleSet: Soft
StackLeniency: 0.8
Mode: 0
LetterboxInBreaks: 0
WidescreenStoryboard: 0

[Editor]
Bookmarks: 45044,89695,112020,138532,156672,176206,178997,223648
DistanceSpacing: 1
BeatDivisor: 8
GridSize: 32
TimelineZoom: 3.3

[Metadata]
Title:Into the Sky
TitleUnicode:Into the Sky
Artist:SawanoHiroyuki[nZk]:Tielle
ArtistUnicode:SawanoHiroyuki[nZk]:Tielle
Creator:synderes
Version:Stratosphere
Source:機動戦士ガンダムユニコーン RE:0096
Tags:澤野弘之 sawano hiroyuki Benjamin & mpi Mobile Suit Gundam UC Unicorn opening op frostwich stwi japanese anime 2V-ALK SACRA MUSIC [_lost_] conner c_o_n_n_e_r
BeatmapID:2338966
BeatmapSetID:1119622

[Difficulty]
HPDrainRate:7
CircleSize:4
OverallDifficulty:8
ApproachRate:9
SliderMultiplier:3.59999990463257
SliderTickRate:1

[Events]
//Background and Video events
0,0,"56ef23eda8da60f9093b26224dc211.jpg",0,0
//Break Periods
//Storyboard Layer 0 (Background)
//Storyboard Layer 1 (Fail)
//Storyboard Layer 2 (Pass)
//Storyboard Layer 3 (Foreground)
//Storyboard Layer 4 (Overlay)
//Storyboard Sound Samples

[TimingPoints]
393,697.674418604651,4,2,1,55,1,0
741,-133.333333333333,4,2,1,55,0,0
1613,-100,4,2,1,55,0,0
2137,-200,4,2,1,55,0,0
2660,-111.111111111111,4,2,1,55,0,0
3183,-100,4,2,1,55,0,0
3532,-133.333333333333,4,2,1,55,0,0
4404,-100,4,2,1,55,0,0
4927,-200,4,2,1,55,0,0
5451,-111.111111111111,4,2,1,55,0,0
5974,-100,4,2,1,55,0,0
6323,-133.333333333333,4,2,1,55,0,0
7195,-100,4,2,1,55,0,0
7718,-200,4,2,1,55,0,0
8241,-111.111111111111,4,2,1,55,0,0
8765,-100,4,2,1,55,0,0
9113,-133.333333333333,4,2,1,55,0,0
9986,-100,4,2,1,55,0,0
11032,-100,4,2,1,55,0,0
11555,-400,4,2,1,45,0,0
14346,-333.333333333333,4,2,1,45,0,0
16613,-1000,4,2,1,45,0,0
17137,-250,4,2,1,45,0,0
18183,-200,4,2,1,45,0,0
19404,-1000,4,2,1,45,0,0
19927,-166.666666666667,4,2,1,45,0,0
22718,-133.333333333333,4,2,1,50,0,0
23416,-100,4,2,1,50,0,0
23765,-133.333333333333,4,2,1,50,0,0
24462,-133.333333333333,4,2,1,50,0,0
24986,-200,4,2,1,50,0,0
25509,-133.333333333333,4,2,1,50,0,0
26206,-100,4,2,1,50,0,0
26555,-133.333333333333,4,2,1,50,0,0
27776,-200,4,2,1,50,0,0
28299,-133.333333333333,4,2,1,50,0,0
28997,-100,4,2,1,50,0,0
29346,-133.333333333333,4,2,1,50,0,0
30044,-133.333333333333,4,2,1,50,0,0
30567,-200,4,2,1,50,0,0
31090,-133.333333333333,4,2,1,50,0,0
31788,-100,4,2,1,50,0,0
32137,-133.333333333333,4,2,1,50,0,0
33881,-117.647058823529,4,2,1,55,0,0
35538,-200,4,2,1,55,0,0
36148,-111.111111111111,4,2,1,55,0,0
37544,-100,4,2,1,55,0,0
37892,-133.333333333333,4,2,1,55,0,0
38416,-125,4,2,1,55,0,0
38939,-100,4,2,1,55,0,0
39462,-100,4,2,1,40,0,0
41730,-133.333333333333,4,2,1,40,0,0
42253,-200,4,2,1,40,0,0
45044,-111.111111111111,4,2,1,70,0,0
45741,-111.111111111111,4,2,0,70,0,0
46090,-111.111111111111,4,2,1,70,0,0
47137,-111.111111111111,4,2,0,70,0,0
47311,-111.111111111111,4,2,1,70,0,0
48532,-111.111111111111,4,2,0,70,0,0
48881,-111.111111111111,4,2,1,70,0,0
49927,-111.111111111111,4,2,0,70,0,0
50102,-111.111111111111,4,2,1,70,0,0
51323,-111.111111111111,4,2,0,70,0,0
51672,-111.111111111111,4,2,1,70,0,0
52718,-111.111111111111,4,2,0,70,0,0
52892,-111.111111111111,4,2,1,70,0,0
54113,-111.111111111111,4,2,0,70,0,0
54462,-111.111111111111,4,2,1,70,0,0
55509,-111.111111111111,4,2,0,70,0,0
55683,-111.111111111111,4,2,1,70,0,0
56904,-111.111111111111,4,2,0,70,0,0
57253,-111.111111111111,4,2,1,70,0,0
58299,-111.111111111111,4,2,0,70,0,0
58474,-111.111111111111,4,2,1,70,0,0
59695,-111.111111111111,4,2,0,70,0,0
60044,-111.111111111111,4,2,1,70,0,0
61090,-111.111111111111,4,2,0,70,0,0
61265,-111.111111111111,4,2,1,70,0,0
62486,-111.111111111111,4,2,0,70,0,0
62834,-111.111111111111,4,2,1,70,0,0
63881,-111.111111111111,4,2,0,70,0,0
64055,-111.111111111111,4,2,1,70,0,0
65276,-111.111111111111,4,2,0,70,0,0
65625,-111.111111111111,4,2,1,70,0,0
66672,-111.111111111111,4,2,0,70,0,0
66846,-111.111111111111,4,2,1,70,0,0
68067,-111.111111111111,4,2,0,70,0,0
68416,-111.111111111111,4,2,1,70,0,0
69462,-111.111111111111,4,2,0,70,0,0
69637,-111.111111111111,4,2,1,70,0,0
70858,-111.111111111111,4,2,0,70,0,0
71206,-111.111111111111,4,2,1,70,0,0
72253,-111.111111111111,4,2,0,70,0,0
72427,-111.111111111111,4,2,1,70,0,0
73648,-111.111111111111,4,2,0,70,0,0
73997,-111.111111111111,4,2,1,70,0,0
75044,-111.111111111111,4,2,0,70,0,0
75218,-111.111111111111,4,2,1,70,0,0
76439,-111.111111111111,4,2,0,70,0,0
76788,-111.111111111111,4,2,1,70,0,0
77834,-111.111111111111,4,2,0,70,0,0
78009,-111.111111111111,4,2,1,70,0,0
79230,-111.111111111111,4,2,0,70,0,0
79579,-111.111111111111,4,2,1,70,0,0
80625,-111.111111111111,4,2,0,70,0,0
80799,-111.111111111111,4,2,1,70,0,0
82020,-111.111111111111,4,2,0,70,0,0
82369,-111.111111111111,4,2,1,70,0,0
83416,-111.111111111111,4,2,0,70,0,0
83590,-111.111111111111,4,2,1,70,0,0
84811,-111.111111111111,4,2,0,70,0,0
85160,-111.111111111111,4,2,1,70,0,0
86206,-111.111111111111,4,2,0,70,0,0
86381,-111.111111111111,4,2,1,70,0,0
87602,-111.111111111111,4,2,0,70,0,0
87776,-111.111111111111,4,2,1,70,0,0
89695,-125,4,2,1,60,0,0
93881,-250,4,2,1,60,0,0
95102,-100,4,2,1,60,0,0
95974,-125,4,2,1,60,0,0
96672,-250,4,2,1,60,0,0
98765,-125,4,2,1,60,0,0
99811,-250,4,2,1,60,0,0
100160,-100,4,2,1,60,0,0
100858,-200,4,2,1,65,0,0
101730,-100,4,2,1,65,0,0
102079,-117.647058823529,4,2,1,65,0,0
104520,-100,4,2,1,65,0,0
104695,-117.647058823529,4,2,1,65,0,0
106090,-100,4,2,1,65,0,0
106439,-100,4,2,1,45,0,0
107486,-200,4,2,1,45,0,0
108706,-133.333333333333,4,2,1,45,0,0
109230,-200,4,2,1,45,0,0
110451,-400,4,2,1,45,0,0
112020,-105.263157894737,4,2,1,70,0,0
156672,-105.263157894737,4,2,1,65,0,0
167834,-111.111111111111,4,2,1,65,0,0
170276,-222.222222222222,4,2,1,65,0,0
170625,-111.111111111111,4,2,1,65,0,0
172892,-222.222222222222,4,2,1,65,0,0
173416,-111.111111111111,4,2,1,65,0,0
176119,-100,4,2,1,65,0,0
176206,-100,4,2,1,35,0,0
178648,-200,4,2,1,25,0,0
178823,-200,4,2,1,5,0,0
178910,-200,4,2,1,45,0,0
178997,-98.0392156862745,4,2,1,80,0,0
223474,-200,4,2,1,80,0,0
223648,-200,4,2,1,20,0,0

[Colours]
Combo1 : 255,170,107
Combo2 : 183,206,236
Combo3 : 194,187,238
Combo4 : 178,236,223
Combo5 : 94,130,197

[HitObjects]
54,81,393,6,0,L|49:49,4,22.4999994039536,0|0|0|0|2,3:0|0:0|0:0|0:0|0:0,0:0:0:0:
120,156,741,2,0,L|190:170,1,67.5000007867814,0|0,0:3|0:3,0:0:0:0:
261,235,1090,5,10,0:0:0:0:
229,333,1265,1,0,0:0:0:0:
171,260,1439,1,0,3:0:0:0:
314,344,1613,6,0,L|319:382,2,22.4999994039536,0|0|0,0:3|0:0|0:0,0:0:0:0:
389,238,1962,53,8,3:0:0:0:
389,238,2137,2,0,L|479:217,1,89.9999976158143,0|0,3:0|0:3,0:0:0:0:
485,224,2660,6,0,B|432:289|359:278|315:203|400:214|416:237,1,202.499988455773,8|0,0:0|0:3,0:0:0:0:
416,236,3183,38,0,L|426:271,4,22.4999994039536,0|0|0|0|2,3:0|0:0|0:0|0:0|0:0,0:0:0:0:
364,125,3532,2,0,L|375:58,1,67.5000007867814,0|0,0:3|3:0,0:0:0:0:
250,12,3881,5,10,0:0:0:0:
173,38,4055,1,0,0:0:0:0:
235,92,4230,1,0,3:0:0:0:
88,32,4404,6,0,L|95:10,2,22.4999994039536,2|0|0,3:2|0:0|0:0,0:0:0:0:
42,168,4753,37,0,3:0:0:0:
42,168,4927,2,0,P|91:171|121:207,1,89.9999976158143,0|0,0:3|1:0,0:0:0:0:
42,168,5451,6,0,P|108:174|171:108,1,161.999990764618,8|0,0:0|1:0,0:0:0:0:
170,109,5974,54,0,L|131:97,4,22.4999994039536,2|0|0|0|2,3:2|0:0|0:0|0:0|0:0,0:0:0:0:
286,188,6323,2,0,B|310:182|310:182|330:184|330:184|352:180,1,67.5000007867814,2|0,3:2|3:0,0:0:0:0:
448,122,6672,21,8,0:0:0:0:
469,196,6846,1,8,3:0:0:0:
424,258,7020,1,2,3:2:0:0:
398,366,7195,38,0,L|391:335,2,22.4999994039536,0|0|0,0:3|0:0|0:0,0:0:0:0:
284,263,7544,21,8,3:0:0:0:
284,263,7718,2,0,L|190:241,1,89.9999976158143,0|0,3:0|0:3,0:0:0:0:
187,245,8241,38,0,B|219:264|219:264|350:231|350:231|385:257,1,202.499988455773,8|0,0:0|1:0,0:0:0:0:
374,249,8765,6,0,L|367:271,4,22.4999994039536,0|0|0|0|2,3:0|0:0|0:0|0:0|0:0,0:0:0:0:
425,143,9113,2,0,L|411:72,1,67.5000007867814,0|0,0:3|3:0,0:0:0:0:
332,17,9462,5,8,0:0:0:0:
261,57,9637,1,0,0:0:0:0:
237,152,9811,1,0,3:0:0:0:
273,266,9986,38,0,L|263:297,2,22.4999994039536,0|0|0,0:3|0:0|0:0,0:0:0:0:
308,196,10334,21,0,3:0:0:0:
179,252,10509,1,0,3:0:0:0:
95,171,10683,38,0,L|104:149,4,22.4999994039536,2|0|0|0|0,0:0|0:0|0:0|0:0|0:0,0:0:0:0:
274,295,11032,38,0,B|300:300|300:300|328:316|328:316|373:326,1,89.9999976158143,0|0,3:0|0:3,0:0:0:0:
358,322,11294,1,2,0:0:0:0:
358,322,11381,2,0,L|349:276,1,44.9999988079071,0|8,0:0|0:3,0:0:0:0:
473,324,11555,38,0,B|380:296|359:417|217:367,1,269.999992847443,4|0,0:0|0:0,0:0:0:0:
159,320,13823,1,2,0:0:0:0:
11,101,14346,6,0,B|88:8|274:100|159:228|88:156,1,323.999981529237,2|0,0:0|0:0,0:0:0:0:
88,156,16613,38,0,L|91:133,1,22.4999994039536,2|0,0:0|0:0,0:0:0:0:
201,186,17137,6,0,P|184:186|2:211,1,197.999994754791,2|0,0:0|0:0,0:0:0:0:
0,128,18183,6,0,B|159:111|92:269|262:209,1,292.499992251396,2|0,0:0|0:0,0:0:0:0:
257,210,19404,38,0,L|253:232,1,22.4999994039536,2|0,0:0|0:0,0:0:0:0:
217,382,19927,6,0,B|178:302|266:254|266:254|345:207|292:136,1,296.999983068467,2|0,0:0|0:0,0:0:0:0:
292,136,20974,6,0,B|331:83|417:79|645:7|536:293|355:277|344:46|427:6,1,512.999970754625,2|0,0:0|0:0,0:0:0:0:
425,6,22718,38,0,L|279:26,1,135.000001573563,2|0,3:2|3:0,0:0:0:0:
425,6,23241,1,0,3:0:0:0:
195,107,23416,2,0,L|213:49,2,44.9999988079071,8|2|0,0:0|0:0|3:0,0:0:0:0:
108,181,23765,2,0,P|54:171|46:92,1,135.000001573563,0|0,3:0|0:0,0:0:0:0:
40,100,24288,1,0,3:0:0:0:
128,199,24462,2,0,P|84:203|-5:240,1,135.000001573563,0|8,1:0|0:0,0:0:0:0:
221,382,24986,22,0,B|234:352|234:352|225:329|225:329|242:275,1,112.499997019768,0|0,1:0|0:0,0:0:0:0:
251,272,25509,38,0,B|189:269|183:308|113:294,1,135.000001573563,2|0,3:2|3:0,0:0:0:0:
272,190,26032,1,0,3:0:0:0:
120,295,26206,2,0,L|172:305,1,44.9999988079071,8|2,0:0|0:0,0:0:0:0:
222,354,26381,1,0,3:0:0:0:
399,291,26555,6,0,B|481:269|481:269|435:313,1,135.000001573563,0|0,3:0|0:0,0:0:0:0:
339,227,27079,5,0,3:0:0:0:
512,341,27253,2,0,B|450:338|444:377|374:363,1,135.000001573563,0|8,3:0|0:0,0:0:0:0:
174,284,27776,38,0,B|150:266|150:266|236:288,1,112.499997019768,0|0,1:0|0:0,0:0:0:0:
243,291,28299,6,0,P|239:271|220:145,1,135.000001573563,2|0,3:2|3:0,0:0:0:0:
311,212,28823,1,0,3:0:0:0:
154,374,28997,2,0,L|109:367,2,44.9999988079071,8|2|0,0:0|0:0|3:0,0:0:0:0:
0,293,29346,2,0,B|53:283|53:283|71:268|71:268|127:257,1,135.000001573563,0|0,3:0|0:0,0:0:0:0:
0,293,29869,1,0,3:0:0:0:
208,276,30044,2,0,B|224:205|224:205|165:183,1,135.000001573563,0|8,1:0|0:0,0:0:0:0:
311,342,30567,6,0,L|419:376,1,112.499997019768,0|0,1:0|0:0,0:0:0:0:
436,373,31090,38,0,B|455:328|455:328|438:288|438:288|454:248,1,135.000001573563,2|0,3:2|3:0,0:0:0:0:
356,331,31613,1,0,3:0:0:0:
440,161,31788,2,0,L|428:115,1,44.9999988079071,8|2,0:0|0:0,0:0:0:0:
410,44,31962,1,0,3:0:0:0:
512,202,32137,6,0,B|450:199|444:238|374:224,1,135.000001573563,0|0,3:0|0:0,0:0:0:0:
461,304,32660,5,0,3:0:0:0:
304,130,32834,2,0,P|302:164|281:269,1,135.000001573563,0|8,3:0|0:0,0:0:0:0:
415,147,33358,1,0,1:0:0:0:
17,270,33794,37,0,1:0:0:0:
23,265,33881,2,0,B|57:286|101:287|101:287|86:312|82:356,1,152.999998865128,4|0,3:0|3:0,0:0:0:0:
212,231,34404,1,0,3:0:0:0:
78,361,34579,2,0,B|106:353|106:353|117:345|117:345|157:334,1,76.4999994325638,8|8,0:0|0:3,0:0:0:0:
325,260,34927,2,0,L|488:290,1,152.999998865128,0|2,3:0|2:0,0:0:0:0:
280,169,35451,5,0,3:0:0:0:
280,169,35538,2,0,L|261:99,1,67.4999982118607,2|0,0:0|0:0,0:0:0:0:
190,166,35974,1,8,0:0:0:0:
336,49,36148,6,0,B|246:40|275:90|177:87,1,161.999990764618,0|0,3:0|0:0,0:0:0:0:
166,82,36584,1,8,0:3:0:0:
149,76,36672,1,4,3:0:0:0:
75,42,37020,37,0,3:0:0:0:
191,74,37195,1,0,3:0:0:0:
277,152,37369,5,8,0:0:0:0:
399,221,37544,2,0,L|453:208,2,44.9999988079071,8|2|0,0:3|0:0|3:0,0:0:0:0:
279,317,37892,2,0,L|263:389,1,67.5000007867814,0|2,0:0|2:0,0:0:0:0:
205,262,38241,5,0,3:0:0:0:
367,362,38416,2,0,B|407:353|407:353|426:354|426:354|473:345,1,107.999997138977,0|0,3:0|0:0,0:0:0:0:
485,330,38765,1,8,0:0:0:0:
256,302,38939,38,0,B|211:217|96:262|119:353|179:347,1,224.999994039536,0|0,3:0|0:0,0:0:0:0:
187,341,39462,21,0,3:0:0:0:
268,40,39811,37,0,3:0:0:0:
264,29,39986,1,0,3:0:0:0:
397,354,40334,5,0,3:0:0:0:
393,365,40509,1,2,3:2:0:0:
508,131,41032,5,0,3:0:0:0:
432,152,41206,1,0,3:0:0:0:
113,372,41730,38,0,P|48:368|63:282,1,168.750001966953,2|0,3:2|0:0,0:0:0:0:
65,278,42253,6,0,L|54:227,1,44.9999988079071,0|0,3:0|0:0,0:0:0:0:
16,163,42602,5,0,3:0:0:0:
5,159,42776,1,0,3:0:0:0:
261,26,43125,37,0,3:0:0:0:
265,15,43299,1,2,3:2:0:0:
419,361,43823,5,0,3:0:0:0:
494,377,43997,1,0,3:0:0:0:
86,17,45044,6,0,P|86:42|65:180,1,161.999990764618,4|2,3:2|0:3,0:0:0:0:
160,292,45567,1,0,3:0:0:0:
27,380,45741,2,0,B|-4:333|-4:333|32:270,1,121.499993073464,8|0,0:1|0:0,0:0:0:0:
42,272,46090,1,0,3:0:0:0:
229,352,46265,2,0,B|256:365|256:365|280:367|280:367|305:375,1,80.9999953823091,2|0,0:0|0:0,0:0:0:0:
437,280,46613,2,0,L|485:268,2,40.4999976911546,0|2|2,3:0|0:0|0:3,0:0:0:0:
336,228,46962,37,0,3:0:0:0:
414,364,47137,1,8,0:1:0:0:
336,228,47311,1,0,3:1:0:0:
441,130,47486,2,0,B|450:113|450:113|430:49,1,80.9999953823091,0|2,3:0|0:3,0:0:0:0:
244,279,47834,22,0,B|167:267|165:321|81:302,1,161.999990764618,0|2,1:1|0:3,0:0:0:0:
235,357,48358,1,0,3:0:0:0:
136,201,48532,2,0,B|109:192|109:192|83:193|83:193|57:185,1,80.9999953823091,8|0,0:1|0:0,0:0:0:0:
57,185,48794,1,0,1:0:0:0:
57,185,48881,1,0,3:0:0:0:
232,83,49055,2,0,L|252:-3,1,80.9999953823091,2|0,0:0|0:0,0:0:0:0:
310,171,49404,37,0,3:0:0:0:
434,239,49579,1,2,0:3:0:0:
501,201,49753,1,0,3:0:0:0:
405,64,49927,5,8,0:1:0:0:
224,192,50102,2,0,L|172:199,1,40.4999976911546,0|8,1:0|3:0,0:0:0:0:
111,156,50276,1,2,0:0:0:0:
233,273,50451,5,2,0:3:0:0:
360,116,50625,2,0,B|359:202|395:191|389:279,1,161.999990764618,0|2,3:0|0:3,0:0:0:0:
460,316,51148,1,0,3:0:0:0:
284,186,51323,2,0,B|249:175|249:175|236:158|236:158|172:140,1,121.499993073464,8|0,0:1|0:0,0:0:0:0:
161,126,51672,1,0,3:0:0:0:
0,165,51846,2,0,P|13:126|18:86,1,80.9999953823091,2|0,0:0|0:0,0:0:0:0:
103,255,52195,37,0,3:0:0:0:
17,86,52369,2,0,P|56:91|82:129,1,80.9999953823091,2|0,0:3|3:0,0:0:0:0:
172,284,52718,5,8,0:1:0:0:
145,374,52892,2,0,P|205:371|241:314,1,121.499993073464,0|0,3:1|0:0,0:0:0:0:
248,318,53241,2,0,L|296:330,1,40.4999976911546,2|8,0:3|3:0,0:0:0:0:
417,382,53416,6,0,B|514:357|514:357|440:338,1,161.999990764618,0|2,1:1|0:3,0:0:0:0:
231,269,53939,1,0,3:0:0:0:
460,328,54113,2,0,L|336:355,1,121.499993073464,8|0,0:1|0:0,0:0:0:0:
320,358,54462,2,0,B|302:319|302:319|325:269,1,80.9999953823091,0|2,3:0|0:0,0:0:0:0:
415,87,54811,37,0,0:0:0:0:
440,164,54986,1,0,3:0:0:0:
465,241,55160,1,2,0:3:0:0:
307,145,55334,21,0,3:0:0:0:
307,145,55422,1,0,3:0:0:0:
307,145,55509,1,8,0:1:0:0:
349,59,55683,37,0,1:0:0:0:
218,152,55858,1,2,1:2:0:0:
315,274,56032,1,2,0:3:0:0:
116,178,56206,6,0,P|53:186|40:92,1,161.999990764618,4|2,0:0|0:3,0:0:0:0:
153,247,56730,1,0,3:0:0:0:
29,105,56904,2,0,P|69:96|111:164,1,121.499993073464,8|0,0:1|0:0,0:0:0:0:
121,160,57253,2,0,L|173:176,1,40.4999976911546,0|2,3:0|0:0,0:0:0:0:
329,245,57427,2,0,B|359:237|359:237|377:228|377:228|406:221,1,80.9999953823091,2|0,0:0|0:0,0:0:0:0:
256,320,57776,5,0,3:0:0:0:
383,377,57951,1,2,0:3:0:0:
256,320,58125,1,0,3:0:0:0:
122,377,58299,37,8,0:1:0:0:
303,243,58474,2,0,P|294:204|289:164,1,80.9999953823091,0|0,1:1|0:0,0:0:0:0:
440,45,58823,5,2,0:3:0:0:
440,45,58910,1,8,3:0:0:0:
440,45,58997,2,0,B|378:22|344:81|274:51,1,161.999990764618,0|2,1:1|0:3,0:0:0:0:
424,157,59520,1,0,3:0:0:0:
318,280,59695,5,8,0:1:0:0:
424,157,59869,2,0,L|467:169,2,40.4999976911546,0|0|0,0:0|1:0|3:0,0:0:0:0:
268,57,60218,2,0,B|249:46|249:46|191:66,1,80.9999953823091,2|0,0:0|0:0,0:0:0:0:
99,204,60567,37,0,3:0:0:0:
21,153,60741,1,2,0:3:0:0:
72,75,60916,1,0,3:0:0:0:
233,14,61090,21,8,0:1:0:0:
378,94,61265,2,0,L|432:83,2,40.4999976911546,0|2|2,1:0|0:0|0:0,0:0:0:0:
299,212,61613,37,2,0:3:0:0:
144,273,61788,2,0,B|130:333|130:333|228:355,1,161.999990764618,0|2,3:0|0:3,0:0:0:0:
293,313,62311,1,0,3:0:0:0:
97,183,62486,2,0,P|40:194|40:295,1,161.999990764618,8|0,0:1|3:0,0:0:0:0:
166,107,63009,2,0,L|149:23,1,80.9999953823091,2|0,0:0|0:0,0:0:0:0:
149,27,63358,1,0,3:0:0:0:
276,150,63532,1,2,0:3:0:0:
415,64,63706,5,0,3:0:0:0:
276,150,63881,2,0,L|259:229,1,80.9999953823091,8|0,0:1|3:1,0:0:0:0:
259,229,64142,1,2,0:0:0:0:
259,229,64230,1,0,0:0:0:0:
362,340,64404,1,2,0:3:0:0:
512,270,64579,6,0,P|486:268|339:242,1,161.999990764618,0|2,1:1|0:3,0:0:0:0:
226,332,65102,1,0,3:0:0:0:
27,240,65276,38,0,B|104:223|104:223|174:286,1,161.999990764618,8|0,0:1|3:0,0:0:0:0:
84,335,65799,2,0,L|72:385,2,40.4999976911546,2|2|0,0:0|0:0|0:0,0:0:0:0:
203,187,66148,5,0,3:0:0:0:
163,65,66323,1,2,0:3:0:0:
309,194,66497,5,0,3:0:0:0:
309,194,66584,1,0,1:0:0:0:
309,194,66672,2,0,B|397:190|376:240|480:229,1,161.999990764618,8|2,0:1|0:0,0:0:0:0:
464,214,67195,2,0,L|413:227,1,40.4999976911546,2|2,0:3|0:0,0:0:0:0:
254,331,67369,38,0,B|227:318|227:318|198:329|198:329|162:373|98:370,1,161.999990764618,4|2,1:2|0:3,0:0:0:0:
254,331,67892,1,0,3:0:0:0:
48,114,68067,2,0,P|48:135|30:281,1,161.999990764618,8|0,0:1|3:0,0:0:0:0:
160,136,68590,2,0,L|207:120,2,40.4999976911546,2|0|0,0:0|1:0|0:0,0:0:0:0:
119,201,68939,1,0,3:0:0:0:
276,44,69113,6,0,L|367:64,1,80.9999953823091,2|0,0:3|3:0,0:0:0:0:
364,66,69462,2,0,L|375:118,1,40.4999976911546,8|2,0:1|0:0,0:0:0:0:
488,258,69637,6,0,P|441:252|423:217,1,80.9999953823091,2|0,0:1|0:0,0:0:0:0:
359,184,69986,1,2,0:3:0:0:
488,258,70160,38,0,P|446:257|372:350,1,161.999990764618,2|2,1:1|0:3,0:0:0:0:
254,239,70683,1,2,3:1:0:0:
385,353,70858,2,0,B|325:362|325:362|317:366|317:366|258:372,1,121.499993073464,8|0,0:1|0:0,0:0:0:0:
237,348,71206,1,2,3:1:0:0:
94,261,71381,2,0,L|37:245,2,40.4999976911546,2|8|2,0:0|3:0|0:1,0:0:0:0:
200,221,71730,21,0,3:0:0:0:
33,375,71904,2,0,B|67:366|67:366|79:358|79:358|109:351,1,80.9999953823091,2|0,0:3|3:0,0:0:0:0:
109,351,72166,1,2,0:0:0:0:
109,351,72253,1,10,0:1:0:0:
181,304,72427,1,0,1:0:0:0:
233,210,72602,1,2,0:1:0:0:
205,94,72776,2,0,L|211:49,1,40.4999976911546,2|0,0:3|0:0,0:0:0:0:
129,31,72951,38,0,P|212:23|343:128,1,242.999986146927,4|0,3:2|3:0,0:0:0:0:
456,208,73648,1,8,0:1:0:0:
503,82,73823,1,0,0:0:0:0:
435,22,73997,1,0,3:0:0:0:
366,55,74172,2,0,B|322:49|298:71|298:71|270:117|212:109,1,161.999990764618,2|0,0:1|3:0,0:0:0:0:
82,241,74695,6,0,B|56:248|56:248|36:259|36:259|0:266,1,80.9999953823091,2|0,1:1|3:0,0:0:0:0:
3,255,75044,2,0,L|46:266,1,40.4999976911546,8|2,0:1|0:0,0:0:0:0:
230,383,75218,6,0,L|216:290,1,80.9999953823091,2|0,0:1|0:0,0:0:0:0:
378,198,75567,37,2,0:3:0:0:
378,198,75654,1,8,3:0:0:0:
378,198,75741,2,0,P|448:212|446:304,1,161.999990764618,2|2,1:1|0:3,0:0:0:0:
301,241,76265,1,2,3:1:0:0:
395,113,76439,5,8,0:1:0:0:
301,241,76613,1,0,0:0:0:0:
220,162,76788,1,0,3:0:0:0:
152,208,76962,2,0,P|151:228|133:294,1,80.9999953823091,2|0,0:1|0:0,0:0:0:0:
198,346,77311,5,0,3:0:0:0:
84,156,77486,2,0,B|64:153|64:153|2:168,1,80.9999953823091,2|0,1:1|3:0,0:0:0:0:
4,167,77747,1,0,1:0:0:0:
4,167,77834,1,10,0:1:0:0:
122,87,78009,1,0,1:0:0:0:
10,5,78183,38,0,L|54:16,1,40.4999976911546,2|0,3:2|0:0,0:0:0:0:
112,62,78358,2,0,L|156:51,1,40.4999976911546,2|0,0:3|0:0,0:0:0:0:
332,89,78532,22,0,B|395:102|395:102|452:152|403:188,1,161.999990764618,4|2,0:0|0:3,0:0:0:0:
346,238,79055,1,0,3:0:0:0:
413,30,79230,2,0,B|336:22|342:82|245:58,1,161.999990764618,10|0,0:1|3:0,0:0:0:0:
137,120,79753,2,0,L|98:107,2,40.4999976911546,2|0|0,0:0|1:0|0:0,0:0:0:0:
202,211,80102,1,0,3:0:0:0:
93,344,80276,38,0,P|69:320|75:270,1,80.9999953823091,2|0,1:1|3:0,0:0:0:0:
229,366,80625,1,8,0:1:0:0:
71,275,80799,2,0,P|103:266|144:296,1,80.9999953823091,2|0,0:1|0:0,0:0:0:0:
207,337,81061,1,2,0:0:0:0:
207,337,81148,2,0,L|247:329,1,40.4999976911546,2|2,0:3|0:0,0:0:0:0:
402,231,81323,6,0,B|370:199|370:199|495:236,1,161.999990764618,2|2,1:1|0:3,0:0:0:0:
338,125,81846,1,2,3:1:0:0:
427,42,82020,5,8,0:1:0:0:
338,125,82195,1,0,0:0:0:0:
263,82,82369,2,0,P|268:64|281:-5,1,80.9999953823091,2|2,3:1|0:0,0:0:0:0:
146,175,82718,37,2,0:1:0:0:
37,123,82892,1,0,3:0:0:0:
89,14,83067,1,2,0:3:0:0:
79,277,83241,6,0,P|63:281|-1:293,1,80.9999953823091,2|8,3:1|0:1,0:0:0:0:
176,187,83590,5,0,1:0:0:0:
176,187,83677,1,2,0:0:0:0:
176,187,83765,2,0,L|184:137,1,40.4999976911546,2|0,0:1|0:0,0:0:0:0:
239,94,83939,2,0,L|232:55,1,40.4999976911546,2|2,0:3|0:0,0:0:0:0:
309,247,84113,38,0,B|364:267|404:263|404:263|369:280|358:313,1,161.999990764618,0|2,3:0|0:3,0:0:0:0:
234,186,84637,1,0,3:0:0:0:
439,335,84811,2,0,B|470:367|522:363,1,80.9999953823091,10|0,0:1|0:0,0:0:0:0:
309,247,85160,5,0,3:0:0:0:
509,330,85334,2,0,B|436:323|430:379|336:361,1,161.999990764618,2|0,0:1|3:0,0:0:0:0:
209,253,85858,2,0,B|193:225|193:225|229:172,1,80.9999953823091,2|0,1:1|3:0,0:0:0:0:
123,293,86206,5,8,0:1:0:0:
288,123,86381,2,0,L|118:142,1,161.999990764618,2|2,0:1|0:3,0:0:0:0:
421,4,86904,38,0,B|437:39|437:39|431:86,1,80.9999953823091,6|0,1:2|1:0,0:0:0:0:
460,211,87253,1,2,0:3:0:0:
353,51,87427,1,0,3:0:0:0:
512,145,87602,2,0,B|432:147|451:190|351:175,1,161.999990764618,8|0,0:1|3:0,0:0:0:0:
356,175,88038,1,8,3:0:0:0:
356,175,88125,1,2,0:0:0:0:
222,315,88299,6,0,B|209:339|209:339|141:355,1,80.9999953823091,0|0,0:0|3:0,0:0:0:0:
22,272,88648,1,2,0:3:0:0:
151,345,88823,2,0,L|160:305,2,40.4999976911546,0|8|8,3:0|0:3|0:1,0:0:0:0:
213,15,89346,5,2,0:0:0:0:
447,252,89695,38,0,P|512:235|511:169,1,143.999996185303,4|2,0:0|0:0,0:0:0:0:
510,168,90392,2,0,P|445:185|446:251,1,143.999996185303,8|2,0:0|0:0,0:0:0:0:
446,251,90916,1,0,0:0:0:0:
347,337,91090,2,0,B|303:345|303:345|292:352|292:352|206:370,1,143.999996185303,0|2,3:0|0:0,0:0:0:0:
343,329,91788,1,8,0:0:0:0:
207,369,91962,2,0,L|288:386,1,71.9999980926514,0|2,0:0|0:0,0:0:0:0:
277,383,92224,1,0,0:0:0:0:
277,383,92311,2,0,L|266:332,1,35.9999990463257,0|0,0:0|1:0,0:0:0:0:
131,218,92486,6,0,B|159:198|159:198|44:223,1,143.999996185303,0|2,3:0|0:0,0:0:0:0:
156,298,93009,1,0,0:0:0:0:
51,221,93183,2,0,B|128:217|115:266|205:249,1,143.999996185303,8|2,0:0|0:0,0:0:0:0:
314,108,93881,2,0,P|319:88|331:31,1,71.9999980926514,0|2,3:0|0:0,0:0:0:0:
470,215,94579,2,0,P|434:221|399:231,1,71.9999980926514,8|2,0:0|0:0,0:0:0:0:
310,321,95102,6,0,L|300:365,2,44.9999988079071,0|8|0,0:0|0:3|3:0,0:0:0:0:
428,142,95625,37,2,0:0:0:0:
344,76,95799,1,0,3:0:0:0:
481,94,95974,6,0,B|447:97|447:97|426:106|426:106|412:152|346:159,1,143.999996185303,8|2,0:0|0:0,0:0:0:0:
118,301,96672,2,0,B|129:294|129:294|192:307,1,71.9999980926514,0|2,3:0|0:0,0:0:0:0:
430,384,97369,2,0,L|415:308,1,71.9999980926514,8|2,0:0|0:0,0:0:0:0:
416,313,97892,1,0,0:0:0:0:
323,138,98067,6,0,L|338:62,1,71.9999980926514,0|2,3:0|0:0,0:0:0:0:
336,67,98765,38,0,L|355:220,1,143.999996185303,8|2,0:0|0:0,0:0:0:0:
326,282,99288,1,0,0:0:0:0:
326,282,99462,5,0,3:0:0:0:
360,211,99637,1,0,0:0:0:0:
400,124,99811,2,0,L|391:86,1,35.9999990463257,2|0,0:0|0:0,0:0:0:0:
238,43,100160,6,0,B|231:26|231:26|201:11|201:11|151:81|91:58,1,179.999995231629,8|2,0:0|0:0,0:0:0:0:
14,184,100683,1,0,0:0:0:0:
7,187,100770,1,0,1:3:0:0:
0,190,100858,38,0,L|95:209,1,89.9999976158143,4|0,1:2|3:0,0:0:0:0:
88,207,101381,1,0,3:0:0:0:
254,328,101555,5,8,0:0:0:0:
402,375,101730,2,0,L|423:367,2,22.4999994039536,8|0|0,0:3|0:0|0:0,0:0:0:0:
382,383,101904,1,0,3:0:0:0:
175,343,102079,6,0,B|100:337|101:390|29:380,1,152.999998865128,2|0,0:0|3:0,0:0:0:0:
0,366,102602,2,0,B|21:357|21:357|88:375,1,76.4999994325638,0|2,3:0|0:0,0:0:0:0:
73,370,102863,1,8,3:0:0:0:
73,370,102951,1,8,0:0:0:0:
190,264,103125,1,0,0:0:0:0:
105,171,103299,2,0,L|117:129,3,38.2499997162819,0|2|0|8,0:0|0:0|1:0|3:0,0:0:0:0:
22,204,103648,38,0,B|101:196|94:239|180:210,1,152.999998865128,0|0,3:2|3:0,0:0:0:0:
57,295,104172,1,0,3:0:0:0:
171,212,104346,1,0,0:0:0:0:
291,355,104520,6,0,L|301:390,2,22.4999994039536,8|0|0,0:3|0:0|0:0,0:0:0:0:
277,341,104695,1,0,3:0:0:0:
484,125,104869,6,0,P|425:132|400:221,1,152.999998865128,2|0,0:0|3:0,0:0:0:0:
265,331,105392,2,0,B|239:339|239:339|222:340|222:340|177:353,1,76.4999994325638,0|2,3:0|0:0,0:0:0:0:
191,348,105654,1,8,3:0:0:0:
191,348,105741,1,8,0:0:0:0:
317,261,105916,1,0,0:0:0:0:
399,361,106090,38,0,L|456:375,1,44.9999988079071,0|2,0:0|0:0,0:0:0:0:
468,302,106265,2,0,L|511:291,1,44.9999988079071,0|0,3:0|1:0,0:0:0:0:
511,290,106439,5,0,3:0:0:0:
212,367,106788,5,0,3:0:0:0:
239,288,106962,1,0,3:0:0:0:
280,189,107311,37,0,3:0:0:0:
246,90,107486,2,0,L|254:43,1,44.9999988079071,2|0,3:2|0:3,0:0:0:0:
253,45,107834,5,0,0:0:0:0:
17,172,108009,5,0,3:0:0:0:
151,207,108183,1,0,3:0:0:0:
160,195,108358,1,0,0:0:0:0:
146,194,108532,1,0,0:0:0:0:
45,378,108706,38,0,B|37:265|81:331|73:209,1,168.750001966953,2|0,3:2|0:0,0:0:0:0:
62,206,109230,6,0,P|77:209|157:222,1,89.9999976158143,0|0,3:0|3:0,0:0:0:0:
210,269,109753,1,0,3:0:0:0:
445,377,110102,5,0,3:0:0:0:
504,331,110276,1,2,3:2:0:0:
473,262,110451,2,0,L|482:216,1,44.9999988079071,0|0,0:3|3:0,0:0:0:0:
283,76,110974,38,0,L|274:30,1,44.9999988079071,0|0,3:0|0:0,0:0:0:0:
282,38,112020,6,0,B|209:28|209:28|196:36|196:36|100:26,1,170.999990903855,4|2,0:0|0:0,0:0:0:0:
258,158,112544,1,0,3:0:0:0:
0,216,112718,2,0,P|38:253|119:242,1,128.249993177891,8|0,0:0|0:0,0:0:0:0:
123,239,113067,2,0,P|161:256|213:256,1,85.4999954519273,2|0,0:0|3:0,0:0:0:0:
357,279,113416,5,8,0:3:0:0:
434,300,113590,1,0,0:0:0:0:
512,322,113765,1,2,0:0:0:0:
512,322,113939,1,0,3:0:0:0:
327,177,114113,37,8,0:0:0:0:
158,291,114288,2,0,L|98:278,2,42.7499977259637,0|0|2,0:0|1:0|0:0,0:0:0:0:
244,379,114637,1,0,3:0:0:0:
63,172,114811,6,0,P|82:227|200:252,1,170.999990903855,4|2,0:3|0:0,0:0:0:0:
63,172,115334,1,0,3:0:0:0:
233,23,115509,2,0,B|274:49|332:51|332:51|291:70|285:119,1,170.999990903855,8|2,0:0|0:0,0:0:0:0:
394,133,116032,2,0,P|428:133|472:109,1,85.4999954519273,0|8,3:0|0:3,0:0:0:0:
312,253,116381,2,0,L|298:308,2,42.7499977259637,0|0|2,0:0|3:0|0:0,0:0:0:0:
253,179,116730,1,0,3:0:0:0:
406,248,116904,1,8,0:0:0:0:
282,379,117079,5,0,0:0:0:0:
406,248,117253,2,0,B|432:243|432:243|457:231|457:231|488:224,1,85.4999954519273,2|0,0:0|3:0,0:0:0:0:
487,224,117515,1,0,3:0:0:0:
487,224,117602,38,0,B|419:206|408:288|310:257,1,170.999990903855,4|2,0:3|0:0,0:0:0:0:
157,338,118125,1,0,3:0:0:0:
234,378,118299,2,0,P|235:323|216:280,1,85.4999954519273,8|0,0:0|0:0,0:0:0:0:
56,242,118648,2,0,P|43:282|46:325,1,85.4999954519273,2|0,0:0|3:0,0:0:0:0:
202,139,118997,5,8,0:3:0:0:
178,40,119172,1,0,0:0:0:0:
79,64,119346,1,2,0:0:0:0:
103,163,119520,1,0,3:0:0:0:
267,77,119695,5,8,0:0:0:0:
103,163,119869,1,0,0:0:0:0:
9,91,120044,2,0,B|2:57|2:57|9:40|9:40|0:4,1,85.4999954519273,2|0,0:0|3:0,0:0:0:0:
1,8,120392,38,0,P|71:23|89:113,1,170.999990903855,4|2,0:3|0:0,0:0:0:0:
224,203,120916,1,0,3:0:0:0:
28,304,121090,2,0,B|19:314|22:336|22:336|6:324|8:288,1,85.4999954519273,8|0,0:0|0:0,0:0:0:0:
104,329,121352,1,0,3:0:0:0:
110,333,121439,2,0,L|202:347,1,85.4999954519273,2|0,0:0|3:0,0:0:0:0:
412,379,121788,5,8,0:3:0:0:
500,339,121962,1,0,0:0:0:0:
422,283,122137,1,2,0:0:0:0:
334,323,122311,2,0,L|288:330,1,42.7499977259637,0|8,3:0|3:0,0:0:0:0:
121,366,122486,2,0,B|92:359|92:359|70:361|70:361|36:352,1,85.4999954519273,8|8,0:0|0:3,0:0:0:0:
30,350,122834,2,0,L|83:341,1,42.7499977259637,2|0,0:0|1:0,0:0:0:0:
133,285,123009,2,0,L|175:292,1,42.7499977259637,0|2,3:0|0:0,0:0:0:0:
348,240,123183,6,0,P|401:226|410:119,1,170.999990903855,4|2,3:2|0:0,0:0:0:0:
275,299,123706,1,0,3:0:0:0:
414,123,123881,2,0,P|376:106|319:169,1,128.249993177891,8|0,0:0|0:0,0:0:0:0:
318,157,124230,2,0,L|226:182,1,85.4999954519273,2|0,0:0|3:0,0:0:0:0:
70,237,124579,37,8,0:3:0:0:
196,278,124753,1,0,0:0:0:0:
336,312,124927,5,2,0:0:0:0:
199,361,125102,1,0,3:0:0:0:
379,383,125276,5,8,0:0:0:0:
259,228,125451,1,0,0:0:0:0:
259,228,125538,1,0,1:0:0:0:
259,228,125625,1,2,0:0:0:0:
345,101,125799,1,0,3:0:0:0:
172,176,125974,38,0,B|261:170|238:229|352:208,1,170.999990903855,4|2,0:3|0:0,0:0:0:0:
163,96,126497,1,0,3:0:0:0:
394,0,126672,2,0,B|433:83|433:83|361:114,1,170.999990903855,8|2,0:0|0:0,0:0:0:0:
271,255,127195,2,0,L|248:355,1,85.4999954519273,0|8,3:0|0:3,0:0:0:0:
172,174,127544,5,0,0:0:0:0:
344,337,127718,2,0,B|255:331|278:390|164:369,1,170.999990903855,2|8,0:0|0:0,0:0:0:0:
28,278,128241,5,0,0:0:0:0:
8,180,128416,1,2,0:0:0:0:
87,87,128590,2,0,L|99:41,1,42.7499977259637,0|0,3:0|0:0,0:0:0:0:
16,41,128765,38,0,B|81:53|81:53|100:80|100:80|171:94,1,170.999990903855,4|2,0:3|0:0,0:0:0:0:
295,203,129288,1,0,3:0:0:0:
225,351,129462,2,0,P|217:302|214:174,1,170.999990903855,8|2,0:0|0:0,0:0:0:0:
379,16,129986,6,0,P|383:43|385:115,1,85.4999954519273,0|8,3:0|0:3,0:0:0:0:
249,58,130334,2,0,L|192:49,2,42.7499977259637,0|8|2,0:0|3:0|0:0,0:0:0:0:
383,186,130683,1,0,3:0:0:0:
485,32,130858,2,0,B|496:63|496:63|493:84|493:84|500:115,1,85.4999954519273,8|0,0:0|0:0,0:0:0:0:
500,114,131119,1,0,0:0:0:0:
500,114,131206,2,0,L|455:105,1,42.7499977259637,2|0,0:0|0:0,0:0:0:0:
404,163,131381,2,0,L|359:172,1,42.7499977259637,0|2,3:0|0:0,0:0:0:0:
253,275,131555,6,0,B|189:264|189:264|116:301|154:352,1,170.999990903855,4|2,0:3|0:0,0:0:0:0:
253,275,132079,1,0,3:0:0:0:
72,141,132253,2,0,B|12:160|12:160|131:194,1,170.999990903855,8|2,0:0|0:0,0:0:0:0:
8,329,132776,37,0,3:0:0:0:
115,189,132951,2,0,L|24:207,1,85.4999954519273,8|0,0:3|0:0,0:0:0:0:
199,68,133299,2,0,L|211:9,2,42.7499977259637,2|0|0,0:0|3:3|3:0,0:0:0:0:
357,166,133648,2,0,P|429:147|404:54,1,170.999990903855,8|2,0:0|0:0,0:0:0:0:
420,64,134172,2,0,L|411:112,1,42.7499977259637,0|0,3:0|1:0,0:0:0:0:
493,257,134346,6,0,B|434:270|434:270|410:300|410:300|330:324,1,170.999990903855,4|2,3:2|0:0,0:0:0:0:
458,370,134869,1,0,3:0:0:0:
269,235,135044,2,0,B|195:274|195:274|226:355,1,170.999990903855,8|2,0:0|0:0,0:0:0:0:
118,192,135567,2,0,L|131:142,2,42.7499977259637,0|8|8,3:0|0:3|0:3,0:0:0:0:
0,351,136090,6,0,B|36:343|36:343|53:335|53:335|92:330,1,85.4999954519273,2|0,0:1|3:0,0:0:0:0:
218,226,136439,1,8,0:0:0:0:
89,136,136613,2,0,B|35:102|35:102|142:128,1,170.999990903855,2|0,0:1|3:0,0:0:0:0:
321,235,137137,38,0,L|417:211,1,85.4999954519273,2|0,3:1|0:0,0:0:0:0:
403,214,137398,1,0,1:0:0:0:
403,214,137486,1,2,0:0:0:0:
276,318,137660,1,2,3:1:0:0:
493,193,137834,2,0,B|413:225|413:225|474:298,1,170.999990903855,8|2,0:0|0:1,0:0:0:0:
467,290,138358,6,0,L|454:233,1,42.7499977259637,0|0,3:0|0:0,0:0:0:0:
327,109,138532,2,0,B|291:101|291:101|274:93|274:93|235:88,1,85.4999954519273,2|0,3:1|0:0,0:0:0:0:
244,89,138794,1,0,1:0:0:0:
244,89,138881,1,2,0:0:0:0:
326,194,139055,1,0,3:0:0:0:
468,147,139230,5,10,0:1:0:0:
326,194,139404,1,0,0:0:0:0:
220,270,139579,37,2,3:1:0:0:
102,229,139753,1,0,3:0:0:0:
2,356,139927,6,0,P|52:364|174:338,1,170.999990903855,4|2,3:2|0:0,0:0:0:0:
32,282,140451,1,0,3:0:0:0:
189,99,140625,2,0,B|124:83|106:161|17:139,1,170.999990903855,8|2,0:0|0:0,0:0:0:0:
189,99,141148,1,0,3:0:0:0:
52,25,141323,5,8,0:3:0:0:
189,99,141497,1,0,0:0:0:0:
312,0,141672,2,0,P|380:42|367:122,1,170.999990903855,2|8,0:1|0:0,0:0:0:0:
462,249,142195,1,2,0:1:0:0:
379,330,142369,2,0,P|378:292|394:229,1,85.4999954519273,2|0,0:0|3:0,0:0:0:0:
278,148,142718,38,0,B|232:135|232:135|222:124|222:124|108:95,1,170.999990903855,2|2,3:1|0:0,0:0:0:0:
13,182,143241,1,2,3:1:0:0:
196,37,143416,2,0,B|110:21|105:89|34:72,1,170.999990903855,10|2,0:1|0:0,0:0:0:0:
208,183,143939,5,2,3:1:0:0:
34,72,144113,1,2,3:1:0:0:
206,17,144288,1,0,0:0:0:0:
206,17,144375,1,0,1:0:0:0:
206,17,144462,2,0,P|247:24|279:52,1,85.4999954519273,2|2,0:0|3:1,0:0:0:0:
417,210,144811,5,8,0:0:0:0:
454,141,144986,1,2,0:1:0:0:
404,64,145160,1,0,3:1:0:0:
305,32,145334,2,0,L|252:41,1,42.7499977259637,2|0,3:1|0:0,0:0:0:0:
21,152,145509,38,0,B|93:201|93:201|179:155,1,170.999990903855,4|2,3:2|0:0,0:0:0:0:
98,97,146032,1,0,3:0:0:0:
257,199,146206,2,0,P|269:283|272:368,1,170.999990903855,8|2,0:0|0:0,0:0:0:0:
365,175,146730,2,0,L|450:152,1,85.4999954519273,0|8,3:0|0:3,0:0:0:0:
297,68,147079,5,0,0:0:0:0:
453,171,147253,2,0,L|368:148,1,85.4999954519273,2|0,0:1|3:0,0:0:0:0:
159,262,147602,5,8,0:0:0:0:
8,383,147776,2,0,B|-32:347|-2:307|-2:307|80:280,1,170.999990903855,2|0,0:1|3:0,0:0:0:0:
253,171,148299,38,0,B|258:118|258:118|250:103|250:103|263:-7,1,170.999990903855,2|2,3:1|0:0,0:0:0:0:
160,177,148823,1,2,3:1:0:0:
261,2,148997,2,0,P|233:13|173:24,1,85.4999954519273,8|0,0:0|0:0,0:0:0:0:
385,157,149346,2,0,P|392:199|406:239,1,85.4999954519273,2|0,0:1|3:0,0:0:0:0:
237,367,149695,5,2,3:1:0:0:
273,239,149869,1,0,0:0:0:0:
309,171,150044,5,2,0:0:0:0:
274,19,150218,1,2,3:1:0:0:
473,101,150392,2,0,P|461:107|375:118,1,85.4999954519273,8|8,0:1|0:3,0:0:0:0:
168,247,150741,2,0,P|175:215|186:66,1,170.999990903855,2|4,3:1|3:2,0:0:0:0:
89,343,151352,37,0,0:0:0:0:
89,343,151439,2,0,B|53:351|53:351|36:359|36:359|-3:364,1,85.4999954519273,2|0,0:0|3:0,0:0:0:0:
0,294,151788,6,0,B|84:283|71:347|170:323,1,170.999990903855,8|2,0:0|0:0,0:0:0:0:
303,250,152311,1,0,3:0:0:0:
205,384,152486,6,0,P|239:353|245:302,1,85.4999954519273,8|0,0:3|0:0,0:0:0:0:
377,196,152834,2,0,P|379:150|347:109,1,85.4999954519273,2|0,0:1|3:0,0:0:0:0:
271,65,153183,37,8,0:0:0:0:
501,254,153358,2,0,P|449:260|403:280,1,85.4999954519273,2|2,0:1|0:0,0:0:0:0:
418,271,153619,1,2,0:0:0:0:
418,271,153706,2,0,L|433:220,1,42.7499977259637,0|2,3:0|0:0,0:0:0:0:
503,331,153881,6,0,B|402:328|447:282|331:281,1,170.999990903855,6|2,3:2|3:2,0:0:0:0:
503,331,154404,1,0,0:3:0:0:
270,333,154579,2,0,B|238:326|238:326|222:328|222:328|186:321,1,85.4999954519273,8|0,0:0|0:0,0:0:0:0:
186,321,154840,1,8,0:3:0:0:
186,321,154927,1,2,0:3:0:0:
72,212,155102,1,8,0:3:0:0:
176,111,155276,1,0,3:0:0:0:
72,212,155451,2,0,L|29:223,2,42.7499977259637,2|2|0,0:0|0:0|1:0,0:0:0:0:
184,301,155799,5,8,0:3:0:0:
33,92,155974,2,0,B|84:67|84:67|163:91|133:153,1,170.999990903855,8|0,0:0|0:3,0:0:0:0:
130,156,156497,1,0,3:0:0:0:
23,332,156672,38,0,B|113:328|90:282|193:287,1,170.999990903855,4|0,0:0|3:0,0:0:0:0:
314,234,157195,1,0,1:0:0:0:
168,268,157369,2,0,P|235:285|244:382,1,170.999990903855,8|0,0:0|3:0,0:0:0:0:
82,214,157892,2,0,B|58:205|58:205|34:203|34:203|-12:191,1,85.4999954519273,2|0,0:0|0:0,0:0:0:0:
184,122,158241,5,0,3:0:0:0:
0,220,158416,2,0,B|34:210|34:210|59:208|59:208|82:199,1,85.4999954519273,0|2,3:0|0:0,0:0:0:0:
263,84,158765,1,8,0:0:0:0:
104,2,158939,5,0,1:0:0:0:
263,84,159113,2,0,P|294:54|303:8,1,85.4999954519273,0|2,3:0|0:0,0:0:0:0:
359,206,159462,38,0,P|423:219|460:317,1,170.999990903855,0|0,3:0|3:0,0:0:0:0:
296,381,159986,1,0,1:0:0:0:
30,339,160160,2,0,B|116:324|116:324|136:314|136:314|196:306,1,170.999990903855,8|0,0:0|3:0,0:0:0:0:
38,192,160683,6,0,P|43:170|57:96,1,85.4999954519273,2|0,0:0|0:0,0:0:0:0:
195,274,161032,1,0,3:0:0:0:
94,361,161206,5,0,3:0:0:0:
187,188,161381,1,2,0:0:0:0:
360,281,161555,1,8,0:0:0:0:
241,371,161730,2,0,B|234:272|275:305|265:203,1,170.999990903855,0|2,1:0|0:0,0:0:0:0:
395,361,162253,38,0,L|486:382,1,85.4999954519273,0|0,1:0|0:3,0:0:0:0:
265,204,162602,2,0,L|245:120,1,85.4999954519273,0|0,3:0|1:0,0:0:0:0:
96,289,162951,2,0,B|73:309|73:309|10:322,1,85.4999954519273,8|0,0:0|3:0,0:0:0:0:
19,320,163212,1,0,1:0:0:0:
19,320,163299,1,0,3:0:0:0:
12,236,163474,6,0,B|72:248|72:248|102:276|102:276|182:291,1,170.999990903855,2|0,0:0|3:0,0:0:0:0:
8,153,163997,1,0,3:0:0:0:
151,106,164172,1,2,0:0:0:0:
257,186,164346,5,8,0:0:0:0:
374,234,164520,1,0,1:0:0:0:
509,145,164695,2,0,B|472:162|418:159|418:159,1,85.4999954519273,0|2,3:0|0:0,0:0:0:0:
255,288,165044,38,0,B|197:294|155:277|155:277|185:296|206:327,1,170.999990903855,4|0,3:0|3:0,0:0:0:0:
77,248,165567,1,0,1:0:0:0:
292,373,165741,2,0,B|319:368|319:368|349:351|349:351|384:345,1,85.4999954519273,8|0,0:0|3:0,0:0:0:0:
372,347,166003,1,0,1:0:0:0:
372,347,166090,1,0,1:0:0:0:
290,284,166265,6,0,B|371:272|368:342|460:334,1,170.999990903855,2|0,0:0|3:0,0:0:0:0:
439,259,166788,1,0,3:0:0:0:
341,196,166962,1,2,0:0:0:0:
211,278,167137,5,8,0:0:0:0:
100,362,167311,2,0,L|109:321,2,42.7499977259637,0|2|0,1:0|0:0|3:0,0:0:0:0:
32,250,167660,1,2,0:0:0:0:
189,373,167834,38,0,B|107:357|117:398|28:376,1,161.999990764618,4|2,0:2|0:0,0:0:0:0:
29,376,168358,1,2,0:0:0:0:
236,251,168532,2,0,B|295:231|295:231|260:328,1,161.999990764618,8|2,0:0|0:0,0:0:0:0:
262,325,169055,2,0,L|354:345,1,80.9999953823091,2|8,0:0|0:0,0:0:0:0:
443,239,169404,5,0,0:0:0:0:
429,164,169579,1,2,0:0:0:0:
415,89,169753,1,2,0:0:0:0:
500,189,169927,5,8,0:0:0:0:
327,40,170189,1,2,0:0:0:0:
327,40,170276,2,0,L|336:-2,1,40.4999976911546,0|2,1:0|0:0,0:0:0:0:
299,186,170625,38,0,B|235:201|235:201|192:245|251:291,1,161.999990764618,0|2,1:0|0:0,0:0:0:0:
299,186,171148,1,2,0:0:0:0:
145,302,171323,2,0,P|201:304|309:341,1,161.999990764618,8|2,0:0|0:0,0:0:0:0:
32,118,171933,1,8,0:3:0:0:
32,118,172020,2,0,B|25:87|25:87|16:66|16:66|10:24,1,80.9999953823091,8|0,0:0|0:0,0:0:0:0:
149,101,172369,5,2,0:0:0:0:
71,242,172544,1,2,0:0:0:0:
12,305,172718,5,8,0:0:0:0:
140,342,172892,2,0,L|150:382,2,40.4999976911546,0|0|2,0:0|1:0|0:0,0:0:0:0:
0,186,173416,38,0,L|171:212,1,161.999990764618,4|2,0:2|0:0,0:0:0:0:
160,210,173939,1,2,0:0:0:0:
319,382,174113,2,0,B|314:346|314:346|316:335|316:335|306:292,1,80.9999953823091,8|0,0:0|0:0,0:0:0:0:
308,302,174375,1,0,3:0:0:0:
308,302,174462,1,2,0:0:0:0:
396,344,174637,6,0,B|311:339|327:389|223:368,1,161.999990764618,2|0,0:0|0:0,0:0:0:0:
409,263,175160,1,2,0:0:0:0:
342,131,175334,2,0,P|335:160|333:215,1,80.9999953823091,2|8,0:0|0:0,0:0:0:0:
499,380,175683,2,0,P|506:351|508:296,1,80.9999953823091,0|0,0:0|1:0,0:0:0:0:
506,23,176119,6,0,L|513:45,2,22.4999994039536,0|0|2,1:3|0:0|0:0,0:0:0:0:
86,133,178648,38,0,L|78:88,1,44.9999988079071
0,46,178910,37,0,0:0:0:0:
8,54,178997,2,0,B|33:36|33:36|76:51|76:51|103:99|172:96,1,183.599996256867,4|2,1:0|0:0,0:0:0:0:
277,184,179520,1,0,3:0:0:0:
486,88,179695,2,0,B|427:96|427:96|416:102|416:102|348:112,1,137.69999719265,8|0,0:0|0:0,0:0:0:0:
324,103,180044,1,2,3:3:0:0:
165,224,180218,2,0,L|74:208,1,91.7999981284333,2|0,0:1|0:0,0:0:0:0:
309,339,180567,2,0,L|320:395,2,45.8999990642166,0|0|2,3:0|1:0|0:1,0:0:0:0:
394,252,180916,1,0,0:0:0:0:
266,141,181090,5,8,0:0:0:0:
484,267,181265,1,0,3:0:0:0:
220,366,181439,2,0,B|196:355|196:355|164:358|164:358|118:343,1,91.7999981284333,2|2,3:0|0:0,0:0:0:0:
132,347,181701,1,8,3:0:0:0:
132,347,181788,1,0,3:0:0:0:
51,299,181962,1,0,0:0:0:0:
23,184,182137,53,2,0:0:0:0:
99,54,182311,1,0,3:0:0:0:
277,144,182486,6,0,P|340:133|335:24,1,183.599996256867,8|2,0:0|3:3,0:0:0:0:
420,248,183009,2,0,L|518:273,1,91.7999981284333,2|0,0:1|0:0,0:0:0:0:
272,365,183358,53,0,3:0:0:0:
512,256,183532,2,0,L|423:278,1,91.7999981284333,2|0,0:1|0:0,0:0:0:0:
241,218,183881,5,10,0:1:0:0:
421,375,184055,1,0,3:0:0:0:
298,153,184230,54,0,L|309:96,1,45.8999990642166,2|2,0:3|0:0,0:0:0:0:
361,48,184404,2,0,L|350:-9,1,45.8999990642166,2|2,3:2|0:0,0:0:0:0:
512,249,184579,6,0,P|455:256|404:152,1,183.599996256867,0|2,1:0|0:0,0:0:0:0:
452,100,185102,1,0,3:0:0:0:
228,306,185276,2,0,B|144:307|146:369|35:353,1,183.599996256867,8|2,0:0|3:3,0:0:0:0:
293,186,185799,2,0,P|297:158|311:84,1,91.7999981284333,2|0,0:1|0:0,0:0:0:0:
177,194,186148,53,0,3:0:0:0:
361,295,186323,1,2,0:1:0:0:
177,194,186497,1,0,0:0:0:0:
1,267,186672,2,0,P|10:245|20:174,1,91.7999981284333,8|0,0:0|3:0,0:0:0:0:
27,186,186933,1,2,0:0:0:0:
27,186,187020,2,0,L|76:176,1,45.8999990642166,2|0,3:0|0:0,0:0:0:0:
134,130,187195,2,0,L|183:140,1,45.8999990642166,2|2,0:0|0:0,0:0:0:0:
337,232,187369,6,0,B|417:211|417:211|459:166|404:117,1,183.599996256867,0|2,3:0|0:0,0:0:0:0:
266,298,187892,1,0,3:0:0:0:
482,73,188067,2,0,B|395:58|401:122|294:98,1,183.599996256867,8|2,0:0|3:3,0:0:0:0:
454,281,188590,2,0,L|465:328,2,45.8999990642166,2|0|0,0:1|3:0|0:0,0:0:0:0:
505,177,188939,53,0,3:0:0:0:
304,100,189113,2,0,L|324:10,1,91.7999981284333,2|0,0:1|0:0,0:0:0:0:
324,10,189375,1,8,3:0:0:0:
324,10,189462,1,10,0:1:0:0:
186,119,189637,1,0,3:0:0:0:
87,22,189811,5,2,0:3:0:0:
287,220,189986,2,0,L|294:265,1,45.8999990642166,2|0,3:2|0:0,0:0:0:0:
135,229,190160,54,0,B|83:234|32:216|32:216|71:239|76:283,1,183.599996256867,4|2,0:2|0:0,0:0:0:0:
186,384,190683,1,0,3:0:0:0:
1,289,190858,2,0,B|81:292|103:229|177:239,1,183.599996256867,8|2,0:0|3:3,0:0:0:0:
360,338,191381,2,0,B|401:344|401:344|416:351|416:351|459:358,1,91.7999981284333,2|0,0:1|0:0,0:0:0:0:
302,246,191730,5,0,3:0:0:0:
424,137,191904,2,0,L|435:80,2,45.8999990642166,0|2|0,0:1|0:0|0:0,0:0:0:0:
457,282,192253,53,8,0:0:0:0:
301,150,192427,1,2,3:1:0:0:
221,92,192602,5,2,3:0:0:0:
65,182,192776,2,0,L|75:240,1,45.8999990642166,2|0,0:1|0:0,0:0:0:0:
183,310,192951,54,0,B|83:296|96:344|2:321,1,183.599996256867,0|2,3:0|0:0,0:0:0:0:
242,381,193474,1,0,3:0:0:0:
2,321,193648,2,0,P|84:312|87:214,1,183.599996256867,8|2,0:0|3:3,0:0:0:0:
214,73,194172,5,2,0:1:0:0:
214,73,194259,1,0,3:0:0:0:
214,73,194346,1,0,0:0:0:0:
68,10,194520,1,0,3:0:0:0:
5,156,194695,2,0,P|9:175|14:254,1,91.7999981284333,2|0,0:1|0:0,0:0:0:0:
227,366,195044,53,10,0:1:0:0:
14,246,195218,2,0,B|53:237|53:237|69:226|69:226|109:217,1,91.7999981284333,0|2,3:0|0:3,0:0:0:0:
100,218,195480,1,2,0:0:0:0:
100,218,195567,2,0,L|111:166,1,45.8999990642166,2|0,3:2|0:0,0:0:0:0:
14,246,195741,6,0,B|112:239|86:306|184:295,1,183.599996256867,0|2,1:0|0:0,0:0:0:0:
8,132,196265,1,0,3:0:0:0:
204,0,196439,2,0,B|256:73|256:73|224:183,1,183.599996256867,8|2,0:0|3:3,0:0:0:0:
343,321,196962,54,0,L|444:349,1,91.7999981284333,2|0,0:1|0:0,0:0:0:0:
465,276,197311,1,0,3:0:0:0:
361,186,197486,1,2,0:1:0:0:
239,237,197660,1,0,0:0:0:0:
69,316,197834,5,8,0:0:0:0:
255,380,198009,2,0,L|263:328,1,45.8999990642166,2|0,3:1|0:0,0:0:0:0:
290,134,198183,53,2,3:0:0:0:
498,250,198358,1,2,0:0:0:0:
498,250,198445,1,0,1:0:0:0:
498,250,198532,2,0,P|439:251|396:140,1,183.599996256867,2|2,3:1|0:0,0:0:0:0:
487,345,199055,1,0,3:0:0:0:
391,150,199230,2,0,P|458:151|488:219,1,137.69999719265,8|0,0:0|0:0,0:0:0:0:
423,298,199579,2,0,B|382:304|382:304|367:311|367:311|324:318,1,91.7999981284333,2|2,3:3|0:1,0:0:0:0:
333,316,199840,1,8,3:0:0:0:
333,316,199927,1,0,0:0:0:0:
102,283,200102,5,0,3:0:0:0:
14,146,200276,2,0,P|13:162|-3:242,1,91.7999981284333,2|0,0:1|0:0,0:0:0:0:
199,170,200625,53,10,0:1:0:0:
360,112,200799,1,0,3:0:0:0:
466,235,200974,5,2,0:3:0:0:
257,73,201148,2,0,L|266:14,1,45.8999990642166,2|0,3:2|0:0,0:0:0:0:
496,122,201323,54,0,B|423:90|390:195|316:157,1,183.599996256867,4|2,1:0|0:0,0:0:0:0:
496,122,201846,1,0,3:0:0:0:
219,78,202020,2,0,B|175:50|175:50|272:79,1,137.69999719265,8|0,0:0|0:0,0:0:0:0:
105,135,202369,2,0,B|80:142|80:142|47:155|47:155|9:162,1,91.7999981284333,2|2,3:3|0:1,0:0:0:0:
17,160,202631,1,2,0:0:0:0:
17,160,202718,1,0,0:0:0:0:
150,295,202892,5,0,3:0:0:0:
17,160,203067,2,0,L|123:186,1,91.7999981284333,2|0,0:1|0:0,0:0:0:0:
278,312,203416,53,8,0:0:0:0:
484,362,203590,2,0,L|285:386,1,183.599996256867,2|2,3:1|0:0,0:0:0:0:
211,181,204113,6,0,P|217:153|224:72,1,91.7999981284333,2|0,3:1|0:0,0:0:0:0:
316,239,204462,1,2,0:0:0:0:
171,329,204637,1,2,3:1:0:0:
77,205,204811,53,8,0:0:0:0:
246,288,204986,1,0,0:0:0:0:
403,126,205160,2,0,P|407:171|415:216,1,91.7999981284333,2|2,3:1|0:0,0:0:0:0:
415,216,205422,1,0,3:0:0:0:
415,216,205509,1,2,0:1:0:0:
319,374,205683,5,0,3:0:0:0:
493,188,205858,2,0,P|448:186|415:216,1,91.7999981284333,0|0,3:0|0:0,0:0:0:0:
226,326,206206,2,0,B|172:311|172:311|164:304|164:304|78:285,1,137.69999719265,10|0,0:1|0:0,0:0:0:0:
94,288,206555,2,0,P|91:280|81:232,1,45.8999990642166,2|0,0:1|1:0,0:0:0:0:
37,181,206730,2,0,P|40:173|67:132,1,45.8999990642166,2|2,3:2|0:0,0:0:0:0:
205,6,206904,54,0,P|264:17|303:139,1,183.599996256867,4|2,2:0|0:0,0:0:0:0:
155,74,207427,1,0,3:0:0:0:
309,121,207602,1,8,0:0:0:0:
192,231,207776,1,0,0:0:0:0:
0,117,207951,6,0,L|103:137,1,91.7999981284333,2|2,3:3|0:1,0:0:0:0:
90,134,208212,1,0,1:0:0:0:
90,134,208299,1,0,0:0:0:0:
217,260,208474,53,0,3:0:0:0:
331,355,208648,2,0,L|421:337,1,91.7999981284333,2|0,0:1|0:0,0:0:0:0:
296,157,208997,5,8,0:0:0:0:
407,18,209172,2,0,B|337:4|307:94|228:62,1,183.599996256867,2|2,3:1|0:0,0:0:0:0:
450,168,209695,54,0,P|452:192|467:272,1,91.7999981284333,2|0,3:1|0:0,0:0:0:0:
262,361,210044,1,2,0:0:0:0:
126,241,210218,5,2,3:0:0:0:
0,353,210392,2,0,P|5:331|32:167,1,183.599996256867,10|2,0:1|3:3,0:0:0:0:
177,339,210916,2,0,L|221:351,2,45.8999990642166,2|8|0,0:1|3:0|0:0,0:0:0:0:
25,194,211265,53,0,3:0:0:0:
197,124,211439,1,2,3:1:0:0:
310,199,211613,5,0,0:0:0:0:
319,203,211701,1,0,3:0:0:0:
328,207,211788,1,10,0:1:0:0:
507,257,211962,1,0,3:0:0:0:
374,95,212137,54,0,L|387:155,1,45.8999990642166,2|2,3:1|0:0,0:0:0:0:
306,376,212311,2,0,L|293:316,1,45.8999990642166,2|2,1:2|0:0,0:0:0:0:
469,171,212486,6,0,P|395:168|301:232,1,183.599996256867,4|2,0:0|0:0,0:0:0:0:
469,171,213009,1,0,3:0:0:0:
228,370,213183,2,0,P|273:368|296:331,1,91.7999981284333,8|0,0:0|0:0,0:0:0:0:
133,218,213532,2,0,B|98:212|98:212|78:202|78:202|35:195,1,91.7999981284333,2|2,3:3|0:1,0:0:0:0:
44,196,213794,1,8,3:0:0:0:
44,196,213881,1,0,0:0:0:0:
226,89,214055,53,0,3:0:0:0:
44,196,214230,2,0,B|77:190|77:190|97:180|97:180|132:174,1,91.7999981284333,2|0,0:1|0:0,0:0:0:0:
361,297,214579,5,8,0:0:0:0:
474,97,214753,2,0,B|441:181|506:190|470:275,1,183.599996256867,2|0,3:1|1:1,0:0:0:0:
470,276,215189,1,0,3:0:0:0:
470,276,215276,54,0,L|477:178,1,91.7999981284333,2|0,3:1|0:0,0:0:0:0:
272,317,215625,1,2,0:0:0:0:
458,377,215799,1,2,3:1:0:0:
340,278,215974,5,8,0:0:0:0:
160,362,216148,1,0,0:0:0:0:
33,223,216323,2,0,P|32:237|11:330,1,91.7999981284333,2|0,3:1|1:1,0:0:0:0:
274,128,216672,53,2,0:1:0:0:
256,54,216846,1,0,3:0:0:0:
182,32,217020,1,0,0:3:0:0:
0,264,217195,5,2,0:1:0:0:
122,298,217369,1,8,0:1:0:0:
216,210,217544,1,2,3:1:0:0:
423,321,217718,54,0,L|512:340,1,91.7999981284333,2|2,0:3|3:1,0:0:0:0:
471,218,218067,6,0,B|386:205|401:284|293:257,1,183.599996256867,4|2,1:2|0:0,0:0:0:0:
471,218,218590,1,0,3:0:0:0:
214,353,218765,2,0,B|140:330|140:330|156:271,1,137.69999719265,8|0,0:0|0:0,0:0:0:0:
93,176,219113,2,0,B|57:165|57:165|37:155|37:155|-3:146,1,91.7999981284333,2|2,3:3|0:1,0:0:0:0:
5,148,219375,1,8,3:0:0:0:
5,148,219462,1,0,0:0:0:0:
200,96,219637,53,0,3:0:0:0:
350,209,219811,2,0,P|373:176|368:119,1,91.7999981284333,2|0,0:1|0:0,0:0:0:0:
466,36,220160,5,8,0:0:0:0:
241,225,220334,2,0,P|297:232|413:302,1,183.599996256867,2|2,3:1|0:0,0:0:0:0:
512,351,220770,53,8,0:0:0:0:
512,351,220858,2,0,B|488:352|488:352|409:377,1,91.7999981284333,6|0,3:2|1:0,0:0:0:0:
423,372,221119,1,8,0:0:0:0:
423,372,221206,1,2,3:2:0:0:
227,261,221381,1,0,3:0:0:0:
317,113,221555,5,8,0:0:0:0:
470,38,221730,1,0,0:0:0:0:
371,188,221904,53,2,3:3:0:0:
154,20,222079,2,0,P|154:41|138:126,1,91.7999981284333,2|0,0:1|0:0,0:0:0:0:
259,239,222427,5,0,3:0:0:0:
137,384,222602,2,0,P|137:362|121:278,1,91.7999981284333,2|0,0:1|0:0,0:0:0:0:
126,293,222863,1,8,3:0:0:0:
126,293,222951,1,10,0:1:0:0:
283,361,223125,1,0,3:0:0:0:
431,382,223299,53,2,0:3:0:0:
486,333,223474,2,0,L|475:283,1,44.9999988079071,2|2,3:1|0:0,0:0:0:0:
