osu file format v14

[General]
AudioFilename: audio.mp3
AudioLeadIn: 0
PreviewTime: 178387
Countdown: 0
SampleSet: Soft
StackLeniency: 0.8
Mode: 0
LetterboxInBreaks: 0
WidescreenStoryboard: 1

[Editor]
DistanceSpacing: 1.1
BeatDivisor: 16
GridSize: 4
TimelineZoom: 4.899998

[Metadata]
Title:Into the Sky
TitleUnicode:Into the Sky
Artist:SawanoHiroyuki[nZk]:Tielle
ArtistUnicode:SawanoHiroyuki[nZk]:Tielle
Creator:synderes
Version:Hard
Source:機動戦士ガンダムユニコーン RE:0096
Tags:澤野弘之 sawano hiroyuki Benjamin & mpi Mobile Suit Gundam UC Unicorn opening op frostwich stwi japanese anime 2V-ALK SACRA MUSIC [_lost_] conner c_o_n_n_e_r
BeatmapID:2340722
BeatmapSetID:1119622

[Difficulty]
HPDrainRate:5
CircleSize:3.8
OverallDifficulty:6
ApproachRate:8
SliderMultiplier:3.14999990463257
SliderTickRate:1

[Events]
//Background and Video events
0,0,"56ef23eda8da60f9093b26224dc211.jpg",0,0
//Break Periods
//Storyboard Layer 0 (Background)
//Storyboard Layer 1 (Fail)
//Storyboard Layer 2 (Pass)
//Storyboard Layer 3 (Foreground)
//Storyboard Layer 4 (Overlay)
//Storyboard Sound Samples

[TimingPoints]
393,697.674418604651,4,2,1,55,1,0
393,-200,4,2,1,55,0,0
11555,-285.714285714286,4,2,1,45,0,0
18183,-285.714285714286,4,2,1,45,0,0
20974,-178.571428571429,4,2,1,45,0,0
22718,-133.333333333333,4,2,1,50,0,0
24288,-133.333333333333,4,2,1,50,0,0
27079,-133.333333333333,4,2,1,50,0,0
29869,-133.333333333333,4,2,1,50,0,0
32659,-133.333333333333,4,2,1,50,0,0
33881,-117.647058823529,4,2,1,55,0,0
35625,-117.647058823529,4,2,1,50,0,0
35973,-117.647058823529,4,2,1,55,0,0
39287,-117.647058823529,4,2,1,50,0,0
39462,-117.647058823529,4,2,1,40,0,0
39811,-200,4,2,1,40,0,0
42253,-200,4,2,1,40,0,0
45044,-111.111111111111,4,2,1,70,0,0
45741,-111.111111111111,4,2,0,70,0,0
46089,-111.111111111111,4,2,1,70,0,0
46613,-111.111111111111,4,2,1,70,0,0
47137,-111.111111111111,4,2,0,70,0,0
47311,-111.111111111111,4,2,1,70,0,0
48532,-111.111111111111,4,2,0,70,0,0
48880,-111.111111111111,4,2,1,70,0,0
49404,-111.111111111111,4,2,1,70,0,0
49927,-111.111111111111,4,2,0,70,0,0
50102,-111.111111111111,4,2,1,70,0,0
51323,-111.111111111111,4,2,0,70,0,0
51671,-111.111111111111,4,2,1,70,0,0
52194,-111.111111111111,4,2,1,70,0,0
52718,-111.111111111111,4,2,0,70,0,0
52892,-111.111111111111,4,2,1,70,0,0
54113,-111.111111111111,4,2,0,70,0,0
54461,-111.111111111111,4,2,1,70,0,0
54986,-111.111111111111,4,2,1,70,0,0
55509,-111.111111111111,4,2,0,70,0,0
55683,-111.111111111111,4,2,1,70,0,0
56904,-111.111111111111,4,2,0,70,0,0
57252,-111.111111111111,4,2,1,70,0,0
57776,-111.111111111111,4,2,1,70,0,0
58299,-111.111111111111,4,2,0,70,0,0
58474,-111.111111111111,4,2,1,70,0,0
59695,-111.111111111111,4,2,0,70,0,0
60043,-111.111111111111,4,2,1,70,0,0
60567,-111.111111111111,4,2,1,70,0,0
61090,-111.111111111111,4,2,0,70,0,0
61265,-111.111111111111,4,2,1,70,0,0
62486,-111.111111111111,4,2,0,70,0,0
62834,-111.111111111111,4,2,1,70,0,0
63358,-111.111111111111,4,2,1,70,0,0
63881,-111.111111111111,4,2,0,70,0,0
64055,-111.111111111111,4,2,1,70,0,0
64578,-111.111111111111,4,2,1,70,0,0
65276,-111.111111111111,4,2,0,70,0,0
65624,-111.111111111111,4,2,1,70,0,0
66322,-111.111111111111,4,2,1,70,0,0
66672,-111.111111111111,4,2,0,70,0,0
66846,-111.111111111111,4,2,0,70,0,0
67020,-111.111111111111,4,2,1,70,0,0
67194,-111.111111111111,4,2,1,70,0,0
67369,-111.111111111111,4,2,1,70,0,0
68067,-111.111111111111,4,2,0,70,0,0
68415,-111.111111111111,4,2,1,70,0,0
68939,-111.111111111111,4,2,1,70,0,0
69462,-111.111111111111,4,2,0,70,0,0
69637,-111.111111111111,4,2,1,70,0,0
70858,-111.111111111111,4,2,0,70,0,0
71206,-111.111111111111,4,2,1,70,0,0
72253,-111.111111111111,4,2,0,70,0,0
72601,-111.111111111111,4,2,1,70,0,0
72951,-111.111111111111,4,2,1,70,0,0
73648,-111.111111111111,4,2,0,70,0,0
73996,-111.111111111111,4,2,1,70,0,0
74520,-111.111111111111,4,2,1,70,0,0
75044,-111.111111111111,4,2,0,70,0,0
75218,-111.111111111111,4,2,1,70,0,0
76439,-111.111111111111,4,2,0,70,0,0
76787,-111.111111111111,4,2,1,70,0,0
77485,-111.111111111111,4,2,1,70,0,0
77834,-111.111111111111,4,2,0,70,0,0
78008,-111.111111111111,4,2,1,70,0,0
78357,-111.111111111111,4,2,1,70,0,0
78532,-111.111111111111,4,2,1,70,0,0
79230,-111.111111111111,4,2,0,70,0,0
79578,-111.111111111111,4,2,1,70,0,0
80101,-111.111111111111,4,2,1,70,0,0
80625,-111.111111111111,4,2,0,70,0,0
80799,-111.111111111111,4,2,1,70,0,0
82020,-111.111111111111,4,2,0,70,0,0
82369,-111.111111111111,4,2,1,70,0,0
83415,-111.111111111111,4,2,0,70,0,0
83590,-111.111111111111,4,2,1,70,0,0
84811,-111.111111111111,4,2,0,70,0,0
85159,-111.111111111111,4,2,1,70,0,0
85683,-111.111111111111,4,2,1,70,0,0
86206,-111.111111111111,4,2,0,70,0,0
86381,-111.111111111111,4,2,1,70,0,0
87602,-111.111111111111,4,2,0,70,0,0
87776,-111.111111111111,4,2,1,70,0,0
88647,-111.111111111111,4,2,1,70,0,0
88997,-133.333333333333,4,2,1,70,0,0
89695,-114.942528735632,4,2,1,60,0,0
90392,-114.942528735632,4,2,1,60,0,0
93183,-114.942528735632,4,2,1,60,0,0
99811,-114.942528735632,4,2,1,60,0,0
100857,-114.942528735632,4,2,1,65,0,0
101206,-111.111111111111,4,2,1,65,0,0
101904,-111.111111111111,4,2,1,65,0,0
103997,-111.111111111111,4,2,1,65,0,0
105218,-111.111111111111,4,2,1,65,0,0
106264,-111.111111111111,4,2,1,65,0,0
106438,-111.111111111111,4,2,1,45,0,0
106788,-200,4,2,1,45,0,0
108009,-200,4,2,1,45,0,0
108706,-200,4,2,1,45,0,0
109054,-200,4,2,1,55,0,0
109230,-200,4,2,1,45,0,0
112020,-105.263157894737,4,2,1,70,0,0
114462,-105.263157894737,4,2,1,70,0,0
114811,-105.263157894737,4,2,1,70,0,0
116555,-105.263157894737,4,2,1,70,0,0
117253,-105.263157894737,4,2,1,70,0,0
120044,-105.263157894737,4,2,1,70,0,0
125625,-105.263157894737,4,2,1,70,0,0
128416,-105.263157894737,4,2,1,70,0,0
128764,-105.263157894737,4,2,1,70,0,0
130509,-105.263157894737,4,2,1,70,0,0
133299,-105.263157894737,4,2,1,70,0,0
133648,-105.263157894737,4,2,1,70,0,0
138183,-105.263157894737,4,2,1,70,0,0
138532,-105.263157894737,4,2,1,70,0,0
139579,-105.263157894737,4,2,1,70,0,0
139927,-105.263157894737,4,2,1,70,0,0
149346,-105.263157894737,4,2,1,70,0,0
154927,-105.263157894737,4,2,1,70,0,0
156671,-105.263157894737,4,2,1,65,0,0
161032,-105.263157894737,4,2,1,65,0,0
163822,-105.263157894737,4,2,1,65,0,0
166613,-105.263157894737,4,2,1,65,0,0
167834,-117.647058823529,4,2,1,65,0,0
170101,-117.647058823529,4,2,1,55,0,0
170276,-117.647058823529,4,2,1,65,0,0
172368,-117.647058823529,4,2,1,65,0,0
173067,-117.647058823529,4,2,1,65,0,0
175160,-117.647058823529,4,2,1,65,0,0
175770,-117.647058823529,4,2,1,65,0,0
176207,-117.647058823529,4,2,1,35,0,0
178648,-133.333333333333,4,2,1,25,0,0
178909,-133.333333333333,4,2,1,5,0,0
178997,-103.092783505155,4,2,1,80,0,0
189462,-103.092783505155,4,2,1,80,0,0
195566,-103.092783505155,4,2,1,80,0,0
195741,-103.092783505155,4,2,1,80,0,0
199927,-103.092783505155,4,2,1,80,0,0
205508,-103.092783505155,4,2,1,80,0,0
206904,-103.092783505155,4,2,1,80,0,0
211788,-103.092783505155,4,2,1,80,0,0
222950,-103.092783505155,4,2,1,80,0,0

[Colours]
Combo1 : 255,170,107
Combo2 : 183,206,236
Combo3 : 194,187,238
Combo4 : 178,236,223
Combo5 : 94,130,197

[HitObjects]
12,146,393,6,0,L|90:129,1,78.7499976158143,0|0,3:0|0:3,0:0:0:0:
88,129,916,1,0,0:3:0:0:
165,189,1090,2,0,L|204:197,2,39.3749988079071,10|0|0,0:0|0:0|3:0,0:0:0:0:
92,246,1613,1,0,0:3:0:0:
282,358,1962,5,8,3:0:0:0:
358,330,2137,1,0,3:0:0:0:
433,359,2311,2,0,B|460:364|460:364|481:372|481:372|514:377,1,78.7499976158143,0|8,0:3|0:0,0:0:0:0:
321,195,3009,5,0,0:3:0:0:
321,195,3183,2,0,L|338:113,1,78.7499976158143,0|0,3:0|0:3,0:0:0:0:
336,117,3706,1,0,3:0:0:0:
262,56,3881,2,0,L|255:13,2,39.3749988079071,10|0|0,0:0|0:0|3:0,0:0:0:0:
198,124,4404,1,2,3:2:0:0:
30,253,4753,37,0,3:0:0:0:
109,270,4927,1,0,0:3:0:0:
188,287,5102,2,0,P|192:299|196:366,1,78.7499976158143,2|8,0:0|0:0,0:0:0:0:
278,377,5625,2,0,L|283:335,1,39.3749988079071,0|0,0:0|1:0,0:0:0:0:
371,289,5974,6,0,L|450:273,1,78.7499976158143,2|2,3:2|3:2,0:0:0:0:
448,273,6497,1,0,3:0:0:0:
461,183,6672,2,0,L|500:191,2,39.3749988079071,8|8|2,0:0|3:0|3:2,0:0:0:0:
389,128,7195,2,0,P|368:105|378:57,1,78.7499976158143,0|8,0:3|3:0,0:0:0:0:
293,22,7718,2,0,P|277:28|216:42,1,78.7499976158143,0|0,3:0|0:3,0:0:0:0:
140,96,8241,2,0,P|124:90|63:76,1,78.7499976158143,8|0,0:0|0:0,0:0:0:0:
0,160,8765,6,0,B|-2:179|-2:179|13:241,1,78.7499976158143,0|0,3:0|0:3,0:0:0:0:
12,236,9288,1,0,3:0:0:0:
72,317,9462,2,0,L|59:361,2,39.3749988079071,8|0|0,0:0|0:0|3:0,0:0:0:0:
155,265,9986,2,0,P|186:269|215:312,1,78.7499976158143,0|0,0:3|3:0,0:0:0:0:
278,350,10509,1,0,3:0:0:0:
364,379,10683,2,0,P|395:375|424:332,1,78.7499976158143,2|0,0:0|3:0,0:0:0:0:
484,288,11206,2,0,L|505:293,2,19.6874994039536,0|2|0,0:3|0:0|0:0,0:0:0:0:
441,184,11555,38,0,B|394:81|200:101|211:266|347:242,1,358.312478217126,4|2,0:0|0:0,0:0:0:0:
512,325,14346,6,0,B|309:276|376:408|172:385,1,358.312478217126,2|2,0:0|0:0,0:0:0:0:
0,324,17137,6,0,B|75:300|75:300|55:231,1,151.593740784169,2|0,0:0|0:0,0:0:0:0:
45,236,18183,2,0,B|7:199|7:199|147:228,1,192.93748827076,2|2,0:0|0:0,0:0:0:0:
442,205,19927,6,0,L|460:358,1,151.593740784169,2|0,0:0|0:0,0:0:0:0:
462,377,20974,22,0,B|376:233|164:293|288:457|416:349|372:250,1,396.899992828674,2|0,0:0|0:0,0:0:0:0:
305,212,22718,6,0,B|373:211|351:186|418:183,1,118.125000929833,2|0,3:2|3:0,0:0:0:0:
417,183,23241,1,0,3:0:0:0:
498,128,23416,2,0,B|504:101|504:101|490:66,1,59.0625004649163,8|0,0:0|3:0,0:0:0:0:
446,4,23765,2,0,P|406:10|371:81,1,118.125000929833,0|0,3:0|0:0,0:0:0:0:
315,136,24288,1,0,3:0:0:0:
315,136,24462,2,0,L|189:160,1,118.125000929833,0|8,1:0|0:0,0:0:0:0:
158,255,24986,2,0,P|100:260|58:221,1,118.125000929833,0|0,1:0|3:0,0:0:0:0:
71,373,25509,6,0,B|121:362|121:362|129:353|129:353|182:340,1,118.125000929833,2|0,3:2|3:0,0:0:0:0:
182,340,26032,1,0,3:0:0:0:
240,274,26206,2,0,L|250:214,1,59.0625004649163,8|0,0:0|3:0,0:0:0:0:
201,148,26555,2,0,L|180:26,1,118.125000929833,0|0,3:0|0:0,0:0:0:0:
283,82,27079,1,0,3:0:0:0:
283,82,27253,2,0,L|404:99,1,118.125000929833,0|8,3:0|0:0,0:0:0:0:
511,168,27776,2,0,P|455:182|407:216,1,118.125000929833,0|0,1:0|3:0,0:0:0:0:
295,205,28299,38,0,P|264:255|255:313,1,118.125000929833,2|0,3:2|3:0,0:0:0:0:
254,312,28823,1,0,3:0:0:0:
178,249,28997,2,0,P|147:244|111:228,1,59.0625004649163,8|0,0:0|3:0,0:0:0:0:
63,290,29346,2,0,P|10:311|1:367,1,118.125000929833,0|0,3:0|0:0,0:0:0:0:
93,381,29869,1,0,3:0:0:0:
93,381,30044,2,0,L|213:362,1,118.125000929833,0|8,1:0|0:0,0:0:0:0:
290,301,30567,2,0,P|343:304|343:368,1,118.125000929833,0|0,1:0|3:0,0:0:0:0:
394,235,31090,6,0,B|459:230|443:211|510:211,1,118.125000929833,2|0,3:2|3:0,0:0:0:0:
508,211,31613,1,0,3:0:0:0:
448,122,31788,2,0,B|455:94|455:94|447:59,1,59.0625004649163,8|0,0:0|3:0,0:0:0:0:
364,95,32137,2,0,L|247:77,1,118.125000929833,0|0,3:0|0:0,0:0:0:0:
160,28,32659,1,0,3:0:0:0:
160,28,32834,2,0,P|114:41|108:106,1,118.125000929833,0|8,3:0|0:0,0:0:0:0:
35,186,33358,5,0,1:0:0:0:
223,380,33881,38,0,L|201:237,1,133.874998500347,4|0,3:0|3:0,0:0:0:0:
140,202,34404,1,0,3:0:0:0:
80,119,34579,2,0,B|70:90|70:90|82:56,1,66.9374992501736,8|8,0:0|0:3,0:0:0:0:
161,88,34927,2,0,B|225:84|207:56|301:60,1,133.874998500347,0|2,3:0|2:0,0:0:0:0:
396,20,35451,1,0,3:0:0:0:
396,20,35625,2,0,L|377:157,1,133.874998500347,0|8,3:0|0:0,0:0:0:0:
473,225,36148,2,0,P|435:276|372:266,1,133.874998500347,0|0,3:0|0:0,0:0:0:0:
286,316,36672,6,0,B|221:296|221:296|188:364,1,133.874998500347,4|0,3:0|3:0,0:0:0:0:
131,289,37195,1,0,3:0:0:0:
183,209,37369,2,0,B|209:202|209:202|220:195|220:195|256:191,1,66.9374992501736,8|8,0:0|0:3,0:0:0:0:
289,120,37718,2,0,P|304:83|228:32,1,133.874998500347,0|2,3:0|2:0,0:0:0:0:
148,10,38241,1,0,3:0:0:0:
148,10,38416,2,0,P|147:30|130:147,1,133.874998500347,0|8,3:0|0:0,0:0:0:0:
124,256,38939,2,0,B|67:266|67:266|47:284|47:284|-4:297,1,133.874998500347,0|0,3:0|0:0,0:0:0:0:
121,356,39462,5,0,3:0:0:0:
41,168,39811,2,0,L|-4:160,1,39.3749988079071,0|0,3:0|3:0,0:0:0:0:
171,42,40334,2,0,L|163:-3,1,39.3749988079071,0|2,3:0|3:2,0:0:0:0:
336,288,41032,2,0,L|329:326,1,39.3749988079071,0|0,3:0|3:0,0:0:0:0:
501,72,41730,38,0,L|417:90,1,78.7499976158143,2|0,3:2|0:0,0:0:0:0:
350,107,42253,1,0,3:0:0:0:
212,233,42602,6,0,L|173:226,1,39.3749988079071,0|0,3:0|3:0,0:0:0:0:
26,87,43125,2,0,L|64:80,1,39.3749988079071,0|2,3:0|3:2,0:0:0:0:
465,276,43823,5,0,3:0:0:0:
473,278,43997,1,0,3:0:0:0:
209,350,45044,38,0,B|149:334|125:388|71:368,1,141.749991382599,4|2,3:2|0:3,0:0:0:0:
0,337,45567,1,0,3:0:0:0:
66,259,45741,2,0,L|43:109,1,141.749991382599,8|0,0:1|3:0,0:0:0:0:
101,54,46265,1,2,0:0:0:0:
187,105,46439,6,0,P|201:112|265:123,1,70.8749956912996,0|0,0:0|3:0,0:0:0:0:
269,213,46788,2,0,P|284:208|336:170,1,70.8749956912996,2|0,0:3|3:0,0:0:0:0:
410,106,47137,1,8,0:1:0:0:
442,181,47311,2,0,P|465:184|526:192,2,70.8749956912996,0|0|2,3:1|3:0|0:3,0:0:0:0:
397,272,47834,6,0,P|351:281|329:367,1,141.749991382599,0|2,1:1|0:3,0:0:0:0:
235,310,48358,1,0,3:0:0:0:
135,355,48532,2,0,B|78:380|78:380|-5:355,1,141.749991382599,8|0,0:1|3:0,0:0:0:0:
1,277,49055,2,0,P|5:261|16:207,1,70.8749956912996,2|0,0:0|0:0,0:0:0:0:
104,133,49404,1,0,3:0:0:0:
152,79,49579,2,0,P|147:63|136:9,1,70.8749956912996,2|0,0:3|3:0,0:0:0:0:
249,83,49927,1,8,0:1:0:0:
344,47,50102,2,0,P|337:81|328:115,2,70.8749956912996,0|2|2,1:0|0:0|0:3,0:0:0:0:
447,17,50625,38,0,P|509:40|496:115,1,141.749991382599,0|2,3:0|0:3,0:0:0:0:
443,152,51148,1,0,3:0:0:0:
501,254,51323,2,0,P|482:250|360:233,1,141.749991382599,8|0,0:1|3:0,0:0:0:0:
285,180,51846,1,2,0:0:0:0:
224,273,52020,6,0,P|176:281|148:294,1,70.8749956912996,0|0,0:0|3:0,0:0:0:0:
69,335,52369,2,0,B|56:303|56:303|68:267,1,70.8749956912996,2|0,0:3|3:0,0:0:0:0:
21,179,52718,1,8,0:1:0:0:
77,123,52892,2,0,L|89:51,2,70.8749956912996,0|0|2,3:1|0:0|0:3,0:0:0:0:
182,191,53416,6,0,B|235:185|235:185|255:192|255:192|326:184,1,141.749991382599,0|2,1:1|0:3,0:0:0:0:
381,132,53939,1,0,3:0:0:0:
474,196,54113,2,0,P|466:233|457:349,1,141.749991382599,8|0,0:1|3:0,0:0:0:0:
375,361,54637,2,0,L|306:379,1,70.8749956912996,2|0,0:0|0:0,0:0:0:0:
217,311,54986,1,0,3:0:0:0:
308,237,55160,2,0,L|377:255,1,70.8749956912996,2|0,0:3|3:0,0:0:0:0:
376,254,55422,1,0,3:0:0:0:
376,254,55509,1,8,0:1:0:0:
433,184,55683,1,0,1:0:0:0:
366,112,55858,2,0,B|336:104|336:104|291:119,1,70.8749956912996,2|2,1:2|0:3,0:0:0:0:
209,17,56206,38,0,P|208:34|185:160,1,141.749991382599,4|2,0:0|0:3,0:0:0:0:
225,223,56730,1,0,3:0:0:0:
112,269,56904,2,0,P|164:314|233:313,1,141.749991382599,8|0,0:1|3:0,0:0:0:0:
296,257,57427,1,2,0:0:0:0:
396,199,57602,6,0,B|434:202|434:202|472:217,1,70.8749956912996,0|0,0:0|3:0,0:0:0:0:
455,294,57951,2,0,B|479:322|479:322|496:360,1,70.8749956912996,2|0,0:3|3:0,0:0:0:0:
337,384,58299,1,8,0:1:0:0:
283,327,58474,2,0,L|300:242,2,70.8749956912996,0|0|2,1:1|0:0|0:3,0:0:0:0:
169,371,58997,6,0,B|111:382|83:334|28:355,1,141.749991382599,0|2,1:1|0:3,0:0:0:0:
0,283,59520,1,0,3:0:0:0:
55,192,59695,2,0,P|117:199|143:274,1,141.749991382599,8|0,0:1|3:0,0:0:0:0:
220,297,60218,2,0,L|304:278,1,70.8749956912996,2|0,0:0|0:0,0:0:0:0:
396,325,60567,1,0,3:0:0:0:
462,365,60741,2,0,B|475:330|475:330|466:286,1,70.8749956912996,2|0,0:3|3:0,0:0:0:0:
407,199,61090,1,8,0:1:0:0:
482,128,61265,2,0,B|495:163|495:163|486:207,2,70.8749956912996,0|2|2,1:0|0:0|0:3,0:0:0:0:
401,52,61788,38,0,L|252:33,1,141.749991382599,0|2,3:0|0:3,0:0:0:0:
219,96,62311,1,0,3:0:0:0:
153,175,62486,2,0,L|4:194,1,141.749991382599,8|0,0:1|3:0,0:0:0:0:
0,270,63009,2,0,P|4:289|10:350,1,70.8749956912996,2|0,0:0|0:0,0:0:0:0:
121,379,63358,1,0,3:0:0:0:
170,320,63532,2,0,P|173:284|179:249,1,70.8749956912996,2|0,0:3|3:0,0:0:0:0:
264,302,63881,2,0,L|341:315,1,70.8749956912996,8|0,0:1|3:1,0:0:0:0:
406,366,64230,1,0,0:0:0:0:
482,303,64404,2,0,L|471:254,2,35.4374978456498,2|0|0,0:3|0:0|1:1,0:0:0:0:
330,126,64927,6,0,L|344:56,1,70.8749956912996,2|0,0:3|3:0,0:0:0:0:
255,14,65276,2,0,B|181:5|200:49|111:35,1,141.749991382599,8|0,0:1|3:0,0:0:0:0:
136,112,65799,1,2,0:0:0:0:
39,182,65974,2,0,P|70:186|192:204,1,141.749991382599,0|2,0:0|0:3,0:0:0:0:
237,286,66497,1,0,3:0:0:0:
313,231,66672,2,0,B|327:263|327:263|325:311,1,70.8749956912996,8|0,0:1|1:0,0:0:0:0:
201,372,67020,2,0,L|166:365,3,35.4374978456498,2|2|2|2,0:0|0:0|0:3|0:0,0:0:0:0:
154,345,67369,6,0,P|109:331|105:245,1,141.749991382599,4|2,1:2|0:3,0:0:0:0:
27,220,67892,1,0,3:0:0:0:
60,120,68067,2,0,B|120:122|140:85|197:91,1,141.749991382599,8|0,0:1|3:0,0:0:0:0:
279,126,68590,1,2,0:0:0:0:
279,126,68765,2,0,L|265:56,1,70.8749956912996,0|0,0:0|3:0,0:0:0:0:
371,12,69113,38,0,P|395:18|444:22,1,70.8749956912996,2|0,0:3|3:0,0:0:0:0:
495,106,69462,1,8,0:1:0:0:
420,160,69637,2,0,P|415:181|398:305,1,141.749991382599,2|2,0:1|0:3,0:0:0:0:
314,383,70160,6,0,P|306:312|292:243,1,141.749991382599,2|2,1:1|0:3,0:0:0:0:
235,179,70683,1,2,3:1:0:0:
158,241,70858,2,0,B|131:245|131:245|121:249|121:249|82:258,1,70.8749956912996,8|0,0:1|0:0,0:0:0:0:
69,164,71206,2,0,B|42:159|42:159|32:156|32:156|0:149,1,70.8749956912996,2|2,3:1|0:0,0:0:0:0:
120,94,71555,6,0,L|104:24,1,70.8749956912996,2|0,0:1|3:0,0:0:0:0:
192,45,71904,1,2,0:3:0:0:
285,15,72079,1,0,3:0:0:0:
285,15,72253,2,0,B|338:27|338:27|359:46|359:46|429:60,1,141.749991382599,10|2,0:1|0:1,0:0:0:0:
512,134,72776,37,2,0:3:0:0:
512,134,72863,1,0,0:0:0:0:
512,134,72951,2,0,L|371:160,1,141.749991382599,4|2,3:2|0:3,0:0:0:0:
391,235,73474,1,0,3:0:0:0:
341,325,73648,2,0,P|275:309|259:244,1,141.749991382599,8|0,0:1|3:0,0:0:0:0:
197,194,74172,1,2,0:1:0:0:
197,194,74346,2,0,L|122:213,1,70.8749956912996,0|0,0:0|3:0,0:0:0:0:
46,255,74695,6,0,B|37:221|37:221|39:182,1,70.8749956912996,2|0,1:1|3:0,0:0:0:0:
107,114,75044,1,8,0:1:0:0:
70,22,75218,2,0,P|140:35|186:95,1,141.749991382599,2|2,0:1|0:3,0:0:0:0:
268,161,75741,6,0,P|347:134|384:88,1,141.749991382599,2|2,1:1|0:3,0:0:0:0:
459,137,76265,1,2,3:1:0:0:
440,26,76439,2,0,B|362:26|376:50|291:49,1,141.749991382599,8|0,0:1|3:0,0:0:0:0:
231,10,76962,1,2,0:1:0:0:
173,105,77137,38,0,L|28:133,1,141.749991382599,0|2,0:0|1:1,0:0:0:0:
90,203,77660,1,0,3:0:0:0:
14,259,77834,2,0,B|4:294|4:294|10:338,1,70.8749956912996,10|0,0:1|1:0,0:0:0:0:
130,378,78183,2,0,L|141:337,3,35.4374978456498,2|2|2|2,3:2|0:0|0:3|0:0,0:0:0:0:
121,326,78532,6,0,B|162:318|182:302|182:302|201:339|242:363,1,141.749991382599,4|2,0:0|0:3,0:0:0:0:
308,335,79055,1,0,3:0:0:0:
251,235,79230,2,0,P|256:209|278:79,1,141.749991382599,10|0,0:1|3:0,0:0:0:0:
352,60,79753,1,2,0:0:0:0:
352,60,79927,2,0,P|355:89|362:135,1,70.8749956912996,0|0,0:0|3:0,0:0:0:0:
427,203,80276,6,0,L|508:222,1,70.8749956912996,2|0,1:1|3:0,0:0:0:0:
422,302,80625,1,8,0:1:0:0:
337,254,80799,2,0,B|260:257|289:283|191:291,1,141.749991382599,2|2,0:1|0:3,0:0:0:0:
98,353,81323,38,0,P|87:311|142:224,1,141.749991382599,2|2,1:1|0:3,0:0:0:0:
180,158,81846,1,2,3:1:0:0:
109,93,82020,2,0,P|92:95|35:105,1,70.8749956912996,8|0,0:1|0:0,0:0:0:0:
0,185,82369,2,0,P|6:219|11:254,1,70.8749956912996,2|2,3:1|0:0,0:0:0:0:
85,336,82718,6,0,B|100:305|100:305|93:256,1,70.8749956912996,2|0,0:1|3:0,0:0:0:0:
176,225,83067,1,2,0:3:0:0:
255,302,83241,2,0,P|271:306|339:321,1,70.8749956912996,2|8,3:1|0:1,0:0:0:0:
411,280,83590,1,0,1:0:0:0:
391,170,83765,2,0,P|398:135|406:100,1,70.8749956912996,2|2,0:1|0:3,0:0:0:0:
455,12,84113,6,0,B|392:-1|383:44|314:26,1,141.749991382599,0|2,3:0|0:3,0:0:0:0:
252,74,84637,1,0,3:0:0:0:
168,15,84811,2,0,P|120:28|106:115,1,141.749991382599,10|0,0:1|3:0,0:0:0:0:
74,187,85334,1,2,0:1:0:0:
74,187,85509,2,0,L|3:209,1,70.8749956912996,0|0,0:0|3:0,0:0:0:0:
137,246,85858,38,0,L|158:316,1,70.8749956912996,2|0,1:1|3:0,0:0:0:0:
246,360,86206,1,8,0:1:0:0:
324,305,86381,2,0,B|354:303|376:314|376:314|393:363|455:359,1,141.749991382599,2|2,0:1|0:3,0:0:0:0:
504,264,86904,6,0,B|498:224|498:224|501:213|501:213|491:114,1,141.749991382599,6|2,1:2|0:3,0:0:0:0:
406,60,87427,1,0,3:0:0:0:
333,138,87602,2,0,P|314:148|256:150,1,70.8749956912996,8|0,0:1|3:0,0:0:0:0:
212,229,87951,2,0,P|179:215|154:191,1,70.8749956912996,0|2,3:0|0:0,0:0:0:0:
75,125,88299,6,0,P|73:153|51:280,1,141.749991382599,0|2,0:0|0:3,0:0:0:0:
29,351,88823,1,0,3:0:0:0:
29,351,88910,1,8,0:3:0:0:
29,351,88997,2,0,B|-1:372|-1:372|88:358,1,118.125000929833,8|2,0:1|0:0,0:0:0:0:
283,302,89695,38,0,B|363:305|344:335|420:332,1,137.024997001476,4|2,0:0|0:0,0:0:0:0:
415,332,90218,1,0,0:0:0:0:
480,275,90392,2,0,P|497:238|425:181,1,137.024997001476,8|2,0:0|0:0,0:0:0:0:
347,16,91090,6,0,P|346:41|331:154,1,137.024997001476,0|2,3:0|0:0,0:0:0:0:
194,270,91788,2,0,B|143:280|143:280|124:292|124:292|54:307,1,137.024997001476,8|2,0:0|0:0,0:0:0:0:
3,237,92311,2,0,L|15:200,2,34.2562492503691,0|0|0,0:0|1:0|3:0,0:0:0:0:
166,364,92834,6,0,L|245:379,1,68.5124985007382,2|0,0:0|0:0,0:0:0:0:
290,313,93183,2,0,P|340:292|347:213,1,137.024997001476,8|2,0:0|0:0,0:0:0:0:
419,30,93881,2,0,B|486:48|486:48|471:117,1,137.024997001476,0|2,3:0|0:0,0:0:0:0:
268,227,94579,2,0,B|193:218|219:193|130:190,1,137.024997001476,8|2,0:0|0:0,0:0:0:0:
61,226,95102,1,0,0:0:0:0:
61,226,95189,1,8,0:3:0:0:
61,226,95276,1,0,3:0:0:0:
235,77,95625,53,2,0:0:0:0:
149,44,95799,1,0,3:0:0:0:
235,77,95974,2,0,B|287:68|287:68|294:68|294:68|381:55,1,137.024997001476,8|2,0:0|0:0,0:0:0:0:
484,204,96672,6,0,B|518:258|518:258|493:335,1,137.024997001476,0|2,3:0|0:0,0:0:0:0:
247,379,97369,2,0,B|213:325|213:325|238:248,1,137.024997001476,8|2,0:0|0:0,0:0:0:0:
183,197,97892,1,0,0:0:0:0:
105,254,98067,38,0,P|54:245|43:169,1,137.024997001476,0|2,3:0|0:0,0:0:0:0:
236,256,98765,2,0,B|288:265|311:212|365:220,1,137.024997001476,8|2,0:0|0:0,0:0:0:0:
493,380,99462,2,0,L|506:301,1,68.5124985007382,0|0,3:0|0:0,0:0:0:0:
472,239,99811,1,2,0:0:0:0:
333,89,100160,2,0,L|321:21,1,68.5124985007382,8|0,0:0|0:0,0:0:0:0:
250,65,100509,1,2,0:0:0:0:
402,21,100683,6,0,L|446:35,2,34.2562492503691,0|0|4,0:0|1:3|1:2,0:0:0:0:
136,149,101206,6,0,L|41:163,1,70.8749956912996,0|0,3:0|3:0,0:0:0:0:
1,243,101555,1,8,0:0:0:0:
59,301,101730,2,0,L|47:339,2,35.4374978456498,8|0|0,0:3|0:0|3:0,0:0:0:0:
157,261,102079,2,0,P|209:266|244:356,1,141.749991382599,2|0,0:0|3:0,0:0:0:0:
327,378,102602,2,0,B|370:370|370:370|377:366|377:366|480:352,1,141.749991382599,0|8,3:0|0:0,0:0:0:0:
383,284,103125,1,0,0:0:0:0:
434,198,103299,2,0,P|468:206|503:208,1,70.8749956912996,0|0,0:0|1:0,0:0:0:0:
503,208,103561,1,8,3:0:0:0:
503,208,103648,38,0,P|501:191|488:111,1,70.8749956912996,0|0,3:2|0:0,0:0:0:0:
438,84,103997,1,0,3:0:0:0:
348,128,104172,1,0,3:0:0:0:
274,62,104346,2,0,P|262:131|253:202,1,141.749991382599,8|0,0:0|3:0,0:0:0:0:
186,239,104869,1,2,0:0:0:0:
99,204,105044,6,0,B|70:212|70:212|52:212|52:212|30:221,1,70.8749956912996,0|0,0:0|3:0,0:0:0:0:
138,127,105392,2,0,P|144:106|153:50,1,70.8749956912996,0|2,3:0|0:0,0:0:0:0:
243,4,105741,2,0,P|248:39|257:73,1,70.8749956912996,8|0,0:0|0:0,0:0:0:0:
365,142,106090,2,0,L|415:153,4,35.4374978456498,0|2|0|0|0,0:0|0:0|3:0|1:0|3:0,0:0:0:0:
177,327,106788,6,0,L|188:382,1,39.3749988079071,0|0,3:0|3:0,0:0:0:0:
69,166,107311,2,0,L|76:127,1,39.3749988079071,0|2,3:0|3:2,0:0:0:0:
98,55,107660,1,0,0:3:0:0:
98,55,107834,1,0,0:0:0:0:
207,119,108009,37,0,3:0:0:0:
273,82,108183,2,0,L|257:2,1,78.7499976158143,0|0,3:0|0:0,0:0:0:0:
357,102,108706,2,0,L|444:124,1,78.7499976158143,2|0,3:2|0:0,0:0:0:0:
510,137,109230,1,0,3:0:0:0:
273,303,109579,6,0,L|258:352,1,39.3749988079071,0|0,3:0|3:0,0:0:0:0:
150,177,110102,1,0,3:0:0:0:
150,177,110276,2,0,L|112:188,1,39.3749988079071,2|0,3:2|0:3,0:0:0:0:
266,51,110799,1,0,3:0:0:0:
266,51,110974,2,0,L|254:13,1,39.3749988079071,0|0,3:0|0:0,0:0:0:0:
407,250,112020,6,0,P|458:244|469:152,1,149.624991474629,4|2,0:0|0:0,0:0:0:0:
424,101,112544,1,0,3:0:0:0:
342,174,112718,2,0,B|269:166|271:215|177:198,1,149.624991474629,8|2,0:0|0:0,0:0:0:0:
118,163,113241,1,0,3:0:0:0:
34,213,113416,38,0,B|18:270|18:270|19:301|19:301|2:357,1,149.624991474629,8|2,0:3|0:0,0:0:0:0:
102,300,113939,1,0,3:0:0:0:
165,369,114113,2,0,P|178:371|263:388,1,74.8124957373144,8|0,0:0|0:0,0:0:0:0:
312,334,114462,2,0,P|348:326|385:320,1,74.8124957373144,2|0,0:0|3:0,0:0:0:0:
385,320,114724,1,8,0:3:0:0:
385,320,114811,6,0,B|405:246|405:246|373:163,1,149.624991474629,4|2,0:3|0:0,0:0:0:0:
406,105,115334,1,0,3:0:0:0:
355,17,115509,2,0,P|296:22|277:116,1,149.624991474629,8|2,0:0|0:0,0:0:0:0:
208,158,116032,2,0,L|117:179,1,74.8124957373144,0|8,3:0|0:3,0:0:0:0:
30,214,116381,1,0,0:0:0:0:
30,214,116555,2,0,B|23:177|23:177|49:124,1,74.8124957373144,2|0,0:0|3:0,0:0:0:0:
134,83,116904,2,0,L|113:-8,1,74.8124957373144,8|0,0:0|0:0,0:0:0:0:
212,35,117253,1,2,0:0:0:0:
212,35,117427,1,0,3:0:0:0:
331,8,117602,6,0,L|297:153,1,149.624991474629,4|2,0:3|0:0,0:0:0:0:
331,226,118125,1,0,3:0:0:0:
264,311,118299,2,0,B|187:300|195:350|108:331,1,149.624991474629,8|2,0:0|0:0,0:0:0:0:
42,286,118823,1,0,3:0:0:0:
109,205,118997,38,0,B|115:182|115:182|89:48,1,149.624991474629,8|2,0:3|0:0,0:0:0:0:
160,4,119520,1,0,3:0:0:0:
235,74,119695,2,0,P|231:96|216:164,1,74.8124957373144,8|0,0:0|0:0,0:0:0:0:
291,232,120044,2,0,P|327:223|364:217,1,74.8124957373144,2|0,0:0|3:0,0:0:0:0:
450,151,120392,6,0,B|507:198|507:198|458:278,1,149.624991474629,4|2,0:3|0:0,0:0:0:0:
493,338,120916,1,0,3:0:0:0:
376,298,121090,2,0,B|318:308|318:308|315:311|315:311|210:336,1,149.624991474629,8|2,0:0|0:0,0:0:0:0:
149,298,121613,1,0,3:0:0:0:
219,218,121788,6,0,L|244:61,1,149.624991474629,8|2,0:3|0:0,0:0:0:0:
179,13,122311,1,0,3:0:0:0:
82,58,122486,2,0,B|70:96|70:96|76:136,1,74.8124957373144,8|8,0:0|0:3,0:0:0:0:
11,207,122834,1,2,0:0:0:0:
96,246,123009,1,0,3:0:0:0:
18,323,123183,38,0,B|89:321|87:283|191:294,1,149.624991474629,4|2,3:2|0:0,0:0:0:0:
235,324,123706,1,0,3:0:0:0:
326,265,123881,2,0,P|328:213|316:91,1,149.624991474629,8|2,0:0|0:0,0:0:0:0:
363,40,124404,1,0,3:0:0:0:
436,117,124579,6,0,B|512:139|512:139|491:227,1,149.624991474629,8|2,0:3|0:0,0:0:0:0:
438,271,125102,1,0,3:0:0:0:
499,353,125276,2,0,L|425:366,1,74.8124957373144,8|0,0:0|0:0,0:0:0:0:
348,319,125625,2,0,L|274:305,1,74.8124957373144,2|0,0:0|3:0,0:0:0:0:
190,245,125974,6,0,P|119:272|127:353,1,149.624991474629,4|2,0:3|0:0,0:0:0:0:
42,370,126497,1,0,3:0:0:0:
0,278,126672,2,0,B|10:220|10:220|6:185|6:185|20:114,1,149.624991474629,8|2,0:0|0:0,0:0:0:0:
79,69,127195,1,0,3:0:0:0:
164,126,127369,38,0,B|230:111|230:111|266:149|316:145,1,149.624991474629,8|2,0:3|0:0,0:0:0:0:
370,202,127892,1,0,3:0:0:0:
462,148,128067,2,0,P|463:165|484:233,1,74.8124957373144,8|0,0:0|0:0,0:0:0:0:
396,290,128416,1,2,0:0:0:0:
462,344,128590,2,0,L|515:330,2,37.4062478686572,0|0|4,3:0|1:0|0:3,0:0:0:0:
253,222,129113,6,0,P|241:181|243:126,1,74.8124957373144,2|0,0:0|3:0,0:0:0:0:
267,63,129462,2,0,P|248:96|124:120,1,149.624991474629,8|2,0:0|0:0,0:0:0:0:
78,91,129986,1,0,3:0:0:0:
9,159,130160,2,0,P|8:172|-10:267,1,74.8124957373144,8|0,0:3|0:0,0:0:0:0:
66,309,130509,2,0,P|102:302|140:299,1,74.8124957373144,2|0,0:0|3:0,0:0:0:0:
239,361,130858,2,0,B|287:354|287:354|300:347|300:347|390:330,1,149.624991474629,8|2,0:0|0:0,0:0:0:0:
448,258,131381,1,0,3:0:0:0:
511,164,131555,6,0,B|435:138|435:138|375:175,1,149.624991474629,4|2,0:3|0:0,0:0:0:0:
312,223,132079,1,0,3:0:0:0:
223,289,132253,2,0,P|163:282|142:193,1,149.624991474629,8|2,0:0|0:0,0:0:0:0:
189,139,132776,1,0,3:0:0:0:
136,62,132951,2,0,L|52:45,1,74.8124957373144,8|0,0:3|0:0,0:0:0:0:
2,108,133299,1,2,0:0:0:0:
52,46,133474,2,0,L|40:-19,2,37.4062478686572,0|0|8,3:0|3:0|0:0,0:0:0:0:
259,184,133997,1,2,0:0:0:0:
337,156,134172,1,0,3:0:0:0:
413,206,134346,38,0,P|406:239|395:372,2,149.624991474629,4|2|8,3:2|0:0|0:0,0:0:0:0:
491,0,135392,2,0,P|498:36|501:74,1,74.8124957373144,2|0,0:0|3:0,0:0:0:0:
408,50,135741,2,0,B|335:53|348:7|255:18,1,149.624991474629,8|2,0:3|0:1,0:0:0:0:
201,65,136265,1,0,3:0:0:0:
114,17,136439,1,8,0:0:0:0:
114,17,136613,2,0,P|113:41|90:190,1,149.624991474629,2|0,0:1|3:0,0:0:0:0:
23,245,137137,6,0,B|-22:257|-22:257|87:285,1,149.624991474629,2|2,3:1|0:0,0:0:0:0:
151,249,137660,1,2,3:1:0:0:
235,181,137834,2,0,B|272:172|272:172|283:165|283:165|337:155,1,74.8124957373144,8|0,0:0|0:0,0:0:0:0:
361,85,138183,2,0,L|347:11,1,74.8124957373144,2|0,0:1|3:0,0:0:0:0:
347,11,138445,1,0,0:0:0:0:
347,11,138532,6,0,P|407:20|435:106,1,149.624991474629,2|2,3:1|0:0,0:0:0:0:
397,184,139055,1,0,3:0:0:0:
459,234,139230,2,0,B|461:272|461:272|447:331,1,74.8124957373144,10|0,0:1|0:0,0:0:0:0:
368,369,139579,1,2,3:1:0:0:
290,326,139753,2,0,L|243:338,2,37.4062478686572,0|0|4,3:0|1:0|3:2,0:0:0:0:
409,139,140276,38,0,L|424:49,1,74.8124957373144,2|0,0:0|3:0,0:0:0:0:
351,19,140625,2,0,B|275:8|267:72|173:36,1,149.624991474629,8|2,0:0|0:0,0:0:0:0:
148,95,141148,1,0,3:0:0:0:
56,165,141323,2,0,L|211:194,1,149.624991474629,8|2,0:3|0:1,0:0:0:0:
254,261,141846,1,0,3:0:0:0:
343,208,142020,1,8,0:0:0:0:
343,208,142195,2,0,B|355:269|355:269|380:296|380:296|390:345,1,149.624991474629,2|0,0:1|3:0,0:0:0:0:
442,227,142718,6,0,B|452:178|452:178|477:151|477:151|489:90,1,149.624991474629,2|2,3:1|0:0,0:0:0:0:
415,19,143241,1,2,3:1:0:0:
344,62,143416,2,0,L|180:79,1,149.624991474629,10|2,0:1|0:0,0:0:0:0:
124,126,143939,1,2,3:1:0:0:
44,59,144113,2,0,P|32:81|20:208,1,149.624991474629,2|2,3:1|0:0,0:0:0:0:
87,259,144637,1,2,3:1:0:0:
176,202,144811,2,0,B|195:194|195:194|250:185,1,74.8124957373144,8|2,0:0|0:1,0:0:0:0:
330,242,145160,2,0,L|317:325,1,74.8124957373144,0|2,3:1|3:1,0:0:0:0:
429,373,145509,6,0,B|495:340|495:340|457:250,1,149.624991474629,4|2,3:2|0:0,0:0:0:0:
486,194,146032,1,0,3:0:0:0:
413,113,146206,2,0,B|333:105|352:69|257:73,1,149.624991474629,8|2,0:0|0:0,0:0:0:0:
193,31,146730,1,0,3:0:0:0:
120,85,146904,1,8,0:3:0:0:
2,290,147253,38,0,P|5:274|15:199,1,74.8124957373144,2|0,0:1|3:0,0:0:0:0:
112,179,147602,1,8,0:0:0:0:
190,242,147776,2,0,P|199:168|171:99,1,149.624991474629,2|0,0:1|3:0,0:0:0:0:
270,37,148299,6,0,B|327:25|327:25|332:18|332:18|435:1,1,149.624991474629,2|2,3:1|0:0,0:0:0:0:
477,58,148823,1,2,3:1:0:0:
401,137,148997,2,0,L|378:270,1,112.218743605972,8|0,0:0|0:0,0:0:0:0:
380,267,149346,2,0,P|417:265|451:251,1,74.8124957373144,2|0,0:1|3:0,0:0:0:0:
434,382,149695,6,0,P|366:350|292:344,1,149.624991474629,2|2,3:1|0:0,0:0:0:0:
237,275,150218,1,2,3:1:0:0:
152,310,150392,2,0,B|141:349|141:349|162:397,1,74.8124957373144,8|8,0:1|0:3,0:0:0:0:
44,292,150741,2,0,B|62:205|28:226|44:143,1,149.624991474629,2|4,3:1|3:2,0:0:0:0:
225,25,151439,38,0,P|244:24|299:16,1,74.8124957373144,2|0,0:0|3:0,0:0:0:0:
211,109,151788,2,0,P|264:121|321:202,1,149.624991474629,8|2,0:0|0:0,0:0:0:0:
393,251,152311,1,0,3:0:0:0:
468,280,152486,2,0,P|429:342|359:364,1,149.624991474629,8|2,0:3|0:1,0:0:0:0:
282,323,153009,1,0,3:0:0:0:
182,368,153183,1,8,0:0:0:0:
182,368,153358,2,0,B|139:307|139:307|180:223,1,149.624991474629,2|0,0:1|3:0,0:0:0:0:
139,144,153881,6,0,B|54:138|85:102|-6:97,1,149.624991474629,6|2,3:2|3:2,0:0:0:0:
18,186,154404,1,0,0:3:0:0:
42,287,154579,2,0,B|36:314|36:314|36:332|36:332|25:373,1,74.8124957373144,8|0,0:0|0:0,0:0:0:0:
28,360,154840,1,8,0:3:0:0:
28,360,154927,2,0,L|124:343,1,74.8124957373144,2|8,0:3|0:3,0:0:0:0:
192,285,155276,6,0,P|255:289|276:375,1,149.624991474629,0|0,3:0|1:0,0:0:0:0:
358,379,155799,1,8,0:3:0:0:
421,293,155974,2,0,P|489:273|498:203,1,149.624991474629,8|0,0:0|0:3,0:0:0:0:
453,122,156497,2,0,L|468:61,2,37.4062478686572,0|0|4,3:0|1:0|0:0,0:0:0:0:
254,233,157020,38,0,L|164:254,1,74.8124957373144,0|0,3:0|1:0,0:0:0:0:
84,318,157369,2,0,B|75:228|106:258|102:170,1,149.624991474629,8|0,0:0|3:0,0:0:0:0:
38,82,157892,2,0,P|106:123|199:126,1,149.624991474629,2|0,0:0|3:0,0:0:0:0:
276,164,158416,2,0,P|311:158|347:128,1,74.8124957373144,0|2,3:0|0:0,0:0:0:0:
398,48,158765,1,8,0:0:0:0:
486,86,158939,2,0,B|506:65|506:65|491:4,2,74.8124957373144,0|0|2,1:0|3:0|0:0,0:0:0:0:
430,174,159462,6,0,L|402:345,1,149.624991474629,0|0,3:0|3:0,0:0:0:0:
336,362,159986,1,0,1:0:0:0:
248,289,160160,2,0,B|188:308|188:308|165:332|165:332|99:353,1,149.624991474629,8|0,0:0|3:0,0:0:0:0:
31,279,160683,2,0,P|13:240|16:200,1,74.8124957373144,2|0,0:0|0:0,0:0:0:0:
84,132,161032,5,0,3:0:0:0:
84,132,161206,2,0,L|163:153,1,74.8124957373144,0|2,3:0|0:0,0:0:0:0:
232,221,161555,1,8,0:0:0:0:
215,303,161730,2,0,B|286:309|298:264|360:273,1,149.624991474629,0|2,1:0|0:0,0:0:0:0:
435,340,162253,38,0,P|441:316|451:256,1,74.8124957373144,0|0,1:0|0:3,0:0:0:0:
490,175,162602,2,0,P|477:153|441:104,1,74.8124957373144,0|0,3:0|1:0,0:0:0:0:
384,21,162951,2,0,P|320:36|315:123,1,149.624991474629,8|0,0:0|3:0,0:0:0:0:
253,188,163474,1,2,0:0:0:0:
187,134,163648,6,0,B|162:129|162:129|147:121|147:121|99:112,2,74.8124957373144,0|0|0,0:0|3:0|3:0,0:0:0:0:
255,198,164172,1,2,0:0:0:0:
186,278,164346,1,8,0:0:0:0:
255,198,164520,2,0,P|319:206|391:273,1,149.624991474629,0|2,1:0|0:0,0:0:0:0:
499,331,165044,6,0,B|444:337|444:337|429:342|429:342|338:356,1,149.624991474629,4|0,3:0|3:0,0:0:0:0:
273,309,165567,1,0,1:0:0:0:
176,358,165741,2,0,P|130:340|153:245,1,149.624991474629,8|0,0:0|1:0,0:0:0:0:
88,178,166265,2,0,B|36:166|63:157|-6:149,1,74.8124957373144,2|0,0:0|0:0,0:0:0:0:
120,81,166613,1,0,3:0:0:0:
120,81,166788,2,0,P|115:61|105:0,1,74.8124957373144,0|2,3:0|0:0,0:0:0:0:
224,118,167137,1,8,0:0:0:0:
140,217,167311,2,0,B|168:222|209:196|209:196|221:233|253:256,1,149.624991474629,0|2,1:0|0:0,0:0:0:0:
352,334,167834,38,0,B|424:322|424:322|405:234,1,133.874998500347,4|2,0:2|0:0,0:0:0:0:
236,316,168532,2,0,B|188:330|188:330|164:359|164:359|96:380,1,133.874998500347,8|2,0:0|0:0,0:0:0:0:
120,373,169055,1,2,0:0:0:0:
45,310,169230,2,0,P|32:277|104:219,1,133.874998500347,8|2,0:0|0:0,0:0:0:0:
94,217,169753,1,2,0:0:0:0:
152,145,169927,2,0,L|136:73,1,66.9374992501736,8|0,0:0|0:0,0:0:0:0:
201,25,170276,2,0,B|228:15|228:15|265:20,1,66.9374992501736,0|2,1:0|0:0,0:0:0:0:
356,96,170625,6,0,L|326:226,1,133.874998500347,0|2,1:0|0:0,0:0:0:0:
326,226,171148,1,2,0:0:0:0:
273,336,171323,2,0,B|348:333|322:299|422:303,1,133.874998500347,8|2,0:0|0:0,0:0:0:0:
400,302,171846,1,2,0:0:0:0:
469,235,172020,2,0,B|483:220|483:220|471:189|471:189|480:165,2,66.9374992501736,8|0|2,0:0|0:0|0:0,0:0:0:0:
386,191,172544,1,2,0:0:0:0:
427,104,172718,2,0,L|409:31,1,66.9374992501736,8|0,0:0|0:0,0:0:0:0:
335,93,173067,2,0,L|270:109,1,66.9374992501736,0|2,1:0|0:0,0:0:0:0:
197,165,173416,6,0,P|139:156|84:105,1,133.874998500347,4|2,0:2|0:0,0:0:0:0:
85,106,173939,1,2,0:0:0:0:
1,165,174113,2,0,B|8:217|8:217|24:243|24:243|36:311,1,133.874998500347,8|2,0:0|0:0,0:0:0:0:
32,293,174637,1,2,0:0:0:0:
102,357,174811,2,0,P|116:351|172:336,1,66.9374992501736,8|0,0:0|0:0,0:0:0:0:
244,294,175160,2,0,P|276:301|307:313,1,66.9374992501736,2|2,0:0|0:0,0:0:0:0:
384,363,175509,1,8,0:0:0:0:
452,320,175683,2,0,L|511:337,2,33.4687496250868,0|2|0,0:0|0:0|1:0,0:0:0:0:
361,205,176119,37,0,1:3:0:0:
361,205,176207,1,2,0:0:0:0:
0,113,178648,6,0,B|40:106|40:106|52:98|52:98|86:93,1,88.5937506973744
83,80,178997,22,0,P|186:93|244:127,1,152.77499898798,4|2,1:0|0:0,0:0:0:0:
303,201,179520,1,0,3:0:0:0:
390,159,179695,2,0,B|405:194|405:194|388:228,1,76.38749949399,8|0,0:0|0:0,0:0:0:0:
437,320,180044,5,2,3:3:0:0:
481,245,180218,2,0,B|420:234|409:295|312:283,1,152.77499898798,2|0,0:1|3:0,0:0:0:0:
284,189,180741,2,0,P|288:171|310:112,1,76.38749949399,2|0,0:1|0:0,0:0:0:0:
240,23,181090,53,8,0:0:0:0:
300,105,181265,2,0,L|225:122,2,76.38749949399,0|2|2,3:0|3:0|0:0,0:0:0:0:
409,21,181788,6,0,P|462:32|485:140,1,152.77499898798,0|2,3:0|0:0,0:0:0:0:
443,172,182311,1,0,3:0:0:0:
512,300,182486,2,0,B|442:266|442:266|380:309,1,152.77499898798,8|2,0:0|3:3,0:0:0:0:
279,373,183009,54,0,P|289:336|295:298,1,76.38749949399,2|0,0:1|0:0,0:0:0:0:
188,246,183358,1,0,3:0:0:0:
257,200,183532,2,0,P|258:162|232:135,1,76.38749949399,2|0,0:1|0:0,0:0:0:0:
148,58,183881,2,0,P|96:56|30:134,1,152.77499898798,10|2,0:1|0:3,0:0:0:0:
4,218,184404,1,2,3:2:0:0:
117,174,184579,6,0,B|171:192|171:192|195:223|195:223|249:239,1,152.77499898798,0|2,1:0|0:0,0:0:0:0:
302,316,185102,1,0,3:0:0:0:
227,361,185276,2,0,P|189:365|153:378,1,76.38749949399,8|0,0:0|0:0,0:0:0:0:
47,347,185625,1,2,3:3:0:0:
131,290,185799,2,0,P|128:252|115:217,1,76.38749949399,2|0,0:1|0:0,0:0:0:0:
6,182,186148,53,0,3:0:0:0:
68,105,186323,2,0,B|102:94|102:94|109:88|109:88|170:71,1,76.38749949399,2|0,0:1|0:0,0:0:0:0:
244,35,186672,5,8,0:0:0:0:
155,97,186846,2,0,L|134:3,2,76.38749949399,0|2|2,3:0|3:0|0:0,0:0:0:0:
299,190,187369,54,0,P|357:175|381:92,1,152.77499898798,0|2,3:0|0:0,0:0:0:0:
452,44,187892,1,0,3:0:0:0:
506,145,188067,2,0,B|494:192|494:192|504:235|504:235|493:300,1,152.77499898798,8|2,0:0|3:3,0:0:0:0:
399,233,188590,2,0,L|324:217,1,76.38749949399,2|0,0:1|0:0,0:0:0:0:
233,298,188939,5,0,3:0:0:0:
177,221,189113,2,0,P|148:245|140:281,1,76.38749949399,2|0,0:1|0:0,0:0:0:0:
140,281,189375,1,8,3:0:0:0:
140,281,189462,2,0,L|38:307,1,76.38749949399,10|0,0:1|3:0,0:0:0:0:
0,218,189811,1,2,0:3:0:0:
72,154,189986,1,2,3:2:0:0:
0,52,190160,54,0,B|71:62|71:62|80:66|80:66|167:82,1,152.77499898798,4|2,0:2|0:0,0:0:0:0:
208,146,190683,1,0,3:0:0:0:
289,236,190858,2,0,B|376:227|348:194|456:195,1,152.77499898798,8|2,0:0|3:3,0:0:0:0:
498,261,191381,1,2,0:1:0:0:
441,177,191555,2,0,P|444:153|459:100,1,76.38749949399,0|0,0:0|3:0,0:0:0:0:
389,28,191904,2,0,P|351:33|314:44,1,76.38749949399,0|0,0:1|0:0,0:0:0:0:
231,115,192253,1,8,0:0:0:0:
316,177,192427,5,2,3:1:0:0:
217,99,192602,2,0,B|208:127|208:127|209:148|209:148|201:181,1,76.38749949399,2|2,3:0|0:1,0:0:0:0:
262,288,192951,54,0,P|187:287|136:232,1,152.77499898798,0|2,3:0|0:0,0:0:0:0:
68,185,193474,1,0,3:0:0:0:
32,94,193648,2,0,P|82:39|157:38,1,152.77499898798,8|2,0:0|3:3,0:0:0:0:
241,1,194172,6,0,P|267:27|276:64,1,76.38749949399,2|0,0:1|0:0,0:0:0:0:
325,151,194520,1,0,3:0:0:0:
398,130,194695,2,0,P|435:128|468:148,1,76.38749949399,2|0,0:1|0:0,0:0:0:0:
357,245,195044,53,10,0:1:0:0:
443,318,195218,1,0,3:0:0:0:
339,374,195392,2,0,L|290:358,3,38.193749746995,2|2|2|2,0:3|0:0|3:2|0:0,0:0:0:0:
298,338,195741,6,0,B|261:337|261:337|237:351|237:351|206:385|142:384,1,152.77499898798,0|2,1:0|0:0,0:0:0:0:
81,340,196265,1,0,3:0:0:0:
163,268,196439,2,0,P|161:196|82:149,1,152.77499898798,8|2,0:0|3:3,0:0:0:0:
168,65,196962,2,0,B|197:58|197:58|215:52|215:52|245:47,1,76.38749949399,2|0,0:1|0:0,0:0:0:0:
347,107,197311,1,0,3:0:0:0:
436,76,197486,2,0,P|435:114|424:150,1,76.38749949399,2|0,0:1|0:0,0:0:0:0:
341,236,197834,2,0,P|341:274|352:310,1,76.38749949399,8|2,0:0|3:1,0:0:0:0:
289,369,198183,1,2,3:0:0:0:
190,316,198358,1,2,0:0:0:0:
102,341,198532,54,0,P|105:320|126:169,1,152.77499898798,2|2,3:1|0:0,0:0:0:0:
68,131,199055,1,0,3:0:0:0:
114,25,199230,2,0,P|174:34|196:129,1,152.77499898798,8|2,0:0|3:3,0:0:0:0:
285,143,199753,2,0,L|334:128,2,38.193749746995,2|8|0,0:1|3:0|0:0,0:0:0:0:
205,233,200102,1,0,3:0:0:0:
205,233,200276,2,0,B|195:254|195:254|192:283|192:283|176:329,1,76.38749949399,2|0,0:1|0:0,0:0:0:0:
277,373,200625,2,0,L|364:348,1,76.38749949399,10|0,0:1|3:0,0:0:0:0:
421,279,200974,1,2,0:3:0:0:
343,210,201148,1,2,3:2:0:0:
428,124,201323,6,0,P|371:80|279:88,1,152.77499898798,4|2,1:0|0:0,0:0:0:0:
220,125,201846,1,0,3:0:0:0:
120,174,202020,2,0,B|91:169|91:169|69:158|69:158|40:150,1,76.38749949399,8|0,0:0|0:0,0:0:0:0:
186,269,202369,2,0,P|196:305|202:343,1,76.38749949399,2|2,3:3|0:1,0:0:0:0:
126,382,202718,53,0,0:0:0:0:
126,382,202892,1,0,3:0:0:0:
46,320,203067,2,0,P|37:273|65:241,1,76.38749949399,2|0,0:1|0:0,0:0:0:0:
143,181,203416,5,8,0:0:0:0:
70,104,203590,2,0,P|146:96|227:77,1,152.77499898798,2|2,3:1|0:0,0:0:0:0:
333,193,204113,54,0,P|388:175|411:73,1,152.77499898798,2|2,3:1|0:0,0:0:0:0:
344,37,204637,1,2,3:1:0:0:
247,115,204811,1,8,0:0:0:0:
195,57,204986,2,0,B|175:48|175:48|120:38,1,76.38749949399,0|2,0:0|3:1,0:0:0:0:
45,118,205334,2,0,L|-7:130,2,38.193749746995,2|0|2,0:0|3:0|0:1,0:0:0:0:
128,183,205683,1,0,3:0:0:0:
78,247,205858,2,0,P|76:264|61:331,1,76.38749949399,0|0,3:0|0:0,0:0:0:0:
178,379,206206,2,0,P|230:375|276:291,1,152.77499898798,10|2,0:1|0:1,0:0:0:0:
366,225,206730,5,2,3:2:0:0:
366,225,206817,1,2,0:0:0:0:
366,225,206904,2,0,B|432:219|436:270|527:263,1,152.77499898798,4|2,2:0|0:0,0:0:0:0:
490,184,207427,1,0,3:0:0:0:
396,113,207602,2,0,P|389:82|383:29,1,76.38749949399,8|0,0:0|0:0,0:0:0:0:
301,162,207951,2,0,P|263:153|225:149,1,76.38749949399,2|2,3:3|0:1,0:0:0:0:
151,94,208299,53,0,0:0:0:0:
151,94,208474,1,0,3:0:0:0:
75,142,208648,2,0,P|80:179|88:217,1,76.38749949399,2|0,0:1|0:0,0:0:0:0:
0,318,208997,5,8,0:0:0:0:
62,378,209172,2,0,P|138:372|192:317,1,152.77499898798,2|2,3:1|0:0,0:0:0:0:
308,262,209695,54,0,B|358:251|358:251|368:245|368:245|472:230,1,152.77499898798,2|2,3:1|0:0,0:0:0:0:
504,295,210218,1,2,3:0:0:0:
377,362,210392,2,0,B|296:360|314:313|206:325,1,152.77499898798,10|2,0:1|3:3,0:0:0:0:
164,271,210916,1,2,0:1:0:0:
55,313,211090,2,0,B|46:280|46:280|66:235,1,76.38749949399,0|0,0:0|3:0,0:0:0:0:
98,139,211439,2,0,P|93:120|76:46,1,76.38749949399,2|0,3:1|0:0,0:0:0:0:
79,64,211701,1,0,3:0:0:0:
79,64,211788,2,0,B|94:74|94:74|177:89,1,76.38749949399,10|0,0:1|3:0,0:0:0:0:
246,132,212137,1,2,3:1:0:0:
358,81,212311,1,2,1:2:0:0:
444,176,212486,6,0,P|472:182|500:295,1,152.77499898798,4|2,0:0|0:0,0:0:0:0:
428,273,213009,1,0,3:0:0:0:
369,359,213183,2,0,B|333:347|333:347|293:352,1,76.38749949399,8|0,0:0|0:0,0:0:0:0:
232,254,213532,2,0,P|235:241|248:167,1,76.38749949399,2|2,3:3|0:1,0:0:0:0:
314,125,213881,53,0,0:0:0:0:
314,125,214055,1,0,3:0:0:0:
255,38,214230,2,0,P|217:46|180:52,1,76.38749949399,2|0,0:1|0:0,0:0:0:0:
96,118,214579,5,8,0:0:0:0:
24,37,214753,2,0,P|5:85|1:187,1,152.77499898798,2|0,3:1|1:1,0:0:0:0:
72,273,215276,54,0,B|122:259|122:259|152:237|152:237|225:223,1,152.77499898798,2|2,3:1|0:0,0:0:0:0:
286,176,215799,1,2,3:1:0:0:
376,241,215974,2,0,B|383:275|383:275|373:320,1,76.38749949399,8|0,0:0|0:0,0:0:0:0:
438,174,216323,2,0,P|451:171|530:154,1,76.38749949399,2|0,3:1|1:1,0:0:0:0:
391,92,216672,6,0,P|385:71|374:-7,1,76.38749949399,2|0,0:1|3:0,0:0:0:0:
295,69,217020,1,0,0:3:0:0:
195,12,217195,2,0,B|156:6|156:6|122:22,1,76.38749949399,2|8,0:1|0:1,0:0:0:0:
53,94,217544,1,2,3:1:0:0:
131,179,217718,2,0,P|126:199|113:278,1,76.38749949399,2|2,0:3|3:1,0:0:0:0:
57,332,218067,54,0,B|133:329|119:279|230:292,1,152.77499898798,4|2,1:2|0:0,0:0:0:0:
246,215,218590,1,0,3:0:0:0:
152,146,218765,2,0,B|139:128|139:128|160:67,1,76.38749949399,8|0,0:0|0:0,0:0:0:0:
78,16,219113,2,0,P|61:21|-2:32,1,76.38749949399,2|2,3:3|0:1,0:0:0:0:
0,127,219462,5,0,0:0:0:0:
0,127,219637,1,0,3:0:0:0:
10,220,219811,2,0,P|47:225|84:235,1,76.38749949399,2|0,0:1|0:0,0:0:0:0:
181,326,220160,53,8,0:0:0:0:
269,274,220334,2,0,B|338:256|338:256|324:176,1,152.77499898798,2|2,3:1|0:0,0:0:0:0:
323,175,220770,1,8,0:0:0:0:
323,175,220858,1,6,3:2:0:0:
472,191,221032,2,0,L|508:203,2,38.193749746995,0|8|2,1:0|0:0|3:2,0:0:0:0:
346,147,221381,1,0,3:0:0:0:
416,78,221555,2,0,P|418:55|429:-12,1,76.38749949399,8|0,0:0|0:0,0:0:0:0:
318,55,221904,2,0,P|267:70|237:65,1,76.38749949399,2|2,3:3|0:1,0:0:0:0:
166,120,222253,6,0,P|130:106|92:107,1,76.38749949399,0|0,0:0|3:0,0:0:0:0:
8,188,222602,1,2,0:1:0:0:
94,267,222776,2,0,L|101:316,2,38.193749746995,0|8|10,0:0|3:0|0:1,0:0:0:0:
200,204,223125,53,0,3:0:0:0:
338,248,223299,2,0,L|413:234,1,76.38749949399,2|2,0:3|3:1,0:0:0:0:
