osu file format v14

[General]
AudioFilename: audio.mp3
AudioLeadIn: 0
PreviewTime: 33851
Countdown: 0
SampleSet: Soft
StackLeniency: 0.7
Mode: 0
LetterboxInBreaks: 0
WidescreenStoryboard: 1

[Editor]
Bookmarks: 34549,45712,56874,68037,79200
DistanceSpacing: 1.6
BeatDivisor: 8
GridSize: 4
TimelineZoom: 1.5

[Metadata]
Title:Into the Sky (TV size)
TitleUnicode:Into the Sky (TV size)
Artist:SawanoHiroyuki[nZk]:Tielle
ArtistUnicode:SawanoHiroyuki[nZk]:Tielle
Creator:TT Mouse
Version:Light Insane
Source:機動戦士ガンダムユニコーン RE:0096
Tags:澤野弘之 sawano hiroyuki kencho Benjamin & mpi Mobile Suit Gundam UC Unicorn opening op tv size
BeatmapID:1415666
BeatmapSetID:444079

[Difficulty]
HPDrainRate:4
CircleSize:3.5
OverallDifficulty:6.7
ApproachRate:8.3
SliderMultiplier:2.3
SliderTickRate:1

[Events]
//Background and Video events
0,0,"BG.jpg",0,0
//Break Periods
//Storyboard Layer 0 (Background)
//Storyboard Layer 1 (Fail)
//Storyboard Layer 2 (Pass)
//Storyboard Layer 3 (Foreground)
//Storyboard Sound Samples

[TimingPoints]
1061,697.674418604651,4,2,1,60,1,0
9084,-100,4,2,1,20,0,0
9433,-100,4,2,1,60,0,0
12223,-100,4,2,1,60,0,0
25828,-100,4,2,1,20,0,0
26177,-100,4,2,1,60,0,0
28967,-100,4,2,1,60,0,0
34549,-90.9090909090909,4,2,1,60,0,0

[Colours]
Combo1 : 151,249,202
Combo2 : 2,140,253
Combo3 : 214,250,254
Combo4 : 149,149,255

[HitObjects]
440,44,1061,6,0,L|456:157,1,115,8|8,0:0|0:0,0:0:0:0:
413,245,1584,1,8,0:0:0:0:
322,207,1758,1,2,0:0:0:0:
322,207,1933,2,0,L|247:221,2,57.5,8|8|0,0:0|0:0|0:0,0:0:0:0:
301,349,2630,1,8,0:0:0:0:
301,349,2805,1,8,0:0:0:0:
70,336,3328,1,8,0:0:0:0:
70,336,3851,6,0,L|53:222,1,115,8|8,0:0|0:0,0:0:0:0:
32,126,4374,1,8,0:0:0:0:
112,70,4549,1,2,0:0:0:0:
112,70,4723,2,0,L|181:83,2,57.5,8|8|0,0:0|0:0|0:0,0:0:0:0:
248,31,5421,1,8,0:0:0:0:
248,31,5595,1,8,0:0:0:0:
217,259,6119,1,8,0:0:0:0:
217,259,6642,6,0,P|252:223|326:231,1,115,8|8,0:0|0:0,0:0:0:0:
388,286,7165,1,8,0:0:0:0:
340,371,7340,1,2,0:0:0:0:
340,371,7514,2,0,L|269:365,2,57.5,8|8|0,0:0|0:0|0:0,0:0:0:0:
491,344,8212,1,8,0:0:0:0:
491,344,8386,1,8,0:0:0:0:
452,116,8909,1,8,0:0:0:0:
452,116,9433,6,0,L|328:103,1,115,8|8,0:0|0:0,0:0:0:0:
239,94,9956,1,8,0:0:0:0:
182,173,10130,1,2,0:0:0:0:
182,173,10305,2,0,L|184:248,2,57.5,8|8|0,0:0|0:0|0:0,0:0:0:0:
52,320,11002,2,0,P|57:357|76:381,1,57.5,8|8,0:0|0:0,0:0:0:0:
65,177,11526,2,0,P|60:140|41:116,1,57.5,0|8,0:0|0:0,0:0:0:0:
92,37,11874,2,0,L|160:38,1,57.5,0|0,0:0|0:0,0:0:0:0:
249,42,12223,6,0,P|265:76|239:168,1,115,8|8,0:0|0:0,0:0:0:0:
176,212,12747,1,8,0:0:0:0:
231,294,12921,2,0,L|289:297,1,57.5,2|8,0:0|0:0,0:0:0:0:
289,297,13270,1,8,0:0:0:0:
479,138,13793,1,8,0:0:0:0:
479,138,13967,2,0,L|351:161,1,115,8|0,0:0|0:0,0:0:0:0:
321,70,14491,2,0,P|315:30|320:3,2,57.5,8|0|0,0:0|0:0|0:0,0:0:0:0:
263,149,15014,6,0,L|286:269,1,115,8|8,0:0|0:0,0:0:0:0:
231,344,15537,1,8,0:0:0:0:
142,302,15712,2,0,L|71:324,1,57.5,2|8,0:0|0:0,0:0:0:0:
87,319,16060,1,8,0:0:0:0:
23,78,16584,1,8,0:0:0:0:
23,78,16758,2,0,L|159:41,1,115,8|0,0:0|0:0,0:0:0:0:
132,145,17281,1,8,0:0:0:0:
356,29,17805,6,0,L|355:151,1,115,8|8,0:0|0:0,0:0:0:0:
312,232,18328,1,8,0:0:0:0:
378,302,18502,2,0,L|451:291,2,57.5,2|8|8,0:0|0:0|0:0,0:0:0:0:
212,349,19200,2,0,P|190:325|145:322,2,57.5,0|8|8,0:0|0:0|0:0,0:0:0:0:
32,351,19898,2,0,L|40:281,1,57.5,0|8,0:0|0:0,0:0:0:0:
178,152,20595,6,0,P|160:211|89:218,1,115,8|8,0:0|0:0,0:0:0:0:
27,178,21119,1,8,0:0:0:0:
68,89,21293,2,0,L|45:28,2,57.5,2|8|8,0:0|0:0|0:0,0:0:0:0:
321,39,22165,1,8,0:0:0:0:
321,39,22340,2,0,L|444:32,1,115,8|0,0:0|0:0,0:0:0:0:
479,113,22863,1,0,0:0:0:0:
230,228,23386,6,0,P|220:288|246:344,1,115,8|8,0:0|0:0,0:0:0:0:
417,288,23909,1,8,0:0:0:0:
349,372,24084,1,2,0:0:0:0:
310,273,24258,2,0,L|317:201,1,57.5,8|8,0:0|0:0,0:0:0:0:
330,124,24607,1,0,0:0:0:0:
330,124,24956,1,8,0:0:0:0:
330,124,25130,2,0,P|380:121|434:162,1,115,8|0,0:0|0:0,0:0:0:0:
250,170,25654,2,0,P|207:166|184:151,1,57.5
52,43,26177,6,0,P|84:116|66:159,1,115,8|8,0:0|0:0,0:0:0:0:
31,308,26700,1,8,0:0:0:0:
146,202,26874,1,2,0:0:0:0:
219,297,27049,2,0,L|211:360,1,57.5,0|0,0:0|0:0,0:0:0:0:
298,342,27398,1,0,0:0:0:0:
298,342,27747,1,8,0:0:0:0:
298,342,27921,2,0,P|313:288|288:237,1,115,8|0,0:0|0:0,0:0:0:0:
409,358,28444,2,0,P|448:338|480:338,1,57.5,8|0,0:0|0:0,0:0:0:0:
480,153,28967,6,0,L|339:141,1,115,8|8,0:0|0:0,0:0:0:0:
272,136,29491,2,0,P|247:82|279:16,1,115,8|8,0:0|0:0,0:0:0:0:
263,31,30014,1,8,0:0:0:0:
71,181,30537,1,8,0:0:0:0:
71,181,30712,1,8,0:0:0:0:
316,240,31235,1,8,0:0:0:0:
316,240,31758,6,0,P|330:193|285:129,1,115,8|8,0:0|0:0,0:0:0:0:
234,202,32281,2,0,L|223:322,1,115,8|8,0:0|0:0,0:0:0:0:
223,316,32805,1,8,0:0:0:0:
468,350,33328,1,8,0:0:0:0:
468,350,33502,1,8,0:0:0:0:
428,109,34026,2,0,L|365:99,1,57.5,0|0,0:0|0:0,0:0:0:0:
181,171,34549,6,0,P|216:136|194:54,1,126.500003860474,4|0,0:0|0:0,0:0:0:0:
55,117,35072,1,8,0:0:0:0:
55,117,35247,2,0,L|71:206,1,63.2500019302369,8|0,0:3|0:0,0:0:0:0:
40,295,35595,2,0,P|89:271|160:311,1,126.500003860474,8|0,0:0|0:0,0:0:0:0:
243,369,36119,2,0,P|304:373|347:329,1,126.500003860474,8|0,0:0|0:0,0:0:0:0:
374,197,36642,1,8,0:3:0:0:
263,237,36816,1,8,0:0:0:0:
188,152,36991,2,0,L|212:75,1,63.2500019302369,8|0,0:0|0:0,0:0:0:0:
332,23,37340,6,0,L|290:165,1,126.500003860474
431,255,37863,2,0,P|451:230|456:196,1,63.2500019302369,8|8,0:0|0:3,0:0:0:0:
302,311,38212,2,0,P|295:356|313:386,1,63.2500019302369,0|8,0:0|0:0,0:0:0:0:
338,206,38560,2,0,P|279:196|211:251,1,126.500003860474,0|8,0:0|0:0,0:0:0:0:
56,172,39084,1,8,0:0:0:0:
56,172,39433,2,0,L|51:98,1,63.2500019302369,8|0,0:3|0:0,0:0:0:0:
121,265,39781,2,0,L|127:335,1,63.2500019302369,0|0,0:0|0:0,0:0:0:0:
171,160,40130,6,0,P|184:89|136:37,1,126.500003860474,4|8,0:0|0:0,0:0:0:0:
154,47,40654,1,0,0:0:0:0:
251,24,40828,2,0,L|320:35,1,63.2500019302369,8|0,0:3|0:0,0:0:0:0:
475,89,41177,2,0,P|404:91|358:145,1,126.500003860474,8|0,0:0|0:0,0:0:0:0:
446,295,41700,2,0,L|437:158,1,126.500003860474,8|0,0:0|0:0,0:0:0:0:
351,273,42223,1,8,0:3:0:0:
289,161,42398,1,8,0:0:0:0:
280,313,42572,2,0,P|302:343|339:358,1,63.2500019302369,8|0,0:0|0:0,0:0:0:0:
216,238,42921,6,0,L|73:256,1,126.500003860474
21,157,43444,2,0,P|12:120|20:85,1,63.2500019302369,8|8,0:0|0:3,0:0:0:0:
194,87,43793,2,0,P|173:110|143:118,1,63.2500019302369,0|8,0:0|0:0,0:0:0:0:
263,41,44142,2,0,L|406:23,1,126.500003860474,0|8,0:0|0:0,0:0:0:0:
476,164,44665,1,0,0:0:0:0:
476,164,45014,2,0,L|461:227,1,63.2500019302369,8|8,0:3|0:0,0:0:0:0:
342,296,45363,1,0,0:0:0:0:
456,355,45537,1,0,0:0:0:0:
277,363,45712,6,0,P|251:318|281:229,1,126.500003860474,4|0,0:0|0:0,0:0:0:0:
352,202,46235,1,8,0:0:0:0:
352,202,46409,2,0,L|344:121,1,63.2500019302369,8|0,0:3|0:0,0:0:0:0:
250,58,46758,2,0,L|255:146,1,63.2500019302369,8|0,0:0|0:0,0:0:0:0:
172,182,47107,1,0,0:0:0:0:
69,169,47281,2,0,P|51:136|61:98,1,63.2500019302369,8|0,0:0|0:0,0:0:0:0:
149,317,47805,1,8,0:3:0:0:
64,266,47979,2,0,L|-5:280,2,63.2500019302369,8|8|0,0:0|0:0|0:0,0:0:0:0:
149,317,48502,6,0,L|282:291,1,126.500003860474
361,342,49026,1,8,0:0:0:0:
452,287,49200,2,0,P|465:251|461:216,1,63.2500019302369,8|0,0:3|0:0,0:0:0:0:
476,131,49549,1,8,0:0:0:0:
476,131,49723,2,0,L|340:101,1,126.500003860474,0|8,0:0|0:0,0:0:0:0:
249,120,50247,2,0,P|245:89|270:42,1,63.2500019302369,8|0,0:0|0:0,0:0:0:0:
311,201,50595,2,0,P|256:224|185:200,1,126.500003860474,8|0,0:3|0:0,0:0:0:0:
373,352,51293,6,0,P|428:329|499:353,1,126.500003860474
298,291,51816,1,8,0:0:0:0:
298,291,51991,2,0,L|291:367,1,63.2500019302369,8|0,0:3|0:0,0:0:0:0:
155,360,52340,2,0,P|124:307|144:244,1,126.500003860474,8|0,0:0|0:0,0:0:0:0:
257,150,52863,2,0,L|398:166,1,126.500003860474,8|0,0:0|0:0,0:0:0:0:
502,230,53386,1,8,0:3:0:0:
358,253,53560,1,8,0:0:0:0:
471,138,53735,2,0,P|470:94|443:66,1,63.2500019302369,8|0,0:0|0:0,0:0:0:0:
305,44,54084,6,0,L|164:28,1,126.500003860474
64,103,54607,1,8,0:0:0:0:
64,103,54781,2,0,L|52:181,1,63.2500019302369,8|0,0:3|0:0,0:0:0:0:
150,354,55130,2,0,P|183:317|171:221,1,126.500003860474,8|0,0:0|0:0,0:0:0:0:
183,127,55654,1,8,0:0:0:0:
183,127,55828,2,0,P|205:148|253:153,1,63.2500019302369,8|0,0:0|0:0,0:0:0:0:
359,159,56177,1,8,0:3:0:0:
241,68,56351,1,8,0:0:0:0:
295,219,56526,1,8,0:3:0:0:
331,76,56700,1,2,0:3:0:0:
376,252,56874,6,0,P|341:298|263:301,1,126.500003860474,4|0,0:0|0:0,0:0:0:0:
188,242,57398,1,8,0:0:0:0:
119,314,57572,2,0,L|136:386,1,63.2500019302369,8|0,0:3|0:0,0:0:0:0:
27,256,57921,2,0,P|21:187|72:137,1,126.500003860474,8|0,0:0|0:0,0:0:0:0:
223,119,58444,2,0,L|359:138,1,126.500003860474,8|0,0:0|0:0,0:0:0:0:
474,100,58967,1,8,0:3:0:0:
376,217,59142,1,8,0:0:0:0:
504,241,59316,2,0,L|507:178,1,63.2500019302369,0|0,0:0|0:0,0:0:0:0:
412,304,59665,6,0,L|407:376,1,63.2500019302369
231,298,60014,1,8,0:0:0:0:
304,366,60188,1,8,0:0:0:0:
286,235,60363,2,0,P|250:215|158:262,1,126.500003860474,8|8,0:3|0:0,0:0:0:0:
146,348,60886,1,0,0:0:0:0:
32,368,61060,2,0,P|13:329|27:290,1,63.2500019302369,0|8,0:0|0:0,0:0:0:0:
91,210,61409,2,0,P|87:168|61:134,1,63.2500019302369,8|0,0:0|0:0,0:0:0:0:
97,28,61758,2,0,P|138:8|180:16,1,63.2500019302369,8|0,0:3|0:0,0:0:0:0:
307,45,62107,2,0,P|338:41|364:24,1,63.2500019302369,0|0,0:0|0:0,0:0:0:0:
215,100,62456,6,0,L|236:232,1,126.500003860474,4|0,0:0|0:0,0:0:0:0:
310,287,62979,1,8,0:0:0:0:
187,338,63154,1,8,0:3:0:0:
371,355,63328,1,8,0:0:0:0:
371,355,63502,2,0,P|400:298|386:240,1,126.500003860474,8|0,0:0|0:0,0:0:0:0:
271,163,64026,2,0,L|129:177,1,126.500003860474,8|0,0:0|0:0,0:0:0:0:
114,292,64549,2,0,L|120:366,1,63.2500019302369,8|8,0:3|0:0,0:0:0:0:
65,184,64898,2,0,P|70:138|92:115,1,63.2500019302369,0|0,0:0|0:0,0:0:0:0:
193,61,65247,6,0,L|335:47,1,126.500003860474,0|8,0:0|0:0,0:0:0:0:
458,38,65770,1,8,0:0:0:0:
385,133,65944,2,0,P|381:169|452:234,1,126.500003860474,8|0,0:3|0:0,0:0:0:0:
476,339,66467,2,0,L|397:333,1,63.2500019302369,0|2,0:3|0:3,0:0:0:0:
278,355,66816,1,8,0:0:0:0:
299,270,66991,1,8,0:0:0:0:
299,270,67165,2,0,L|314:184,1,63.2500019302369,0|8,0:0|0:3,0:0:0:0:
279,126,67514,1,0,0:0:0:0:
393,214,67688,1,0,0:3:0:0:
386,67,67863,1,2,0:0:0:0:
279,126,68037,6,0,P|219:115|182:59,1,126.500003860474,4|0,0:0|0:0,0:0:0:0:
63,32,68560,1,8,0:0:0:0:
95,162,68735,2,0,L|76:249,1,63.2500019302369,8|0,0:3|0:0,0:0:0:0:
55,348,69084,2,0,P|109:319|172:341,1,126.500003860474,8|0,0:0|0:0,0:0:0:0:
296,341,69607,1,8,0:0:0:0:
296,341,69781,2,0,L|312:263,1,63.2500019302369,0|0,0:0|0:0,0:0:0:0:
233,157,70130,2,0,P|197:155|154:176,1,63.2500019302369,8|8,0:3|0:0,0:0:0:0:
359,207,70479,2,0,P|395:209|438:188,1,63.2500019302369,0|8,0:0|0:0,0:0:0:0:
299,67,70828,6,0,B|320:26|320:26|347:65|355:130,1,126.500003860474,0|8,0:0|0:0,0:0:0:0:
204,76,71351,1,8,0:0:0:0:
204,76,71526,2,0,L|205:-9,1,63.2500019302369,8|0,0:3|0:0,0:0:0:0:
86,139,71874,2,0,L|85:224,1,63.2500019302369,8|0,0:0|0:0,0:0:0:0:
85,342,72223,1,0,0:0:0:0:
197,240,72398,1,8,0:0:0:0:
197,240,72572,2,0,L|270:256,1,63.2500019302369,8|0,0:0|0:0,0:0:0:0:
416,282,72921,1,8,0:3:0:0:
321,354,73095,1,0,0:0:0:0:
491,319,73270,2,0,P|501:287|491:249,1,63.2500019302369,0|0,0:0|0:0,0:0:0:0:
344,174,73619,6,0,P|361:132|447:116,1,126.500003860474,4|0,0:0|0:0,0:0:0:0:
434,110,74142,1,8,0:0:0:0:
291,74,74316,2,0,L|300:5,2,63.2500019302369,8|8|8,0:3|0:0|0:0,0:0:0:0:
96,288,75014,2,0,L|106:355,1,63.2500019302369,0|8,0:0|0:0,0:0:0:0:
184,241,75363,2,0,P|157:204|120:190,1,63.2500019302369,8|0,0:0|0:0,0:0:0:0:
200,349,75712,1,8,0:3:0:0:
304,338,75886,2,0,L|439:331,1,126.500003860474,8|0,0:0|0:0,0:0:0:0:
414,184,76409,6,0,B|355:167|355:167|295:195,1,126.500003860474,4|0,0:0|0:0,0:0:0:0:
474,244,76933,1,8,0:0:0:0:
497,155,77107,2,0,L|482:87,1,63.2500019302369,8|0,0:3|0:0,0:0:0:0:
325,53,77456,1,0,0:0:0:0:
415,20,77630,1,0,0:0:0:0:
243,77,77805,2,0,P|240:46|248:16,1,63.2500019302369,0|8,0:0|0:0,0:0:0:0:
295,195,78154,2,0,P|298:226|290:256,1,63.2500019302369,8|0,0:0|0:0,0:0:0:0:
151,163,78502,2,0,L|134:98,1,63.2500019302369,8|0,0:3|0:0,0:0:0:0:
77,310,78851,2,0,L|61:248,1,63.2500019302369,0|2,0:0|0:3,0:0:0:0:
203,362,79200,1,0,0:0:0:0:
