osu file format v14

[General]
AudioFilename: audio.mp3
AudioLeadIn: 0
PreviewTime: 33851
Countdown: 0
SampleSet: Soft
StackLeniency: 0.7
Mode: 0
LetterboxInBreaks: 0
WidescreenStoryboard: 0

[Editor]
Bookmarks: 34549
DistanceSpacing: 2
BeatDivisor: 4
GridSize: 4
TimelineZoom: 0.3999999

[Metadata]
Title:Into the Sky (TV size)
TitleUnicode:Into the Sky (TV size)
Artist:SawanoHiroyuki[nZk]:Tielle
ArtistUnicode:SawanoHiroyuki[nZk]:Tielle
Creator:TT Mouse
Version:Hard
Source:機動戦士ガンダムユニコーン RE:0096
Tags:澤野弘之 sawano hiroyuki kencho Benjamin & mpi Mobile Suit Gundam UC Unicorn opening op tv size
BeatmapID:954028
BeatmapSetID:444079

[Difficulty]
HPDrainRate:5
CircleSize:3.7
OverallDifficulty:5.5
ApproachRate:7
SliderMultiplier:1.6
SliderTickRate:1

[Events]
//Background and Video events
0,0,"BG.jpg",0,0
//Break Periods
//Storyboard Layer 0 (Background)
//Storyboard Layer 1 (Fail)
//Storyboard Layer 2 (Pass)
//Storyboard Layer 3 (Foreground)
//Storyboard Sound Samples

[TimingPoints]
1061,697.674418604651,4,2,1,70,1,0
12223,-111.111111111111,4,2,1,70,0,0
34549,-86.9565217391304,4,2,1,70,0,0

[Colours]
Combo1 : 151,249,202
Combo2 : 2,140,253
Combo3 : 214,250,254
Combo4 : 149,149,255

[HitObjects]
52,44,1061,6,0,L|142:51,1,80,8|8,0:0|0:0,0:0:0:0:
208,93,1584,1,8,0:0:0:0:
138,147,1758,2,0,L|149:194,1,40,2|8,0:0|0:0,0:0:0:0:
221,233,2107,2,0,P|184:271|101:263,1,120,8|8,0:0|0:0,0:0:0:0:
41,233,2805,2,0,P|28:298|61:344,1,120,8|8,0:0|0:0,0:0:0:0:
319,358,3851,6,0,L|417:341,1,80,8|8,0:0|0:0,0:0:0:0:
484,328,4374,1,8,0:0:0:0:
427,260,4549,2,0,L|436:206,1,40,2|8,0:0|0:0,0:0:0:0:
349,194,4898,2,0,P|381:145|439:132,1,120,8|8,0:0|0:0,0:0:0:0:
490,61,5595,1,8,0:0:0:0:
318,21,5944,2,0,L|329:86,1,40,0|8,0:0|0:0,0:0:0:0:
68,124,6642,6,0,L|148:73,1,80,8|8,0:0|0:0,0:0:0:0:
211,36,7165,1,8,0:0:0:0:
208,124,7340,2,0,P|230:163|244:169,1,40,2|8,0:0|0:0,0:0:0:0:
311,172,7688,2,0,P|279:233|207:247,1,120,8|8,0:0|0:0,0:0:0:0:
156,206,8386,2,0,P|140:258|193:325,1,120,8|8,0:0|0:0,0:0:0:0:
428,369,9433,6,0,L|454:282,1,80,8|8,3:2|0:0,0:0:0:0:
479,208,9956,1,8,0:0:0:0:
393,228,10130,2,0,P|351:204|347:193,1,40,2|8,0:0|0:0,0:0:0:0:
409,141,10479,2,0,P|375:79|392:29,1,120,8|8,0:0|0:0,0:0:0:0:
473,76,11177,1,8,0:0:0:0:
213,27,11700,1,8,0:0:0:0:
146,84,11874,2,0,L|158:146,1,40,0|0,0:0|0:0,0:0:0:0:
226,156,12223,6,0,P|184:202|97:180,1,143.999995605469,8|2,0:0|0:0,0:0:0:0:
42,235,13095,1,8,0:0:0:0:
42,235,13270,1,8,0:0:0:0:
266,342,13793,2,0,L|249:385,1,35.9999989013672,8|8,0:0|0:0,0:0:0:0:
105,339,14316,1,0,0:0:0:0:
105,339,14491,1,8,0:0:0:0:
339,375,15014,6,0,P|341:304|279:263,1,143.999995605469,8|2,0:0|0:0,0:0:0:0:
217,224,15886,2,0,L|251:193,1,35.9999989013672,8|8,0:0|0:0,0:0:0:0:
461,104,16584,2,0,L|453:147,1,35.9999989013672,8|8,0:0|0:0,0:0:0:0:
327,44,17107,1,0,0:0:0:0:
327,44,17281,1,8,0:0:0:0:
111,145,17805,6,0,P|92:109|115:53,1,71.9999978027345,8|8,0:0|0:0,0:0:0:0:
173,96,18328,1,8,0:0:0:0:
183,174,18502,2,0,L|167:224,1,35.9999989013672,2|8,0:0|0:0,0:0:0:0:
102,247,18851,2,0,L|125:340,1,71.9999978027345,8|0,0:0|0:0,0:0:0:0:
182,365,19374,2,0,L|232:372,1,35.9999989013672,8|8,0:0|0:0,0:0:0:0:
376,359,19898,2,0,L|319:346,1,35.9999989013672,0|8,0:0|0:0,0:0:0:0:
479,158,20595,6,0,P|463:201|477:237,1,71.9999978027345,8|8,0:0|0:0,0:0:0:0:
389,232,21119,1,8,0:0:0:0:
332,176,21293,2,0,P|283:175|269:186,1,35.9999989013672,2|8,0:0|0:0,0:0:0:0:
298,249,21642,2,0,P|252:244|222:163,1,107.999996704102,8|8,0:0|0:0,0:0:0:0:
234,118,22340,1,8,0:0:0:0:
368,35,22688,2,0,L|359:79,1,35.9999989013672,0|0,0:0|0:0,0:0:0:0:
125,34,23386,6,0,L|101:126,1,71.9999978027344,8|8,0:0|0:0,0:0:0:0:
84,179,23909,1,8,0:0:0:0:
62,255,24084,2,0,L|73:309,2,35.9999989013672,2|8|8,0:0|0:0|0:0,0:0:0:0:
198,334,24781,2,0,L|174:413,2,47.9999985351563,0|0|0,3:0|3:0|3:0,0:0:0:0:
228,232,25479,2,0,L|285:229,1,35.9999989013672
475,336,26177,6,0,P|428:314|423:269,1,71.9999978027344,8|8,0:0|0:0,0:0:0:0:
491,260,26700,1,8,0:0:0:0:
466,184,26874,2,0,L|467:129,2,35.9999989013672,2|0|0,0:0|0:0|0:0,0:0:0:0:
361,64,27572,2,0,L|390:5,2,47.9999985351563,0|0|0,3:0|3:0|3:0,0:0:0:0:
315,159,28270,2,0,L|328:205,1,35.9999989013672,0|8,0:0|0:0,0:0:0:0:
146,36,28967,6,0,P|163:80|146:120,1,71.9999978027344,8|8,0:0|0:0,0:0:0:0:
80,125,29491,2,0,P|102:170|150:183,1,71.9999978027344,8|8,0:0|0:0,0:0:0:0:
199,179,30014,1,8,0:0:0:0:
33,349,30537,1,8,0:0:0:0:
99,306,30712,2,0,L|206:330,1,107.999996704102,8|8,0:0|0:0,0:0:0:0:
437,285,31758,6,0,P|390:262|380:226,1,71.9999978027344,8|8,0:0|0:0,0:0:0:0:
451,207,32281,2,0,L|434:130,1,71.9999978027344,8|8,0:0|0:0,0:0:0:0:
415,59,32805,1,8,0:0:0:0:
182,106,33328,2,0,L|238:120,1,35.9999989013672,8|8,0:0|0:0,0:0:0:0:
352,310,34026,2,0,L|299:332,1,35.9999989013672,0|0,0:0|0:0,0:0:0:0:
119,360,34549,6,0,P|96:287|133:223,1,138.000002632141,4|8,0:0|0:0,0:0:0:0:
208,204,35247,1,8,0:3:0:0:
281,35,35595,2,0,P|214:79|169:61,1,92.0000017547608,8|0,0:0|0:0,0:0:0:0:
121,44,36119,2,0,P|76:53|47:87,1,92.0000017547608,8|0,0:0|0:0,0:0:0:0:
126,134,36642,1,8,0:3:0:0:
46,180,36816,1,8,0:0:0:0:
46,180,36991,1,8,0:0:0:0:
162,322,37340,6,0,B|205:331|205:331|265:302|265:302|310:310,1,138.000002632141,0|8,0:0|0:0,0:0:0:0:
381,327,38037,1,8,0:3:0:0:
491,179,38386,2,0,P|445:226|445:272,1,92.0000017547608,8|0,0:0|0:0,0:0:0:0:
350,236,38909,1,8,0:0:0:0:
317,149,39084,2,0,P|272:124|213:149,1,92.0000017547608,8|8,0:0|0:3,0:0:0:0:
164,192,39607,2,0,L|169:244,1,46.0000008773804,0|0,0:0|0:0,0:0:0:0:
38,367,40130,6,0,L|25:214,1,138.000002632141,4|0,0:0|0:0,0:0:0:0:
14,137,40828,1,8,0:3:0:0:
165,32,41177,2,0,P|233:65|261:48,1,92.0000017547608,8|0,0:0|0:0,0:0:0:0:
328,30,41700,2,0,P|372:28|405:59,1,92.0000017547608,8|0,0:0|0:0,0:0:0:0:
416,151,42223,2,0,L|397:203,2,46.0000008773804,8|8|8,0:3|0:0|0:0,0:0:0:0:
234,182,42921,6,0,L|248:288,1,92.0000017547608,0|0,0:0|0:0,0:0:0:0:
259,364,43444,1,8,0:0:0:0:
167,378,43619,2,0,L|160:324,1,46.0000008773804,8|0,0:3|0:0,0:0:0:0:
147,241,43967,2,0,B|94:220|43:269|43:269|54:232|44:219,1,138.000002632141,8|8,0:0|0:0,0:0:0:0:
18,158,44665,2,0,L|49:68,1,92.0000017547608,0|8,0:0|0:3,0:0:0:0:
139,57,45188,2,0,L|115:5,1,46.0000008773804,8|0,0:0|0:0,0:0:0:0:
289,87,45712,6,0,P|345:55|420:72,1,138.000002632141,4|8,0:0|0:0,0:0:0:0:
455,150,46409,1,8,0:3:0:0:
450,334,46758,2,0,L|432:243,1,92.0000017547608,8|0,0:0|0:0,0:0:0:0:
342,263,47281,2,0,L|359:353,1,92.0000017547608,8|0,0:0|0:0,0:0:0:0:
268,375,47805,1,8,0:3:0:0:
245,286,47979,1,8,0:0:0:0:
181,353,48154,1,8,0:0:0:0:
38,237,48502,6,0,P|82:181|60:95,1,138.000002632141,0|8,0:0|0:0,0:0:0:0:
6,56,49200,1,8,0:3:0:0:
187,85,49549,2,0,L|286:68,1,92.0000017547608,8|0,0:0|0:0,0:0:0:0:
356,117,50072,2,0,L|385:71,2,46.0000008773804,8|8|0,0:0|0:0|0:0,0:0:0:0:
447,128,50595,2,0,P|463:74|439:26,1,92.0000017547608,8|0,0:3|0:0,0:0:0:0:
377,210,51293,6,0,L|397:358,1,138.000002632141,0|8,0:0|0:0,0:0:0:0:
310,382,51991,1,8,0:3:0:0:
153,285,52340,2,0,L|-12:318,2,138.000002632141,8|8|8,0:0|0:0|0:3,0:0:0:0:
243,301,53560,2,0,P|236:326|208:356,1,46.0000008773804,8|8,0:0|0:0,0:0:0:0:
94,211,54084,2,0,P|125:149|82:67,1,138.000002632141,0|8,0:0|0:0,0:0:0:0:
21,47,54781,1,8,0:3:0:0:
204,31,55130,2,0,B|245:5|309:79|351:53,1,138.000002632141,8|8,0:0|0:0,0:0:0:0:
415,14,55828,1,8,0:0:0:0:
461,192,56177,2,0,L|437:91,1,92.0000017547608,8|8,0:3|0:3,0:0:0:0:
297,219,56874,6,0,L|329:365,1,138.000002632141,4|8,0:0|0:0,0:0:0:0:
238,325,57572,2,0,L|192:319,1,46.0000008773804,8|0,0:3|0:0,0:0:0:0:
120,358,57921,2,0,P|48:340|22:283,1,138.000002632141,8|8,0:0|0:0,0:0:0:0:
112,265,58619,1,8,0:0:0:0:
61,88,58967,1,8,0:3:0:0:
87,176,59142,2,0,L|158:176,1,46.0000008773804,8|0,0:0|0:0,0:0:0:0:
286,73,59665,6,0,L|178:79,1,92.0000017547608,0|8,0:0|0:0,0:0:0:0:
222,166,60188,1,8,0:0:0:0:
186,251,60363,2,0,P|198:333|229:353,1,92.0000017547608,8|8,0:3|0:0,0:0:0:0:
400,371,61060,1,0,0:0:0:0:
400,371,61235,2,0,L|388:313,1,46.0000008773804,8|8,0:0|0:0,0:0:0:0:
388,123,61758,2,0,L|373:61,1,46.0000008773804,8|0,0:3|0:0,0:0:0:0:
477,95,62107,2,0,L|490:148,1,46.0000008773804,0|0,0:0|0:0,0:0:0:0:
426,217,62456,6,0,P|342:214|297:141,1,138.000002632141,4|8,0:0|0:0,0:0:0:0:
244,110,63154,2,0,L|206:162,1,46.0000008773804,8|8,0:3|0:0,0:0:0:0:
145,89,63502,2,0,P|120:160|171:226,1,138.000002632141,8|8,0:0|0:0,0:0:0:0:
232,244,64200,1,0,0:0:0:0:
85,355,64549,2,0,L|211:338,1,92.0000017547608,8|0,0:3|0:0,0:0:0:0:
359,321,65247,6,0,L|465:357,1,92.0000017547608,0|8,0:0|0:0,0:0:0:0:
501,276,65770,1,8,0:0:0:0:
446,202,65944,2,0,P|447:139|485:103,1,92.0000017547608,8|0,0:3|0:0,0:0:0:0:
447,26,66467,1,0,0:3:0:0:
357,47,66642,2,0,L|308:28,2,46.0000008773804,2|8|8,0:3|0:0|0:0,0:0:0:0:
180,100,67340,2,0,L|111:112,1,46.0000008773804,8|0,0:3|0:0,0:0:0:0:
45,131,67688,1,0,0:0:0:0:
45,131,67863,1,2,0:3:0:0:
114,190,68037,6,0,P|132:263|108:302,1,92.0000017547608,4|0,0:0|0:0,0:0:0:0:
58,337,68560,1,8,0:0:0:0:
144,368,68735,2,0,L|274:344,1,92.0000017547608,8|8,0:3|0:0,0:0:0:0:
324,330,69258,1,0,0:0:0:0:
406,370,69433,2,0,L|431:317,1,46.0000008773804,0|8,0:0|0:0,0:0:0:0:
464,245,69781,1,0,0:0:0:0:
408,69,70130,2,0,L|406:181,1,92.0000017547608,8|0,0:3|0:0,0:0:0:0:
221,159,70828,6,0,L|223:47,1,92.0000017547608,0|8,0:0|0:0,0:0:0:0:
314,69,71351,1,8,0:0:0:0:
312,161,71526,2,0,P|300:212|243:249,1,92.0000017547608,8|8,0:3|0:0,0:0:0:0:
93,196,72223,2,0,L|30:211,2,46.0000008773804,0|8|8,0:0|0:0|0:0,0:0:0:0:
174,361,72921,2,0,P|239:336|305:369,1,138.000002632141,8|0,0:3|0:0,0:0:0:0:
390,368,73619,6,0,L|377:237,1,92.0000017547608,4|0,0:0|0:0,0:0:0:0:
373,184,74142,1,8,0:0:0:0:
456,222,74316,2,0,L|504:210,1,46.0000008773804,8|8,0:3|0:0,0:0:0:0:
447,135,74665,2,0,P|402:97|314:118,1,138.000002632141,8|8,0:0|0:0,0:0:0:0:
275,182,75363,1,8,0:0:0:0:
117,86,75712,2,0,L|181:66,1,46.0000008773804,8|8,0:3|0:0,0:0:0:0:
72,333,76409,6,0,P|107:266|83:200,1,138.000002632141,4|8,0:0|0:0,0:0:0:0:
14,262,77107,1,8,0:3:0:0:
182,341,77456,1,0,0:0:0:0:
360,294,77805,2,0,L|385:238,2,46.0000008773804,0|8|8,0:0|0:0|0:0,0:0:0:0:
306,117,78502,2,0,P|301:142|314:193,1,46.0000008773804,8|0,0:3|0:0,0:0:0:0:
393,145,78851,2,0,P|417:136|454:100,1,46.0000008773804,0|2,0:0|0:3,0:0:0:0:
376,53,79200,1,0,0:0:0:0:
