osu file format v14

[General]
AudioFilename: audio.mp3
AudioLeadIn: 0
PreviewTime: 114356
Countdown: 1
SampleSet: Normal
StackLeniency: 0.7
Mode: 1
LetterboxInBreaks: 0
WidescreenStoryboard: 1

[Editor]
Bookmarks: 182999,205588
DistanceSpacing: 1.14
BeatDivisor: 4
GridSize: 4
TimelineZoom: 2.799999

[Metadata]
Title:Cage (Mtell Remix)
TitleUnicode:Cage (Mtell Remix)
Artist:SawanoHiroyuki[nZk]:Tielle
ArtistUnicode:SawanoHiroyuki[nZk]:Tielle
Creator:kitafuma
Version:Release
Source:機動戦士ガンダムUC
Tags:実物大 ユニコーンガンダム 立像 テーマソング realsize unicorn Gundam UK Hardcore UKHC #170 Binary Star kidou senshi gundam
BeatmapID:1848836
BeatmapSetID:855982

[Difficulty]
HPDrainRate:5
CircleSize:2
OverallDifficulty:6.5
ApproachRate:5
SliderMultiplier:1.4
SliderTickRate:1

[Events]
//Background and Video events
0,0,"iine.jpg",0,4
//Break Periods
2,22792,32686
//Storyboard Layer 0 (Background)
//Storyboard Layer 1 (Fail)
//Storyboard Layer 2 (Pass)
//Storyboard Layer 3 (Foreground)
//Storyboard Sound Samples

[TimingPoints]
4,352.941176470588,4,1,0,60,1,0
11298,-100,4,1,0,70,0,0
22592,-200,4,1,0,40,0,0
33886,-133.333333333333,4,1,0,55,0,0
44651,-126.582278481013,4,1,0,55,0,0
44709,-125,4,1,0,55,0,0
44768,-123.456790123457,4,1,0,55,0,0
44827,-121.951219512195,4,1,0,55,0,0
45003,-120.481927710843,4,1,0,55,0,0
45180,-117.647058823529,4,1,0,70,0,0
56121,-112.359550561798,4,1,0,70,0,0
56298,-107.52688172043,4,1,0,70,0,0
56386,-106.382978723404,4,1,0,70,0,0
56474,-105.263157894737,4,1,0,70,0,0
67680,-105.263157894737,4,1,0,70,0,0
67768,-100,4,1,0,70,0,0
67856,-200,4,1,0,5,0,0
70503,-200,4,1,0,100,0,0
70592,-142.857142857143,4,1,0,100,0,1
80474,-133.333333333333,4,1,0,70,0,1
81886,-140.845070422535,4,1,0,70,0,0
82239,-138.888888888889,4,1,0,70,0,0
82592,-136.986301369863,4,1,0,70,0,0
82945,-135.135135135135,4,1,0,70,0,0
83298,-133.333333333333,4,1,0,70,0,0
83651,-131.578947368421,4,1,0,70,0,0
84003,-129.87012987013,4,1,0,70,0,0
84356,-128.205128205128,4,1,0,70,0,0
84709,-126.582278481013,4,1,0,70,0,0
85062,-125,4,1,0,70,0,0
85415,-123.456790123457,4,1,0,70,0,0
85768,-121.951219512195,4,1,0,70,0,0
86121,-120.481927710843,4,1,0,70,0,0
86474,-119.047619047619,4,1,0,70,0,0
86827,-117.647058823529,4,1,0,70,0,0
87180,-116.279069767442,4,1,0,70,0,0
87533,-114.942528735632,4,1,0,70,0,0
87709,-113.636363636364,4,1,0,70,0,0
87886,-112.359550561798,4,1,0,70,0,0
88062,-111.111111111111,4,1,0,70,0,0
88239,-109.89010989011,4,1,0,70,0,0
88415,-108.695652173913,4,1,0,70,0,0
88592,-107.52688172043,4,1,0,70,0,0
88768,-106.382978723404,4,1,0,70,0,0
88945,-105.263157894737,4,1,0,70,0,0
89121,-104.166666666667,4,1,0,70,0,0
89298,-103.092783505155,4,1,0,70,0,0
89474,-102.040816326531,4,1,0,70,0,0
89651,-101.010101010101,4,1,0,70,0,0
89827,-100,4,1,0,70,0,0
90003,-99.009900990099,4,1,0,70,0,0
90180,-98.0392156862745,4,1,0,70,0,0
90356,-97.0873786407767,4,1,0,70,0,0
90533,-95.2380952380952,4,1,0,70,0,0
90621,-94.3396226415094,4,1,0,70,0,0
90709,-93.4579439252336,4,1,0,70,0,0
90886,-91.743119266055,4,1,0,70,0,0
90974,-90.9090909090909,4,1,0,70,0,0
91062,-90.0900900900901,4,1,0,70,0,0
91239,-88.4955752212389,4,1,0,70,0,0
91327,-87.719298245614,4,1,0,70,0,0
91415,-86.9565217391304,4,1,0,70,0,0
91592,-85.4700854700855,4,1,0,70,0,0
91768,-84.0336134453781,4,1,0,70,0,0
91856,-83.3333333333333,4,1,0,70,0,0
91945,-82.6446280991736,4,1,0,70,0,0
92033,-81.9672131147541,4,1,0,70,0,0
92121,-80.6451612903226,4,1,0,70,0,0
92209,-80,4,1,0,70,0,0
92298,-79.3650793650794,4,1,0,70,0,0
92386,-78.7401574803149,4,1,0,70,0,0
92474,-78.125,4,1,0,70,0,0
92651,-76.3358778625954,4,1,0,70,0,0
92827,-74.6268656716418,4,1,0,70,0,0
93180,-86.9565217391304,4,1,0,85,0,1
114356,-88.4955752212389,4,1,0,85,0,0
114445,-90.0900900900901,4,1,0,85,0,0
114533,-91.743119266055,4,1,0,52,0,0
114621,-93.4579439252336,4,1,0,52,0,0
114709,-95.2380952380952,4,1,0,54,0,0
114798,-97.0873786407767,4,1,0,56,0,0
114886,-99.009900990099,4,1,0,58,0,0
114974,-101.010101010101,4,1,0,60,0,0
115062,-103.092783505155,4,1,0,62,0,0
115151,-105.263157894737,4,1,0,64,0,0
115239,-107.52688172043,4,1,0,66,0,0
115327,-109.89010989011,4,1,0,68,0,0
115415,-112.359550561798,4,1,0,70,0,0
115768,-90.9090909090909,4,1,0,85,0,1
137121,-92.5925925925926,4,1,0,85,0,1
137209,-94.3396226415094,4,1,0,85,0,1
137298,-96.1538461538461,4,1,0,85,0,1
137386,-98.0392156862745,4,1,0,85,0,1
137474,-100,4,1,0,85,0,1
138356,-100,4,1,0,70,0,0
160945,-100,4,1,0,55,0,0
183533,-100,4,1,0,70,0,0
206033,-100,4,1,0,70,0,0
206122,-200,4,1,0,70,0,0
206209,-200,4,1,0,5,0,0
208856,-200,4,1,0,100,0,0
208945,-142.857142857143,4,1,0,100,0,1
218827,-142.857142857143,4,1,0,70,0,1
220239,-140.845070422535,4,1,0,75,0,0
220592,-138.888888888889,4,1,0,75,0,0
220945,-136.986301369863,4,1,0,75,0,0
221298,-135.135135135135,4,1,0,75,0,0
221651,-133.333333333333,4,1,0,75,0,0
222003,-131.578947368421,4,1,0,75,0,0
222356,-129.87012987013,4,1,0,75,0,0
222709,-128.205128205128,4,1,0,75,0,0
223062,-126.582278481013,4,1,0,75,0,0
223415,-125,4,1,0,75,0,0
223768,-123.456790123457,4,1,0,75,0,0
224121,-121.951219512195,4,1,0,75,0,0
224474,-120.481927710843,4,1,0,75,0,0
224827,-119.047619047619,4,1,0,75,0,0
225180,-117.647058823529,4,1,0,75,0,0
225533,-116.279069767442,4,1,0,75,0,0
225886,-114.942528735632,4,1,0,75,0,0
226062,-113.636363636364,4,1,0,75,0,0
226239,-112.359550561798,4,1,0,75,0,0
226415,-111.111111111111,4,1,0,75,0,0
226592,-109.89010989011,4,1,0,75,0,0
226768,-108.695652173913,4,1,0,75,0,0
226945,-107.52688172043,4,1,0,75,0,0
227121,-106.382978723404,4,1,0,75,0,0
227298,-105.263157894737,4,1,0,75,0,0
227474,-104.166666666667,4,1,0,75,0,0
227651,-103.092783505155,4,1,0,75,0,0
227827,-102.040816326531,4,1,0,75,0,0
228003,-101.010101010101,4,1,0,75,0,0
228180,-100,4,1,0,75,0,0
228356,-99.009900990099,4,1,0,75,0,0
228533,-98.0392156862745,4,1,0,75,0,0
228709,-97.0873786407767,4,1,0,75,0,0
228886,-95.2380952380952,4,1,0,75,0,0
228974,-94.3396226415094,4,1,0,75,0,0
229062,-93.4579439252336,4,1,0,75,0,0
229239,-91.743119266055,4,1,0,75,0,0
229327,-90.9090909090909,4,1,0,75,0,0
229415,-90.0900900900901,4,1,0,75,0,0
229592,-88.4955752212389,4,1,0,75,0,0
229680,-87.719298245614,4,1,0,75,0,0
229768,-86.9565217391304,4,1,0,75,0,0
229945,-85.4700854700855,4,1,0,75,0,0
230033,-84.7457627118644,4,1,0,75,0,0
230121,-84.0336134453781,4,1,0,75,0,0
230209,-83.3333333333333,4,1,0,75,0,0
230298,-82.6446280991736,4,1,0,75,0,0
230386,-81.9672131147541,4,1,0,75,0,0
230474,-80.6451612903226,4,1,0,75,0,0
230562,-80,4,1,0,75,0,0
230651,-79.3650793650794,4,1,0,75,0,0
230739,-78.7401574803149,4,1,0,75,0,0
230827,-78.125,4,1,0,75,0,0
231003,-76.3358778625954,4,1,0,75,0,0
231180,-74.6268656716418,4,1,0,75,0,0
231533,-83.3333333333333,4,1,0,85,0,1
252709,-84.7457627118644,4,1,0,50,0,0
252798,-86.9565217391304,4,1,0,50,0,0
252886,-88.4955752212389,4,1,0,52,0,0
252974,-90.0900900900901,4,1,0,52,0,0
253062,-92.5925925925926,4,1,0,54,0,0
253151,-94.3396226415094,4,1,0,56,0,0
253239,-96.1538461538461,4,1,0,58,0,0
253327,-98.0392156862745,4,1,0,60,0,0
253415,-100,4,1,0,62,0,0
253503,-102.040816326531,4,1,0,64,0,0
253592,-105.263157894737,4,1,0,66,0,0
253680,-107.52688172043,4,1,0,68,0,0
253768,-109.89010989011,4,1,0,70,0,0
254121,-76.9230769230769,4,1,0,85,0,1
275474,-81.3008130081301,4,1,0,60,0,0
275827,-86.2068965517241,4,1,0,60,0,0
276180,-91.743119266055,4,1,0,60,0,0
276533,-98.0392156862745,4,1,0,60,0,0
276709,-83.3333333333333,4,1,0,85,0,1
287651,-84.7457627118644,4,1,0,85,0,1
287739,-86.2068965517241,4,1,0,85,0,1
287827,-87.719298245614,4,1,0,85,0,1
288003,-90.9090909090909,4,1,0,85,0,1
298062,-92.5925925925926,4,1,0,85,0,1
298151,-94.3396226415094,4,1,0,85,0,1
298239,-96.1538461538461,4,1,0,85,0,1
298327,-98.0392156862745,4,1,0,85,0,1
298415,-100,4,1,0,75,0,1
299298,-100,4,1,0,75,0,0
310592,-100,4,1,0,60,0,0

[HitObjects]
256,192,4,5,0,0:0:0:0:
256,192,268,1,2,0:0:0:0:
256,192,356,1,0,0:0:0:0:
256,192,533,1,0,0:0:0:0:
256,192,709,1,2,0:0:0:0:
256,192,974,1,2,0:0:0:0:
256,192,1062,1,0,0:0:0:0:
256,192,1239,1,2,0:0:0:0:
256,192,1415,1,0,0:0:0:0:
256,192,1680,1,2,0:0:0:0:
256,192,1768,1,0,0:0:0:0:
256,192,1945,1,2,0:0:0:0:
256,192,2121,1,0,0:0:0:0:
256,192,2386,1,2,0:0:0:0:
256,192,2474,1,0,0:0:0:0:
256,192,2651,1,0,0:0:0:0:
256,192,2827,1,0,0:0:0:0:
256,192,3092,1,2,0:0:0:0:
256,192,3180,1,0,0:0:0:0:
256,192,3356,1,0,0:0:0:0:
256,192,3533,1,2,0:0:0:0:
256,192,3798,1,2,0:0:0:0:
256,192,3886,1,0,0:0:0:0:
256,192,4062,1,2,0:0:0:0:
256,192,4239,1,0,0:0:0:0:
256,192,4503,1,2,0:0:0:0:
256,192,4592,1,0,0:0:0:0:
256,192,4768,1,2,0:0:0:0:
256,192,4856,1,2,0:0:0:0:
256,192,4945,1,0,0:0:0:0:
256,192,5033,1,2,0:0:0:0:
256,192,5209,1,2,0:0:0:0:
256,192,5298,1,0,0:0:0:0:
256,192,5474,1,2,0:0:0:0:
256,192,5562,1,2,0:0:0:0:
256,192,5651,1,0,0:0:0:0:
256,192,5915,1,2,0:0:0:0:
256,192,6003,1,0,0:0:0:0:
256,192,6180,1,0,0:0:0:0:
256,192,6356,1,2,0:0:0:0:
256,192,6621,1,2,0:0:0:0:
256,192,6709,1,0,0:0:0:0:
256,192,6886,1,2,0:0:0:0:
256,192,7062,1,0,0:0:0:0:
256,192,7327,1,2,0:0:0:0:
256,192,7415,1,0,0:0:0:0:
256,192,7592,1,2,0:0:0:0:
256,192,7768,1,0,0:0:0:0:
256,192,8033,1,2,0:0:0:0:
256,192,8121,1,0,0:0:0:0:
256,192,8298,1,0,0:0:0:0:
256,192,8474,1,0,0:0:0:0:
256,192,8739,1,2,0:0:0:0:
256,192,8827,1,0,0:0:0:0:
256,192,9003,1,0,0:0:0:0:
256,192,9180,1,2,0:0:0:0:
256,192,9445,1,2,0:0:0:0:
256,192,9533,1,0,0:0:0:0:
256,192,9709,1,0,0:0:0:0:
256,192,9886,1,2,0:0:0:0:
256,192,9945,1,2,0:0:0:0:
256,192,10003,1,2,0:0:0:0:
256,192,10062,1,0,0:0:0:0:
256,192,10151,1,0,0:0:0:0:
256,192,10239,1,2,0:0:0:0:
256,192,10298,1,2,0:0:0:0:
256,192,10356,1,2,0:0:0:0:
256,192,10415,1,0,0:0:0:0:
256,192,10592,1,2,0:0:0:0:
256,192,10651,1,2,0:0:0:0:
256,192,10709,1,2,0:0:0:0:
256,192,10768,1,0,0:0:0:0:
256,192,10827,1,0,0:0:0:0:
256,192,10886,1,0,0:0:0:0:
256,192,10945,1,2,0:0:0:0:
256,192,11033,1,0,0:0:0:0:
256,192,11121,1,0,0:0:0:0:
256,192,11209,1,2,0:0:0:0:
256,192,11298,1,0,0:0:0:0:
256,192,11562,1,2,0:0:0:0:
256,192,11651,1,0,0:0:0:0:
256,192,11827,1,0,0:0:0:0:
256,192,12003,1,2,0:0:0:0:
256,192,12180,1,0,0:0:0:0:
256,192,12268,1,2,0:0:0:0:
256,192,12356,1,0,0:0:0:0:
256,192,12533,1,2,0:0:0:0:
256,192,12621,1,2,0:0:0:0:
256,192,12709,1,0,0:0:0:0:
256,192,12974,1,2,0:0:0:0:
256,192,13062,1,0,0:0:0:0:
256,192,13239,1,2,0:0:0:0:
256,192,13415,1,0,0:0:0:0:
256,192,13592,1,2,0:0:0:0:
256,192,13680,1,2,0:0:0:0:
256,192,13768,1,0,0:0:0:0:
256,192,13945,1,0,0:0:0:0:
256,192,14033,1,0,0:0:0:0:
256,192,14121,1,0,0:0:0:0:
256,192,14386,1,2,0:0:0:0:
256,192,14474,1,0,0:0:0:0:
256,192,14651,1,0,0:0:0:0:
256,192,14739,1,0,0:0:0:0:
256,192,14827,1,2,0:0:0:0:
256,192,15003,1,0,0:0:0:0:
256,192,15092,1,2,0:0:0:0:
256,192,15180,1,2,0:0:0:0:
256,192,15356,1,0,0:0:0:0:
256,192,15445,1,2,0:0:0:0:
256,192,15533,1,0,0:0:0:0:
256,192,15798,1,2,0:0:0:0:
256,192,15886,1,0,0:0:0:0:
256,192,16062,1,2,0:0:0:0:
256,192,16239,1,0,0:0:0:0:
256,192,16327,1,2,0:0:0:0:
256,192,16415,1,2,0:0:0:0:
256,192,16503,1,0,0:0:0:0:
256,192,16592,1,0,0:0:0:0:
256,192,16768,1,2,0:0:0:0:
256,192,16856,1,0,0:0:0:0:
256,192,16945,1,0,0:0:0:0:
256,192,17033,1,2,0:0:0:0:
256,192,17209,1,2,0:0:0:0:
256,192,17298,1,0,0:0:0:0:
256,192,17474,1,0,0:0:0:0:
256,192,17562,1,0,0:0:0:0:
256,192,17651,1,2,0:0:0:0:
256,192,17827,1,2,0:0:0:0:
256,192,17915,1,2,0:0:0:0:
256,192,18003,1,0,0:0:0:0:
256,192,18180,1,2,0:0:0:0:
256,192,18268,1,0,0:0:0:0:
256,192,18356,1,0,0:0:0:0:
256,192,18445,1,2,0:0:0:0:
256,192,18621,1,2,0:0:0:0:
256,192,18709,1,0,0:0:0:0:
256,192,18886,1,2,0:0:0:0:
256,192,18974,1,2,0:0:0:0:
256,192,19062,1,0,0:0:0:0:
256,192,19239,1,0,0:0:0:0:
256,192,19327,1,0,0:0:0:0:
256,192,19415,1,2,0:0:0:0:
256,192,19503,1,0,0:0:0:0:
256,192,19592,1,2,0:0:0:0:
256,192,19680,1,2,0:0:0:0:
256,192,19768,1,0,0:0:0:0:
256,192,19856,1,0,0:0:0:0:
256,192,19945,1,2,0:0:0:0:
256,192,20033,1,0,0:0:0:0:
256,192,20121,1,2,0:0:0:0:
256,192,20209,1,2,0:0:0:0:
256,192,20298,1,0,0:0:0:0:
256,192,20386,1,2,0:0:0:0:
256,192,20474,1,2,0:0:0:0:
256,192,20562,1,0,0:0:0:0:
256,192,20651,1,2,0:0:0:0:
256,192,20739,1,2,0:0:0:0:
256,192,20827,1,0,0:0:0:0:
256,192,20915,1,0,0:0:0:0:
256,192,21003,1,2,0:0:0:0:
256,192,21092,1,2,0:0:0:0:
256,192,21180,1,0,0:0:0:0:
256,192,21356,12,0,22415,0:0:0:0:
256,192,22592,5,6,0:0:0:0:
256,192,33886,5,6,0:0:0:0:
256,192,35298,1,0,0:0:0:0:
256,192,36003,1,2,0:0:0:0:
256,192,36356,1,0,0:0:0:0:
256,192,36709,1,0,0:0:0:0:
256,192,37768,1,0,0:0:0:0:
256,192,38121,1,2,0:0:0:0:
256,192,39533,1,2,0:0:0:0:
256,192,40945,1,0,0:0:0:0:
256,192,41298,1,0,0:0:0:0:
256,192,41651,1,2,0:0:0:0:
256,192,42356,1,2,0:0:0:0:
256,192,43415,1,2,0:0:0:0:
256,192,43768,1,0,0:0:0:0:
256,192,43945,1,0,0:0:0:0:
256,192,44121,1,0,0:0:0:0:
256,192,44298,1,2,0:0:0:0:
256,192,44651,1,0,0:0:0:0:
256,192,44709,1,0,0:0:0:0:
256,192,44768,1,2,0:0:0:0:
256,192,44827,1,2,0:0:0:0:
256,192,45003,1,2,0:0:0:0:
256,192,45180,5,0,0:0:0:0:
256,192,45709,1,0,0:0:0:0:
256,192,46239,1,0,0:0:0:0:
256,192,46592,1,0,0:0:0:0:
256,192,46856,1,2,0:0:0:0:
256,192,46945,1,2,0:0:0:0:
256,192,47121,1,0,0:0:0:0:
256,192,47298,1,2,0:0:0:0:
256,192,47651,1,2,0:0:0:0:
256,192,47739,1,0,0:0:0:0:
256,192,47827,1,0,0:0:0:0:
256,192,47915,1,0,0:0:0:0:
256,192,48003,1,2,0:0:0:0:
256,192,48533,1,0,0:0:0:0:
256,192,48709,1,2,0:0:0:0:
256,192,49062,1,0,0:0:0:0:
256,192,49415,1,2,0:0:0:0:
256,192,49680,1,0,0:0:0:0:
256,192,49768,1,2,0:0:0:0:
256,192,49945,1,0,0:0:0:0:
256,192,50298,1,0,0:0:0:0:
256,192,50474,1,2,0:0:0:0:
256,192,50651,1,0,0:0:0:0:
256,192,50739,1,0,0:0:0:0:
256,192,50827,1,2,0:0:0:0:
256,192,51356,1,0,0:0:0:0:
256,192,51533,1,2,0:0:0:0:
256,192,51886,1,2,0:0:0:0:
256,192,52062,1,0,0:0:0:0:
256,192,52239,1,0,0:0:0:0:
256,192,52503,1,2,0:0:0:0:
256,192,52592,1,2,0:0:0:0:
256,192,52768,1,0,0:0:0:0:
256,192,52945,1,2,0:0:0:0:
256,192,53121,1,0,0:0:0:0:
256,192,53298,1,2,0:0:0:0:
256,192,53386,1,0,0:0:0:0:
256,192,53474,1,0,0:0:0:0:
256,192,53562,1,0,0:0:0:0:
256,192,53651,1,2,0:0:0:0:
256,192,54003,1,2,0:0:0:0:
256,192,54180,1,0,0:0:0:0:
256,192,54268,1,2,0:0:0:0:
256,192,54356,1,0,0:0:0:0:
256,192,54709,1,2,0:0:0:0:
256,192,54886,1,0,0:0:0:0:
256,192,55062,1,0,0:0:0:0:
256,192,55327,1,0,0:0:0:0:
256,192,55415,1,2,0:0:0:0:
256,192,55592,1,0,0:0:0:0:
256,192,55768,1,2,0:0:0:0:
256,192,55945,1,0,0:0:0:0:
256,192,56121,1,0,0:0:0:0:
256,192,56298,1,0,0:0:0:0:
256,192,56386,1,0,0:0:0:0:
256,192,56474,1,2,0:0:0:0:
256,192,56827,1,2,0:0:0:0:
256,192,57003,1,0,0:0:0:0:
256,192,57180,1,2,0:0:0:0:
256,192,57356,1,0,0:0:0:0:
256,192,57886,1,0,0:0:0:0:
256,192,58151,1,2,0:0:0:0:
256,192,58239,1,2,0:0:0:0:
256,192,58415,1,0,0:0:0:0:
256,192,58592,1,2,0:0:0:0:
256,192,58768,1,0,0:0:0:0:
256,192,58945,1,2,0:0:0:0:
256,192,59033,1,0,0:0:0:0:
256,192,59121,1,0,0:0:0:0:
256,192,59209,1,0,0:0:0:0:
256,192,59298,1,2,0:0:0:0:
256,192,59651,1,0,0:0:0:0:
256,192,59827,1,0,0:0:0:0:
256,192,60003,1,2,0:0:0:0:
256,192,60356,1,0,0:0:0:0:
256,192,60533,1,2,0:0:0:0:
256,192,60709,1,0,0:0:0:0:
256,192,60974,1,2,0:0:0:0:
256,192,61062,1,0,0:0:0:0:
256,192,61239,1,0,0:0:0:0:
256,192,61327,1,0,0:0:0:0:
256,192,61415,1,0,0:0:0:0:
256,192,61592,1,2,0:0:0:0:
256,192,61768,1,0,0:0:0:0:
256,192,61945,1,2,0:0:0:0:
256,192,62033,1,2,0:0:0:0:
256,192,62121,1,0,0:0:0:0:
256,192,62386,1,0,0:0:0:0:
256,192,62474,1,0,0:0:0:0:
256,192,62651,1,0,0:0:0:0:
256,192,62827,1,2,0:0:0:0:
256,192,63180,1,2,0:0:0:0:
256,192,63356,1,2,0:0:0:0:
256,192,63533,1,0,0:0:0:0:
256,192,63798,1,2,0:0:0:0:
256,192,63886,1,0,0:0:0:0:
256,192,64062,1,0,0:0:0:0:
256,192,64239,1,2,0:0:0:0:
256,192,64415,1,0,0:0:0:0:
256,192,64592,1,2,0:0:0:0:
256,192,64680,1,0,0:0:0:0:
256,192,64768,1,0,0:0:0:0:
256,192,64856,1,0,0:0:0:0:
256,192,64945,1,2,0:0:0:0:
256,192,65209,1,2,0:0:0:0:
256,192,65298,1,0,0:0:0:0:
256,192,65474,1,0,0:0:0:0:
256,192,65562,1,2,0:0:0:0:
256,192,65651,1,2,0:0:0:0:
256,192,65827,1,2,0:0:0:0:
256,192,66003,1,0,0:0:0:0:
256,192,66180,1,2,0:0:0:0:
256,192,66356,1,0,0:0:0:0:
256,192,66621,1,0,0:0:0:0:
256,192,66709,1,2,0:0:0:0:
256,192,66886,1,0,0:0:0:0:
256,192,67062,1,2,0:0:0:0:
256,192,67239,1,0,0:0:0:0:
256,192,67298,1,0,0:0:0:0:
256,192,67356,1,0,0:0:0:0:
256,192,67415,1,2,0:0:0:0:
256,192,67592,1,0,0:0:0:0:
256,192,67768,1,6,0:0:0:0:
256,192,70592,5,2,0:0:0:0:
256,192,70768,1,0,0:0:0:0:
256,192,71121,1,0,0:0:0:0:
256,192,71298,1,0,0:0:0:0:
256,192,71474,1,0,0:0:0:0:
256,192,71651,1,2,0:0:0:0:
256,192,72180,1,2,0:0:0:0:
256,192,72533,1,0,0:0:0:0:
256,192,73062,1,0,0:0:0:0:
256,192,73415,1,2,0:0:0:0:
256,192,73592,1,0,0:0:0:0:
256,192,73945,1,0,0:0:0:0:
256,192,74121,1,2,0:0:0:0:
256,192,74298,1,2,0:0:0:0:
256,192,74474,1,0,0:0:0:0:
256,192,75003,1,2,0:0:0:0:
256,192,75356,1,0,0:0:0:0:
256,192,75533,1,2,0:0:0:0:
256,192,75886,1,2,0:0:0:0:
256,192,76239,1,2,0:0:0:0:
256,192,76415,1,0,0:0:0:0:
256,192,76768,1,0,0:0:0:0:
256,192,76945,1,2,0:0:0:0:
256,192,77121,1,0,0:0:0:0:
256,192,77298,1,2,0:0:0:0:
256,192,77827,1,2,0:0:0:0:
256,192,78180,1,0,0:0:0:0:
256,192,78709,1,0,0:0:0:0:
256,192,79062,1,2,0:0:0:0:
256,192,79239,1,0,0:0:0:0:
256,192,79592,1,0,0:0:0:0:
256,192,79768,1,0,0:0:0:0:
256,192,79945,1,2,0:0:0:0:
256,192,80121,1,0,0:0:0:0:
256,192,80474,1,0,0:0:0:0:
256,192,80827,1,2,0:0:0:0:
256,192,81356,1,2,0:0:0:0:
256,192,81533,1,0,0:0:0:0:
256,192,81886,1,6,0:0:0:0:
256,192,82239,1,0,0:0:0:0:
256,192,82592,1,0,0:0:0:0:
256,192,82945,1,0,0:0:0:0:
256,192,83298,1,0,0:0:0:0:
256,192,83651,1,0,0:0:0:0:
256,192,84003,1,0,0:0:0:0:
256,192,84356,1,0,0:0:0:0:
256,192,84709,1,6,0:0:0:0:
256,192,85062,1,0,0:0:0:0:
256,192,85415,1,0,0:0:0:0:
256,192,85768,1,0,0:0:0:0:
256,192,86121,1,0,0:0:0:0:
256,192,86474,1,0,0:0:0:0:
256,192,86827,1,0,0:0:0:0:
256,192,87180,1,0,0:0:0:0:
256,192,87533,1,6,0:0:0:0:
256,192,87709,1,0,0:0:0:0:
256,192,87886,1,0,0:0:0:0:
256,192,88062,1,0,0:0:0:0:
256,192,88239,1,6,0:0:0:0:
256,192,88415,1,0,0:0:0:0:
256,192,88592,1,0,0:0:0:0:
256,192,88768,1,0,0:0:0:0:
256,192,88945,1,6,0:0:0:0:
256,192,89121,1,0,0:0:0:0:
256,192,89298,1,0,0:0:0:0:
256,192,89474,1,0,0:0:0:0:
256,192,89651,1,6,0:0:0:0:
256,192,89827,1,0,0:0:0:0:
256,192,90003,1,0,0:0:0:0:
256,192,90180,1,0,0:0:0:0:
256,192,90356,1,6,0:0:0:0:
256,192,90533,1,0,0:0:0:0:
256,192,90621,1,0,0:0:0:0:
256,192,90709,1,2,0:0:0:0:
256,192,90886,1,2,0:0:0:0:
256,192,90974,1,2,0:0:0:0:
256,192,91062,1,0,0:0:0:0:
256,192,91239,1,0,0:0:0:0:
256,192,91327,1,0,0:0:0:0:
256,192,91415,1,2,0:0:0:0:
256,192,91592,1,2,0:0:0:0:
256,192,91768,1,2,0:0:0:0:
256,192,91856,1,0,0:0:0:0:
256,192,91945,1,2,0:0:0:0:
256,192,92033,1,2,0:0:0:0:
256,192,92121,1,0,0:0:0:0:
256,192,92209,1,2,0:0:0:0:
256,192,92298,1,0,0:0:0:0:
256,192,92386,1,0,0:0:0:0:
256,192,92474,1,2,0:0:0:0:
256,192,92651,1,4,0:0:0:0:
256,192,92827,1,6,0:0:0:0:
256,192,93180,5,4,0:0:0:0:
256,192,93356,1,2,0:0:0:0:
256,192,93445,1,2,0:0:0:0:
256,192,93533,1,0,0:0:0:0:
256,192,93709,1,2,0:0:0:0:
256,192,93886,1,0,0:0:0:0:
256,192,94062,1,0,0:0:0:0:
256,192,94151,1,2,0:0:0:0:
256,192,94239,1,0,0:0:0:0:
256,192,94415,1,2,0:0:0:0:
256,192,94592,1,0,0:0:0:0:
256,192,94680,1,0,0:0:0:0:
256,192,94768,1,2,0:0:0:0:
256,192,94945,1,0,0:0:0:0:
256,192,95121,1,2,0:0:0:0:
256,192,95209,1,2,0:0:0:0:
256,192,95298,1,0,0:0:0:0:
256,192,95474,1,2,0:0:0:0:
256,192,95651,1,0,0:0:0:0:
256,192,95739,1,0,0:0:0:0:
256,192,95827,1,2,0:0:0:0:
256,192,95915,1,2,0:0:0:0:
256,192,96003,1,0,0:0:0:0:
256,192,96180,1,2,0:0:0:0:
256,192,96268,1,0,0:0:0:0:
256,192,96356,1,0,0:0:0:0:
256,192,96533,1,2,0:0:0:0:
256,192,96709,1,0,0:0:0:0:
256,192,96886,1,2,0:0:0:0:
256,192,96974,1,2,0:0:0:0:
256,192,97062,1,0,0:0:0:0:
256,192,97151,1,2,0:0:0:0:
256,192,97327,1,2,0:0:0:0:
256,192,97415,1,0,0:0:0:0:
256,192,97592,1,2,0:0:0:0:
256,192,97680,1,2,0:0:0:0:
256,192,97768,1,0,0:0:0:0:
256,192,97945,1,2,0:0:0:0:
256,192,98121,1,0,0:0:0:0:
256,192,98209,1,0,0:0:0:0:
256,192,98298,1,2,0:0:0:0:
256,192,98386,1,2,0:0:0:0:
256,192,98474,1,0,0:0:0:0:
256,192,98562,1,2,0:0:0:0:
256,192,98651,1,0,0:0:0:0:
256,192,98827,1,0,0:0:0:0:
256,192,99003,1,2,0:0:0:0:
256,192,99180,1,0,0:0:0:0:
256,192,99356,1,2,0:0:0:0:
256,192,99445,1,2,0:0:0:0:
256,192,99533,1,0,0:0:0:0:
256,192,99621,1,0,0:0:0:0:
256,192,99709,1,2,0:0:0:0:
256,192,99886,1,0,0:0:0:0:
256,192,100062,1,2,0:0:0:0:
256,192,100151,1,2,0:0:0:0:
256,192,100239,1,0,0:0:0:0:
256,192,100415,1,2,0:0:0:0:
256,192,100592,1,0,0:0:0:0:
256,192,100680,1,0,0:0:0:0:
256,192,100768,1,2,0:0:0:0:
256,192,100945,1,0,0:0:0:0:
256,192,101033,1,2,0:0:0:0:
256,192,101121,1,2,0:0:0:0:
275,233,101209,1,2,0:0:0:0:
256,192,101298,1,0,0:0:0:0:
256,192,101474,1,0,0:0:0:0:
256,192,101651,1,0,0:0:0:0:
256,192,101739,1,0,0:0:0:0:
256,192,101827,1,2,0:0:0:0:
256,192,102003,1,0,0:0:0:0:
256,192,102180,1,2,0:0:0:0:
256,192,102356,1,0,0:0:0:0:
256,192,102445,1,2,0:0:0:0:
256,192,102621,1,2,0:0:0:0:
256,192,102709,1,0,0:0:0:0:
256,192,102798,1,2,0:0:0:0:
256,192,102886,1,2,0:0:0:0:
256,192,103062,1,0,0:0:0:0:
256,192,103151,1,2,0:0:0:0:
256,192,103239,1,2,0:0:0:0:
256,192,103327,1,2,0:0:0:0:
256,192,103415,1,0,0:0:0:0:
256,192,103503,1,2,0:0:0:0:
256,192,103680,1,2,0:0:0:0:
256,192,103768,1,0,0:0:0:0:
256,192,103945,1,0,0:0:0:0:
256,192,104121,1,2,0:0:0:0:
256,192,104474,1,4,0:0:0:0:
256,192,104651,1,2,0:0:0:0:
256,192,104739,1,2,0:0:0:0:
256,192,104827,1,0,0:0:0:0:
256,192,105003,1,2,0:0:0:0:
256,192,105180,1,0,0:0:0:0:
256,192,105356,1,0,0:0:0:0:
256,192,105445,1,2,0:0:0:0:
256,192,105533,1,0,0:0:0:0:
256,192,105709,1,2,0:0:0:0:
256,192,105886,1,0,0:0:0:0:
256,192,105974,1,0,0:0:0:0:
256,192,106062,1,2,0:0:0:0:
256,192,106239,1,0,0:0:0:0:
256,192,106415,1,2,0:0:0:0:
256,192,106503,1,2,0:0:0:0:
256,192,106592,1,0,0:0:0:0:
256,192,106680,1,0,0:0:0:0:
256,192,106768,1,2,0:0:0:0:
256,192,106945,1,0,0:0:0:0:
256,192,107033,1,0,0:0:0:0:
256,192,107121,1,2,0:0:0:0:
256,192,107209,1,2,0:0:0:0:
256,192,107298,1,0,0:0:0:0:
256,192,107474,1,2,0:0:0:0:
256,192,107562,1,0,0:0:0:0:
256,192,107651,1,0,0:0:0:0:
256,192,107827,1,2,0:0:0:0:
256,192,108003,1,0,0:0:0:0:
256,192,108180,1,2,0:0:0:0:
256,192,108268,1,2,0:0:0:0:
256,192,108356,1,0,0:0:0:0:
256,192,108445,1,2,0:0:0:0:
256,192,108621,1,2,0:0:0:0:
256,192,108709,1,0,0:0:0:0:
256,192,108886,1,2,0:0:0:0:
256,192,108974,1,0,0:0:0:0:
256,192,109062,1,0,0:0:0:0:
256,192,109239,1,2,0:0:0:0:
256,192,109415,1,0,0:0:0:0:
210,196,109503,1,0,0:0:0:0:
256,192,109592,1,2,0:0:0:0:
210,196,109680,1,0,0:0:0:0:
256,192,109768,1,2,0:0:0:0:
256,192,109856,1,2,0:0:0:0:
256,192,109945,1,2,0:0:0:0:
256,192,110033,1,2,0:0:0:0:
256,192,110121,1,0,0:0:0:0:
256,192,110298,1,0,0:0:0:0:
256,192,110386,1,2,0:0:0:0:
256,192,110474,1,0,0:0:0:0:
256,192,110651,1,2,0:0:0:0:
256,192,110827,1,0,0:0:0:0:
256,192,111003,1,2,0:0:0:0:
256,192,111092,1,2,0:0:0:0:
256,192,111180,1,0,0:0:0:0:
256,192,111356,1,2,0:0:0:0:
256,192,111533,1,0,0:0:0:0:
256,192,111621,1,0,0:0:0:0:
256,192,111709,1,2,0:0:0:0:
256,192,111886,1,0,0:0:0:0:
256,192,112062,1,2,0:0:0:0:
256,192,112151,1,2,0:0:0:0:
256,192,112239,1,0,0:0:0:0:
256,192,112415,1,2,0:0:0:0:
256,192,112503,1,0,0:0:0:0:
256,192,112592,1,0,0:0:0:0:
256,192,112680,1,0,0:0:0:0:
256,192,112768,1,2,0:0:0:0:
256,192,112945,1,0,0:0:0:0:
256,192,113033,1,0,0:0:0:0:
256,192,113121,1,2,0:0:0:0:
256,192,113298,1,0,0:0:0:0:
256,192,113386,1,0,0:0:0:0:
256,192,113474,1,2,0:0:0:0:
256,192,113562,1,2,0:0:0:0:
256,192,113651,1,0,0:0:0:0:
256,192,113827,1,0,0:0:0:0:
256,192,113915,1,0,0:0:0:0:
256,192,114003,1,2,0:0:0:0:
256,192,114092,1,0,0:0:0:0:
256,192,114180,1,2,0:0:0:0:
256,192,114356,1,0,0:0:0:0:
256,192,114445,1,0,0:0:0:0:
256,192,114533,1,2,0:0:0:0:
256,192,114621,1,0,0:0:0:0:
256,192,114709,1,2,0:0:0:0:
256,192,114798,1,2,0:0:0:0:
256,192,114886,1,0,0:0:0:0:
256,192,114974,1,2,0:0:0:0:
256,192,115062,1,0,0:0:0:0:
256,192,115151,1,0,0:0:0:0:
256,192,115239,1,0,0:0:0:0:
256,192,115415,1,6,0:0:0:0:
256,192,115768,5,4,0:0:0:0:
256,192,116033,1,2,0:0:0:0:
256,192,116121,1,0,0:0:0:0:
256,192,116298,1,2,0:0:0:0:
256,192,116474,1,0,0:0:0:0:
256,192,116562,1,0,0:0:0:0:
256,192,116651,1,2,0:0:0:0:
256,192,116827,1,0,0:0:0:0:
256,192,117003,1,0,0:0:0:0:
256,192,117092,1,2,0:0:0:0:
256,192,117180,1,0,0:0:0:0:
256,192,117356,1,2,0:0:0:0:
256,192,117445,1,2,0:0:0:0:
256,192,117533,1,0,0:0:0:0:
256,192,117709,1,2,0:0:0:0:
256,192,117886,1,0,0:0:0:0:
256,192,117974,1,0,0:0:0:0:
256,192,118062,1,2,0:0:0:0:
256,192,118239,1,0,0:0:0:0:
256,192,118327,1,0,0:0:0:0:
256,192,118415,1,2,0:0:0:0:
256,192,118503,1,2,0:0:0:0:
256,192,118592,1,0,0:0:0:0:
256,192,118768,1,2,0:0:0:0:
256,192,118856,1,0,0:0:0:0:
256,192,118945,1,0,0:0:0:0:
256,192,119121,1,2,0:0:0:0:
256,192,119298,1,0,0:0:0:0:
256,192,119386,1,0,0:0:0:0:
256,192,119474,1,2,0:0:0:0:
256,192,119651,1,0,0:0:0:0:
256,192,119827,1,0,0:0:0:0:
256,192,119915,1,8,0:0:0:0:
256,192,120003,1,0,0:0:0:0:
256,192,120180,1,2,0:0:0:0:
256,192,120268,1,2,0:0:0:0:
256,192,120356,1,0,0:0:0:0:
256,192,120533,1,0,0:0:0:0:
256,192,120621,1,2,0:0:0:0:
256,192,120709,1,0,0:0:0:0:
256,192,120798,1,0,0:0:0:0:
256,192,120886,1,2,0:0:0:0:
256,192,121062,1,0,0:0:0:0:
256,192,121239,1,0,0:0:0:0:
256,192,121327,1,0,0:0:0:0:
256,192,121415,1,8,0:0:0:0:
256,192,121592,1,8,0:0:0:0:
256,192,121768,1,0,0:0:0:0:
256,192,121856,1,2,0:0:0:0:
256,192,122033,1,8,0:0:0:0:
256,192,122121,1,0,0:0:0:0:
256,192,122209,1,0,0:0:0:0:
256,192,122298,1,2,0:0:0:0:
256,192,122474,1,8,0:0:0:0:
256,192,122651,1,0,0:0:0:0:
256,192,122827,1,0,0:0:0:0:
256,192,122915,1,0,0:0:0:0:
256,192,123003,1,0,0:0:0:0:
256,192,123180,1,2,0:0:0:0:
256,192,123356,1,0,0:0:0:0:
256,192,123445,1,0,0:0:0:0:
256,192,123533,1,8,0:0:0:0:
256,192,123621,1,0,0:0:0:0:
256,192,123709,1,2,0:0:0:0:
256,192,123886,1,8,0:0:0:0:
256,192,123974,1,0,0:0:0:0:
256,192,124062,1,0,0:0:0:0:
256,192,124239,1,10,0:0:0:0:
256,192,124415,1,8,0:0:0:0:
256,192,124503,1,2,0:0:0:0:
256,192,124592,1,0,0:0:0:0:
256,192,124768,1,2,0:0:0:0:
256,192,124945,1,0,0:0:0:0:
256,192,125121,1,0,0:0:0:0:
256,192,125209,1,8,0:0:0:0:
256,192,125298,1,2,0:0:0:0:
256,192,125386,1,0,0:0:0:0:
256,192,125474,1,8,0:0:0:0:
256,192,125651,1,0,0:0:0:0:
256,192,125739,1,2,0:0:0:0:
256,192,125915,1,2,0:0:0:0:
256,192,126003,1,0,0:0:0:0:
256,192,126180,1,2,0:0:0:0:
256,192,126356,1,0,0:0:0:0:
256,192,126445,1,0,0:0:0:0:
256,192,126533,1,8,0:0:0:0:
256,192,126621,1,0,0:0:0:0:
256,192,126709,1,8,0:0:0:0:
256,192,126798,1,8,0:0:0:0:
256,192,126886,1,8,0:0:0:0:
256,192,126974,1,2,0:0:0:0:
256,192,127062,1,0,0:0:0:0:
256,192,127327,1,2,0:0:0:0:
256,192,127415,1,0,0:0:0:0:
256,192,127592,1,2,0:0:0:0:
256,192,127768,1,0,0:0:0:0:
256,192,127856,1,0,0:0:0:0:
256,192,127945,1,2,0:0:0:0:
256,192,128033,1,8,0:0:0:0:
256,192,128121,1,0,0:0:0:0:
256,192,128298,1,0,0:0:0:0:
256,192,128386,1,2,0:0:0:0:
256,192,128474,1,0,0:0:0:0:
256,192,128651,1,2,0:0:0:0:
256,192,128739,1,2,0:0:0:0:
256,192,128827,1,0,0:0:0:0:
256,192,128915,1,0,0:0:0:0:
256,192,129003,1,8,0:0:0:0:
256,192,129180,1,8,0:0:0:0:
256,192,129268,1,8,0:0:0:0:
256,192,129356,1,0,0:0:0:0:
256,192,129533,1,8,0:0:0:0:
256,192,129621,1,0,0:0:0:0:
256,192,129709,1,8,0:0:0:0:
256,192,129798,1,8,0:0:0:0:
256,192,129886,1,0,0:0:0:0:
256,192,129974,1,8,0:0:0:0:
256,192,130151,1,8,0:0:0:0:
256,192,130239,1,0,0:0:0:0:
256,192,130415,1,2,0:0:0:0:
256,192,130592,1,0,0:0:0:0:
256,192,130680,1,0,0:0:0:0:
256,192,130768,1,8,0:0:0:0:
256,192,130856,1,0,0:0:0:0:
256,192,130945,1,0,0:0:0:0:
256,192,131121,1,0,0:0:0:0:
256,192,131209,1,2,0:0:0:0:
256,192,131298,1,0,0:0:0:0:
256,192,131474,1,8,0:0:0:0:
256,192,131562,1,8,0:0:0:0:
256,192,131651,1,0,0:0:0:0:
256,192,131739,1,2,0:0:0:0:
256,192,131827,1,0,0:0:0:0:
256,192,132003,1,0,0:0:0:0:
256,192,132092,1,0,0:0:0:0:
256,192,132180,1,8,0:0:0:0:
256,192,132356,1,0,0:0:0:0:
256,192,132445,1,8,0:0:0:0:
256,192,132533,1,8,0:0:0:0:
256,192,132621,1,2,0:0:0:0:
256,192,132709,1,0,0:0:0:0:
256,192,132886,1,8,0:0:0:0:
256,192,133062,1,0,0:0:0:0:
256,192,133151,1,0,0:0:0:0:
256,192,133239,1,0,0:0:0:0:
256,192,133327,1,0,0:0:0:0:
256,192,133415,1,2,0:0:0:0:
256,192,133592,1,2,0:0:0:0:
256,192,133768,1,0,0:0:0:0:
256,192,133856,1,0,0:0:0:0:
256,192,133945,1,2,0:0:0:0:
256,192,134121,1,0,0:0:0:0:
256,192,134298,1,2,0:0:0:0:
256,192,134474,1,0,0:0:0:0:
256,192,134562,1,0,0:0:0:0:
256,192,134651,1,0,0:0:0:0:
256,192,134827,1,0,0:0:0:0:
256,192,134915,1,0,0:0:0:0:
256,192,135003,1,2,0:0:0:0:
256,192,135180,1,0,0:0:0:0:
256,192,135268,1,2,0:0:0:0:
256,192,135356,1,2,0:0:0:0:
256,192,135533,1,0,0:0:0:0:
256,192,135621,1,0,0:0:0:0:
256,192,135709,1,0,0:0:0:0:
256,192,135798,1,0,0:0:0:0:
256,192,135886,1,2,0:0:0:0:
256,192,135974,1,0,0:0:0:0:
256,192,136062,1,0,0:0:0:0:
256,192,136151,1,0,0:0:0:0:
256,192,136239,1,2,0:0:0:0:
256,192,136327,1,0,0:0:0:0:
256,192,136415,1,0,0:0:0:0:
256,192,136503,1,2,0:0:0:0:
256,192,136592,1,0,0:0:0:0:
256,192,136680,1,0,0:0:0:0:
256,192,136768,1,2,0:0:0:0:
256,192,136856,1,2,0:0:0:0:
256,192,136945,1,0,0:0:0:0:
256,192,137121,1,2,0:0:0:0:
256,192,137209,1,0,0:0:0:0:
256,192,137298,1,2,0:0:0:0:
256,192,137386,1,2,0:0:0:0:
256,192,137474,1,0,0:0:0:0:
256,192,137651,1,2,0:0:0:0:
256,192,137739,1,2,0:0:0:0:
256,192,137827,1,0,0:0:0:0:
256,192,137915,1,2,0:0:0:0:
256,192,138003,1,0,0:0:0:0:
256,192,138092,1,0,0:0:0:0:
256,192,138180,1,2,0:0:0:0:
256,192,138239,1,0,0:0:0:0:
256,192,138297,1,0,0:0:0:0:
256,192,138356,5,2,0:0:0:0:
256,192,138533,1,2,0:0:0:0:
256,192,138621,1,2,0:0:0:0:
256,192,138709,1,0,0:0:0:0:
256,192,138886,1,0,0:0:0:0:
256,192,139062,1,2,0:0:0:0:
256,192,139151,1,0,0:0:0:0:
256,192,139239,1,0,0:0:0:0:
256,192,139415,1,0,0:0:0:0:
256,192,139592,1,2,0:0:0:0:
256,192,139768,1,0,0:0:0:0:
256,192,139856,1,0,0:0:0:0:
256,192,139945,1,2,0:0:0:0:
256,192,140121,1,0,0:0:0:0:
256,192,140298,1,2,0:0:0:0:
256,192,140474,1,0,0:0:0:0:
256,192,140562,1,0,0:0:0:0:
256,192,140651,1,2,0:0:0:0:
256,192,140739,1,2,0:0:0:0:
256,192,140827,1,0,0:0:0:0:
256,192,141003,1,2,0:0:0:0:
256,192,141092,1,2,0:0:0:0:
256,192,141180,1,0,0:0:0:0:
256,192,141356,1,2,0:0:0:0:
256,192,141533,1,0,0:0:0:0:
256,192,141709,1,0,0:0:0:0:
256,192,141798,1,0,0:0:0:0:
256,192,141886,1,2,0:0:0:0:
256,192,141974,1,0,0:0:0:0:
256,192,142062,1,2,0:0:0:0:
256,192,142239,1,0,0:0:0:0:
256,192,142415,1,2,0:0:0:0:
256,192,142592,1,0,0:0:0:0:
256,192,142680,1,2,0:0:0:0:
256,192,142768,1,2,0:0:0:0:
256,192,142856,1,2,0:0:0:0:
256,192,142945,1,0,0:0:0:0:
256,192,143121,1,2,0:0:0:0:
256,192,143298,1,0,0:0:0:0:
256,192,143386,1,2,0:0:0:0:
256,192,143562,1,2,0:0:0:0:
256,192,143651,1,0,0:0:0:0:
256,192,143827,1,0,0:0:0:0:
256,192,144003,1,0,0:0:0:0:
256,192,144180,1,2,0:0:0:0:
256,192,144268,1,2,0:0:0:0:
256,192,144356,1,0,0:0:0:0:
256,192,144533,1,0,0:0:0:0:
256,192,144709,1,2,0:0:0:0:
256,192,144798,1,0,0:0:0:0:
256,192,144886,1,0,0:0:0:0:
256,192,145062,1,0,0:0:0:0:
256,192,145239,1,2,0:0:0:0:
256,192,145415,1,0,0:0:0:0:
256,192,145592,1,2,0:0:0:0:
256,192,145680,1,2,0:0:0:0:
256,192,145768,1,0,0:0:0:0:
256,192,145945,1,0,0:0:0:0:
256,192,146121,1,0,0:0:0:0:
256,192,146209,1,2,0:0:0:0:
256,192,146386,1,2,0:0:0:0:
256,192,146474,1,0,0:0:0:0:
256,192,146651,1,2,0:0:0:0:
256,192,146739,1,2,0:0:0:0:
256,192,146827,1,0,0:0:0:0:
256,192,147003,1,2,0:0:0:0:
256,192,147180,1,0,0:0:0:0:
256,192,147356,1,0,0:0:0:0:
256,192,147445,1,0,0:0:0:0:
256,192,147533,1,2,0:0:0:0:
256,192,147621,1,0,0:0:0:0:
256,192,147709,1,2,0:0:0:0:
256,192,147886,1,0,0:0:0:0:
256,192,148062,1,2,0:0:0:0:
256,192,148239,1,0,0:0:0:0:
256,192,148327,1,2,0:0:0:0:
256,192,148415,1,2,0:0:0:0:
256,192,148503,1,2,0:0:0:0:
256,192,148592,1,0,0:0:0:0:
256,192,148768,1,2,0:0:0:0:
256,192,148945,1,0,0:0:0:0:
256,192,149033,1,2,0:0:0:0:
256,192,149209,1,2,0:0:0:0:
256,192,149298,1,0,0:0:0:0:
256,192,149474,1,2,0:0:0:0:
256,192,149562,1,2,0:0:0:0:
256,192,149651,1,0,0:0:0:0:
256,192,149827,1,0,0:0:0:0:
256,192,149915,1,2,0:0:0:0:
256,192,150003,1,0,0:0:0:0:
256,192,150180,1,0,0:0:0:0:
256,192,150356,1,2,0:0:0:0:
256,192,150445,1,0,0:0:0:0:
256,192,150533,1,0,0:0:0:0:
256,192,150709,1,0,0:0:0:0:
256,192,150886,1,2,0:0:0:0:
256,192,151062,1,0,0:0:0:0:
256,192,151151,1,0,0:0:0:0:
256,192,151239,1,2,0:0:0:0:
256,192,151415,1,0,0:0:0:0:
256,192,151592,1,2,0:0:0:0:
256,192,151680,1,2,0:0:0:0:
256,192,151768,1,0,0:0:0:0:
256,192,151856,1,2,0:0:0:0:
256,192,151945,1,2,0:0:0:0:
256,192,152033,1,0,0:0:0:0:
256,192,152121,1,0,0:0:0:0:
256,192,152298,1,2,0:0:0:0:
256,192,152474,1,0,0:0:0:0:
256,192,152651,1,2,0:0:0:0:
256,192,152739,1,2,0:0:0:0:
256,192,152827,1,0,0:0:0:0:
256,192,153003,1,0,0:0:0:0:
256,192,153180,1,2,0:0:0:0:
256,192,153268,1,2,0:0:0:0:
256,192,153445,1,2,0:0:0:0:
256,192,153533,1,0,0:0:0:0:
256,192,153709,1,2,0:0:0:0:
256,192,153886,1,0,0:0:0:0:
256,192,153974,1,2,0:0:0:0:
256,192,154062,1,2,0:0:0:0:
256,192,154151,1,2,0:0:0:0:
256,192,154239,1,0,0:0:0:0:
256,192,154327,1,0,0:0:0:0:
256,192,154415,1,2,0:0:0:0:
256,192,154592,1,0,0:0:0:0:
256,192,154680,1,0,0:0:0:0:
256,192,154768,1,0,0:0:0:0:
256,192,154856,1,2,0:0:0:0:
256,192,154945,1,0,0:0:0:0:
256,192,155121,1,0,0:0:0:0:
256,192,155298,1,2,0:0:0:0:
256,192,155474,1,0,0:0:0:0:
256,192,155562,1,0,0:0:0:0:
256,192,155651,1,2,0:0:0:0:
256,192,155827,1,0,0:0:0:0:
256,192,156003,1,2,0:0:0:0:
256,192,156092,1,0,0:0:0:0:
256,192,156180,1,2,0:0:0:0:
256,192,156268,1,0,0:0:0:0:
256,192,156356,1,2,0:0:0:0:
256,192,156533,1,0,0:0:0:0:
256,192,156709,1,2,0:0:0:0:
256,192,156886,1,2,0:0:0:0:
256,192,156974,1,0,0:0:0:0:
256,192,157062,1,2,0:0:0:0:
256,192,157239,1,0,0:0:0:0:
256,192,157415,1,2,0:0:0:0:
256,192,157503,1,0,0:0:0:0:
256,192,157592,1,0,0:0:0:0:
256,192,157680,1,2,0:0:0:0:
256,192,157768,1,0,0:0:0:0:
256,192,157945,1,0,0:0:0:0:
256,192,158121,1,2,0:0:0:0:
256,192,158209,1,0,0:0:0:0:
256,192,158298,1,2,0:0:0:0:
256,192,158386,1,0,0:0:0:0:
256,192,158474,1,2,0:0:0:0:
256,192,158562,1,2,0:0:0:0:
256,192,158651,1,0,0:0:0:0:
256,192,158739,1,2,0:0:0:0:
256,192,158827,1,2,0:0:0:0:
256,192,158915,1,0,0:0:0:0:
256,192,159003,1,2,0:0:0:0:
256,192,159092,1,2,0:0:0:0:
256,192,159180,1,0,0:0:0:0:
256,192,159268,1,0,0:0:0:0:
256,192,159356,1,2,0:0:0:0:
256,192,159445,1,2,0:0:0:0:
256,192,159533,1,0,0:0:0:0:
256,192,159709,12,0,160768,0:0:0:0:
256,192,160945,5,6,0:0:0:0:
256,192,162356,5,0,0:0:0:0:
256,192,162533,1,0,0:0:0:0:
256,192,162709,1,2,0:0:0:0:
256,192,162886,1,0,0:0:0:0:
256,192,163062,1,2,0:0:0:0:
256,192,165180,1,0,0:0:0:0:
256,192,165356,1,0,0:0:0:0:
256,192,165533,1,2,0:0:0:0:
256,192,165709,1,2,0:0:0:0:
256,192,165886,1,0,0:0:0:0:
256,192,168003,1,0,0:0:0:0:
256,192,168180,1,2,0:0:0:0:
256,192,168356,1,2,0:0:0:0:
256,192,168533,1,0,0:0:0:0:
256,192,168709,1,2,0:0:0:0:
256,192,170827,1,0,0:0:0:0:
256,192,171003,1,0,0:0:0:0:
256,192,171180,1,2,0:0:0:0:
256,192,171356,1,0,0:0:0:0:
256,192,171533,1,0,0:0:0:0:
256,192,171886,1,0,0:0:0:0:
256,192,172239,1,6,0:0:0:0:
256,192,173651,1,0,0:0:0:0:
256,192,173827,1,2,0:0:0:0:
256,192,174003,1,0,0:0:0:0:
256,192,174180,1,0,0:0:0:0:
256,192,174356,1,2,0:0:0:0:
255,194,176474,1,0,0:0:0:0:
255,194,176651,1,0,0:0:0:0:
255,194,176827,1,0,0:0:0:0:
255,194,177003,1,2,0:0:0:0:
255,194,177180,1,0,0:0:0:0:
256,192,179298,1,0,0:0:0:0:
256,192,179474,1,2,0:0:0:0:
256,192,179651,1,0,0:0:0:0:
256,192,179827,1,2,0:0:0:0:
256,192,180003,1,2,0:0:0:0:
256,192,180709,1,0,0:0:0:0:
256,192,181062,1,2,0:0:0:0:
256,192,181768,1,2,0:0:0:0:
256,192,182121,1,0,0:0:0:0:
256,192,182298,1,2,0:0:0:0:
256,192,182474,1,2,0:0:0:0:
256,192,182651,1,2,0:0:0:0:
256,192,182827,1,0,0:0:0:0:
256,192,183003,1,0,0:0:0:0:
256,192,183062,1,0,0:0:0:0:
256,192,183121,1,2,0:0:0:0:
256,192,183180,1,2,0:0:0:0:
256,192,183356,1,2,0:0:0:0:
256,192,183533,5,0,0:0:0:0:
256,192,184062,1,0,0:0:0:0:
256,192,184592,1,0,0:0:0:0:
256,192,185121,1,0,0:0:0:0:
256,192,185474,1,0,0:0:0:0:
256,192,185651,1,2,0:0:0:0:
256,192,186003,1,0,0:0:0:0:
256,192,186356,1,2,0:0:0:0:
256,192,186886,1,0,0:0:0:0:
256,192,187415,1,0,0:0:0:0:
256,192,187945,1,0,0:0:0:0:
256,192,188298,1,2,0:0:0:0:
256,192,188474,1,0,0:0:0:0:
256,192,188827,1,2,0:0:0:0:
256,192,189180,1,0,0:0:0:0:
256,192,189709,1,0,0:0:0:0:
256,192,190239,1,0,0:0:0:0:
256,192,190768,1,0,0:0:0:0:
256,192,191121,1,0,0:0:0:0:
256,192,191298,1,2,0:0:0:0:
256,192,191651,1,0,0:0:0:0:
256,192,191827,1,2,0:0:0:0:
256,192,192003,1,0,0:0:0:0:
256,192,192533,1,2,0:0:0:0:
256,192,192709,1,0,0:0:0:0:
256,192,193062,1,0,0:0:0:0:
256,192,193592,1,0,0:0:0:0:
256,192,193768,1,2,0:0:0:0:
256,192,193945,1,2,0:0:0:0:
256,192,194121,1,0,0:0:0:0:
256,192,194474,1,0,0:0:0:0:
256,192,194827,1,0,0:0:0:0:
256,192,195356,1,0,0:0:0:0:
256,192,195533,1,0,0:0:0:0:
256,192,195709,1,2,0:0:0:0:
256,192,195886,1,0,0:0:0:0:
256,192,196239,1,2,0:0:0:0:
256,192,196415,1,0,0:0:0:0:
256,192,196592,1,0,0:0:0:0:
256,192,196945,1,2,0:0:0:0:
256,192,197298,1,0,0:0:0:0:
256,192,197386,1,0,0:0:0:0:
256,192,197474,1,2,0:0:0:0:
256,192,197651,1,0,0:0:0:0:
256,192,198003,1,2,0:0:0:0:
256,192,198180,1,0,0:0:0:0:
256,192,198533,1,0,0:0:0:0:
256,192,198709,1,0,0:0:0:0:
256,192,199239,1,0,0:0:0:0:
256,192,199768,1,0,0:0:0:0:
256,192,200121,1,2,0:0:0:0:
256,192,200298,1,0,0:0:0:0:
256,192,200386,1,0,0:0:0:0:
256,192,200474,1,2,0:0:0:0:
256,192,200827,1,2,0:0:0:0:
256,192,201003,1,0,0:0:0:0:
256,192,201092,1,0,0:0:0:0:
256,192,201180,1,0,0:0:0:0:
256,192,201533,1,0,0:0:0:0:
256,192,201886,1,2,0:0:0:0:
256,192,202062,1,0,0:0:0:0:
256,192,202239,1,0,0:0:0:0:
256,192,202592,1,2,0:0:0:0:
256,192,202945,1,2,0:0:0:0:
256,192,203121,1,0,0:0:0:0:
256,192,203209,1,0,0:0:0:0:
256,192,203298,1,0,0:0:0:0:
256,192,203827,1,0,0:0:0:0:
256,192,204356,1,0,0:0:0:0:
256,192,204886,1,0,0:0:0:0:
256,192,205062,1,2,0:0:0:0:
256,192,205415,1,0,0:0:0:0:
256,192,205592,1,0,0:0:0:0:
256,192,205651,1,0,0:0:0:0:
256,192,205709,1,0,0:0:0:0:
256,192,205768,1,2,0:0:0:0:
256,192,205945,1,0,0:0:0:0:
256,192,206121,1,6,0:0:0:0:
256,192,208945,5,2,0:0:0:0:
256,192,209121,1,0,0:0:0:0:
256,192,209474,1,0,0:0:0:0:
256,192,209651,1,0,0:0:0:0:
256,192,209827,1,0,0:0:0:0:
256,192,210003,1,2,0:0:0:0:
256,192,210533,1,2,0:0:0:0:
256,192,210886,1,0,0:0:0:0:
256,192,211415,1,0,0:0:0:0:
256,192,211768,1,2,0:0:0:0:
256,192,211945,1,0,0:0:0:0:
256,192,212298,1,0,0:0:0:0:
256,192,212474,1,2,0:0:0:0:
256,192,212651,1,2,0:0:0:0:
256,192,212827,1,0,0:0:0:0:
256,192,213356,1,2,0:0:0:0:
256,192,213709,1,0,0:0:0:0:
256,192,213886,1,2,0:0:0:0:
256,192,214239,1,2,0:0:0:0:
256,192,214592,1,2,0:0:0:0:
256,192,214768,1,0,0:0:0:0:
256,192,215121,1,0,0:0:0:0:
256,192,215298,1,2,0:0:0:0:
256,192,215474,1,0,0:0:0:0:
256,192,215651,1,2,0:0:0:0:
256,192,216180,1,2,0:0:0:0:
256,192,216533,1,0,0:0:0:0:
256,192,217062,1,0,0:0:0:0:
256,192,217415,1,2,0:0:0:0:
256,192,217592,1,0,0:0:0:0:
256,192,217945,1,0,0:0:0:0:
256,192,218121,1,0,0:0:0:0:
256,192,218298,1,2,0:0:0:0:
256,192,218474,1,0,0:0:0:0:
256,192,218827,1,0,0:0:0:0:
256,192,219180,1,0,0:0:0:0:
256,192,219709,1,2,0:0:0:0:
256,192,219886,1,0,0:0:0:0:
256,192,220239,1,6,0:0:0:0:
256,192,220415,1,0,0:0:0:0:
256,192,220592,1,0,0:0:0:0:
256,192,220768,1,2,0:0:0:0:
256,192,220945,1,0,0:0:0:0:
256,192,221121,1,0,0:0:0:0:
256,192,221298,1,2,0:0:0:0:
256,192,221474,1,0,0:0:0:0:
256,192,221651,1,0,0:0:0:0:
256,192,221827,1,2,0:0:0:0:
256,192,222003,1,2,0:0:0:0:
256,192,222180,1,0,0:0:0:0:
256,192,222356,1,0,0:0:0:0:
256,192,222709,1,2,0:0:0:0:
256,192,223062,1,6,0:0:0:0:
256,192,223239,1,2,0:0:0:0:
256,192,223415,1,0,0:0:0:0:
256,192,223592,1,2,0:0:0:0:
256,192,223768,1,0,0:0:0:0:
256,192,223945,1,0,0:0:0:0:
256,192,224121,1,2,0:0:0:0:
256,192,224298,1,0,0:0:0:0:
256,192,224474,1,2,0:0:0:0:
256,192,224651,1,2,0:0:0:0:
256,192,224827,1,2,0:0:0:0:
256,192,225003,1,0,0:0:0:0:
256,192,225180,1,2,0:0:0:0:
256,192,225533,1,0,0:0:0:0:
256,192,225886,1,6,0:0:0:0:
256,192,226062,1,0,0:0:0:0:
256,192,226239,1,2,0:0:0:0:
256,192,226415,1,0,0:0:0:0:
256,192,226592,1,6,0:0:0:0:
256,192,226768,1,0,0:0:0:0:
256,192,226945,1,2,0:0:0:0:
256,192,227121,1,0,0:0:0:0:
256,192,227298,1,6,0:0:0:0:
256,192,227474,1,0,0:0:0:0:
256,192,227651,1,2,0:0:0:0:
256,192,227827,1,0,0:0:0:0:
256,192,228003,1,6,0:0:0:0:
256,192,228180,1,0,0:0:0:0:
256,192,228356,1,2,0:0:0:0:
256,192,228533,1,2,0:0:0:0:
256,192,228709,1,6,0:0:0:0:
256,192,228886,1,0,0:0:0:0:
256,192,228974,1,0,0:0:0:0:
256,192,229062,1,2,0:0:0:0:
256,192,229239,1,2,0:0:0:0:
256,192,229327,1,2,0:0:0:0:
256,192,229415,1,0,0:0:0:0:
256,192,229592,1,0,0:0:0:0:
256,192,229680,1,0,0:0:0:0:
256,192,229768,1,2,0:0:0:0:
256,192,229945,1,2,0:0:0:0:
256,192,230033,1,2,0:0:0:0:
256,192,230121,1,2,0:0:0:0:
256,192,230209,1,0,0:0:0:0:
256,192,230298,1,2,0:0:0:0:
256,192,230386,1,2,0:0:0:0:
256,192,230474,1,0,0:0:0:0:
256,192,230562,1,2,0:0:0:0:
256,192,230651,1,0,0:0:0:0:
256,192,230739,1,0,0:0:0:0:
256,192,230827,1,2,0:0:0:0:
256,192,231003,1,4,0:0:0:0:
256,192,231180,1,6,0:0:0:0:
256,192,231533,5,4,0:0:0:0:
256,192,231709,1,2,0:0:0:0:
256,192,231798,1,2,0:0:0:0:
256,192,231886,1,0,0:0:0:0:
256,192,232062,1,2,0:0:0:0:
256,192,232239,1,0,0:0:0:0:
256,192,232327,1,0,0:0:0:0:
256,192,232415,1,2,0:0:0:0:
256,192,232503,1,2,0:0:0:0:
256,192,232592,1,0,0:0:0:0:
256,192,232768,1,2,0:0:0:0:
256,192,232945,1,0,0:0:0:0:
256,192,233033,1,0,0:0:0:0:
256,192,233121,1,2,0:0:0:0:
256,192,233298,1,0,0:0:0:0:
256,192,233474,1,2,0:0:0:0:
256,192,233562,1,2,0:0:0:0:
256,192,233651,1,0,0:0:0:0:
256,192,233827,1,2,0:0:0:0:
256,192,234003,1,0,0:0:0:0:
256,192,234092,1,0,0:0:0:0:
256,192,234180,1,2,0:0:0:0:
256,192,234268,1,2,0:0:0:0:
256,192,234356,1,0,0:0:0:0:
256,192,234533,1,0,0:0:0:0:
256,192,234621,1,2,0:0:0:0:
256,192,234709,1,0,0:0:0:0:
256,192,234886,1,2,0:0:0:0:
256,192,235062,1,0,0:0:0:0:
256,192,235239,1,2,0:0:0:0:
256,192,235327,1,2,0:0:0:0:
256,192,235415,1,0,0:0:0:0:
256,192,235592,1,2,0:0:0:0:
256,192,235768,1,0,0:0:0:0:
256,192,235856,1,0,0:0:0:0:
256,192,235945,1,2,0:0:0:0:
256,192,236033,1,2,0:0:0:0:
256,192,236121,1,0,0:0:0:0:
256,192,236209,1,2,0:0:0:0:
256,192,236386,1,2,0:0:0:0:
256,192,236474,1,0,0:0:0:0:
256,192,236651,1,2,0:0:0:0:
256,192,236827,1,0,0:0:0:0:
256,192,236915,1,0,0:0:0:0:
256,192,237003,1,2,0:0:0:0:
256,192,237092,1,2,0:0:0:0:
256,192,237180,1,0,0:0:0:0:
256,192,237268,1,2,0:0:0:0:
256,192,237356,1,0,0:0:0:0:
256,192,237533,1,0,0:0:0:0:
256,192,237709,1,2,0:0:0:0:
256,192,237886,1,0,0:0:0:0:
256,192,237974,1,0,0:0:0:0:
256,192,238062,1,2,0:0:0:0:
256,192,238239,1,0,0:0:0:0:
256,192,238327,1,2,0:0:0:0:
256,192,238503,1,2,0:0:0:0:
256,192,238592,1,0,0:0:0:0:
256,192,238768,1,2,0:0:0:0:
256,192,238945,1,0,0:0:0:0:
256,192,239033,1,0,0:0:0:0:
256,192,239121,1,2,0:0:0:0:
256,192,239298,1,0,0:0:0:0:
256,192,239386,1,2,0:0:0:0:
256,192,239474,1,2,0:0:0:0:
256,192,239562,1,2,0:0:0:0:
256,192,239651,1,0,0:0:0:0:
256,192,239739,1,2,0:0:0:0:
256,192,239827,1,0,0:0:0:0:
256,192,239915,1,0,0:0:0:0:
256,192,240003,1,2,0:0:0:0:
256,192,240180,1,0,0:0:0:0:
256,192,240268,1,2,0:0:0:0:
256,192,240356,1,0,0:0:0:0:
256,192,240533,1,0,0:0:0:0:
256,192,240709,1,0,0:0:0:0:
256,192,240798,1,0,0:0:0:0:
256,192,240886,1,2,0:0:0:0:
256,192,240974,1,2,0:0:0:0:
256,192,241062,1,0,0:0:0:0:
256,192,241239,1,2,0:0:0:0:
256,192,241415,1,0,0:0:0:0:
256,192,241503,1,2,0:0:0:0:
256,192,241592,1,2,0:0:0:0:
256,192,241680,1,2,0:0:0:0:
256,192,241768,1,0,0:0:0:0:
256,192,241856,1,2,0:0:0:0:
256,192,242033,1,2,0:0:0:0:
256,192,242121,1,0,0:0:0:0:
256,192,242298,1,0,0:0:0:0:
256,192,242386,1,0,0:0:0:0:
256,192,242474,1,2,0:0:0:0:
256,192,242827,1,4,0:0:0:0:
256,192,243003,1,2,0:0:0:0:
256,192,243092,1,2,0:0:0:0:
256,192,243180,1,0,0:0:0:0:
256,192,243356,1,2,0:0:0:0:
256,192,243533,1,0,0:0:0:0:
256,192,243621,1,2,0:0:0:0:
256,192,243709,1,2,0:0:0:0:
256,192,243798,1,0,0:0:0:0:
256,192,243886,1,0,0:0:0:0:
256,192,244062,1,2,0:0:0:0:
256,192,244151,1,2,0:0:0:0:
256,192,244239,1,0,0:0:0:0:
256,192,244327,1,0,0:0:0:0:
256,192,244415,1,2,0:0:0:0:
256,192,244592,1,0,0:0:0:0:
256,192,244680,1,0,0:0:0:0:
256,192,244768,1,2,0:0:0:0:
256,192,244856,1,0,0:0:0:0:
256,192,244945,1,0,0:0:0:0:
256,192,245121,1,2,0:0:0:0:
256,192,245209,1,0,0:0:0:0:
256,192,245298,1,2,0:0:0:0:
256,192,245386,1,0,0:0:0:0:
256,192,245474,1,0,0:0:0:0:
256,192,245651,1,2,0:0:0:0:
256,192,245739,1,2,0:0:0:0:
256,192,245827,1,0,0:0:0:0:
256,192,246003,1,0,0:0:0:0:
256,192,246092,1,0,0:0:0:0:
256,192,246180,1,2,0:0:0:0:
256,192,246356,1,0,0:0:0:0:
256,192,246533,1,2,0:0:0:0:
256,192,246621,1,2,0:0:0:0:
256,192,246709,1,0,0:0:0:0:
256,192,246798,1,2,0:0:0:0:
256,192,246974,1,2,0:0:0:0:
256,192,247062,1,0,0:0:0:0:
256,192,247239,1,2,0:0:0:0:
256,192,247415,1,0,0:0:0:0:
256,192,247503,1,0,0:0:0:0:
256,192,247592,1,2,0:0:0:0:
256,192,247680,1,2,0:0:0:0:
256,192,247768,1,0,0:0:0:0:
256,192,247856,1,2,0:0:0:0:
256,192,247945,1,0,0:0:0:0:
256,192,248121,1,0,0:0:0:0:
256,192,248386,1,2,0:0:0:0:
256,192,248474,1,0,0:0:0:0:
256,192,248651,1,0,0:0:0:0:
256,192,248739,1,2,0:0:0:0:
256,192,248827,1,0,0:0:0:0:
256,192,249003,1,2,0:0:0:0:
256,192,249180,1,0,0:0:0:0:
256,192,249268,1,0,0:0:0:0:
256,192,249356,1,2,0:0:0:0:
256,192,249533,1,0,0:0:0:0:
256,192,249621,1,2,0:0:0:0:
256,192,249798,1,2,0:0:0:0:
256,192,249886,1,0,0:0:0:0:
256,192,250062,1,2,0:0:0:0:
256,192,250239,1,0,0:0:0:0:
256,192,250327,1,0,0:0:0:0:
256,192,250415,1,2,0:0:0:0:
256,192,250592,1,0,0:0:0:0:
256,192,250680,1,0,0:0:0:0:
256,192,250768,1,2,0:0:0:0:
256,192,250856,1,0,0:0:0:0:
256,192,250945,1,0,0:0:0:0:
256,192,251121,1,2,0:0:0:0:
256,192,251298,1,0,0:0:0:0:
256,192,251386,1,0,0:0:0:0:
256,192,251474,1,2,0:0:0:0:
256,192,251651,1,0,0:0:0:0:
256,192,251739,1,0,0:0:0:0:
256,192,251827,1,2,0:0:0:0:
256,192,251915,1,2,0:0:0:0:
256,192,252003,1,0,0:0:0:0:
256,192,252180,1,0,0:0:0:0:
256,192,252268,1,0,0:0:0:0:
256,192,252356,1,2,0:0:0:0:
256,192,252445,1,0,0:0:0:0:
256,192,252533,1,2,0:0:0:0:
256,192,252709,1,0,0:0:0:0:
256,192,252798,1,0,0:0:0:0:
256,192,252886,1,2,0:0:0:0:
256,192,252974,1,0,0:0:0:0:
256,192,253062,1,0,0:0:0:0:
256,192,253151,1,2,0:0:0:0:
256,192,253239,1,2,0:0:0:0:
256,192,253327,1,0,0:0:0:0:
256,192,253415,1,2,0:0:0:0:
256,192,253503,1,2,0:0:0:0:
256,192,253592,1,0,0:0:0:0:
256,192,253768,1,6,0:0:0:0:
256,192,254121,5,4,0:0:0:0:
256,192,254386,1,2,0:0:0:0:
256,192,254474,1,0,0:0:0:0:
256,192,254651,1,0,0:0:0:0:
256,192,254827,1,0,0:0:0:0:
256,192,254915,1,0,0:0:0:0:
256,192,255003,1,2,0:0:0:0:
256,192,255092,1,2,0:0:0:0:
256,192,255180,1,0,0:0:0:0:
256,192,255356,1,0,0:0:0:0:
256,192,255445,1,2,0:0:0:0:
256,192,255533,1,0,0:0:0:0:
256,192,255709,1,2,0:0:0:0:
256,192,255886,1,0,0:0:0:0:
256,192,255974,1,2,0:0:0:0:
256,192,256062,1,2,0:0:0:0:
256,192,256239,1,0,0:0:0:0:
256,192,256327,1,0,0:0:0:0:
256,192,256415,1,2,0:0:0:0:
256,192,256592,1,0,0:0:0:0:
256,192,256680,1,2,0:0:0:0:
256,192,256768,1,2,0:0:0:0:
256,192,256856,1,0,0:0:0:0:
256,192,256945,1,2,0:0:0:0:
256,192,257121,1,2,0:0:0:0:
256,192,257298,1,0,0:0:0:0:
256,192,257386,1,0,0:0:0:0:
256,192,257474,1,8,0:0:0:0:
256,192,257651,1,0,0:0:0:0:
256,192,257739,1,0,0:0:0:0:
256,192,257827,1,8,0:0:0:0:
256,192,257915,1,8,0:0:0:0:
256,192,258003,1,0,0:0:0:0:
256,192,258180,1,0,0:0:0:0:
256,192,258268,1,8,0:0:0:0:
256,192,258356,1,0,0:0:0:0:
256,192,258533,1,0,0:0:0:0:
256,192,258709,1,2,0:0:0:0:
256,192,258798,1,2,0:0:0:0:
256,192,258886,1,0,0:0:0:0:
256,192,258974,1,0,0:0:0:0:
256,192,259062,1,0,0:0:0:0:
256,192,259151,1,8,0:0:0:0:
256,192,259239,1,0,0:0:0:0:
256,192,259415,1,8,0:0:0:0:
256,192,259503,1,8,0:0:0:0:
256,192,259592,1,0,0:0:0:0:
256,192,259680,1,8,0:0:0:0:
256,192,259768,1,0,0:0:0:0:
256,192,259945,1,8,0:0:0:0:
256,192,260121,1,0,0:0:0:0:
256,192,260209,1,0,0:0:0:0:
256,192,260298,1,8,0:0:0:0:
256,192,260474,1,0,0:0:0:0:
256,192,260562,1,2,0:0:0:0:
256,192,260651,1,0,0:0:0:0:
256,192,260739,1,0,0:0:0:0:
256,192,260827,1,8,0:0:0:0:
256,192,261003,1,0,0:0:0:0:
256,192,261180,1,0,0:0:0:0:
256,192,261268,1,0,0:0:0:0:
256,192,261356,1,0,0:0:0:0:
256,192,261533,1,2,0:0:0:0:
256,192,261709,1,0,0:0:0:0:
256,192,261798,1,0,0:0:0:0:
256,192,261886,1,8,0:0:0:0:
256,192,261974,1,0,0:0:0:0:
256,192,262062,1,2,0:0:0:0:
256,192,262239,1,8,0:0:0:0:
256,192,262327,1,0,0:0:0:0:
256,192,262415,1,0,0:0:0:0:
256,192,262592,1,2,0:0:0:0:
256,192,262680,1,0,0:0:0:0:
256,192,262856,1,0,0:0:0:0:
256,192,262945,1,8,0:0:0:0:
256,192,263033,1,2,0:0:0:0:
256,192,263121,1,0,0:0:0:0:
256,192,263298,1,2,0:0:0:0:
256,192,263474,1,0,0:0:0:0:
256,192,263562,1,8,0:0:0:0:
256,192,263651,1,2,0:0:0:0:
256,192,263739,1,0,0:0:0:0:
256,192,263827,1,2,0:0:0:0:
256,192,264003,1,0,0:0:0:0:
256,192,264092,1,2,0:0:0:0:
256,192,264268,1,2,0:0:0:0:
256,192,264356,1,0,0:0:0:0:
256,192,264533,1,0,0:0:0:0:
256,192,264709,1,8,0:0:0:0:
256,192,264798,1,0,0:0:0:0:
256,192,264886,1,8,0:0:0:0:
256,192,264974,1,0,0:0:0:0:
256,192,265062,1,8,0:0:0:0:
256,192,265151,1,8,0:0:0:0:
256,192,265239,1,8,0:0:0:0:
256,192,265327,1,2,0:0:0:0:
256,192,265415,1,0,0:0:0:0:
256,192,265680,1,2,0:0:0:0:
256,192,265768,1,0,0:0:0:0:
256,192,265945,1,0,0:0:0:0:
256,192,266121,1,0,0:0:0:0:
256,192,266209,1,2,0:0:0:0:
256,192,266298,1,2,0:0:0:0:
256,192,266386,1,2,0:0:0:0:
256,192,266474,1,0,0:0:0:0:
256,192,266651,1,0,0:0:0:0:
256,192,266739,1,2,0:0:0:0:
256,192,266827,1,0,0:0:0:0:
256,192,267003,1,0,0:0:0:0:
256,192,267180,1,0,0:0:0:0:
256,192,267268,1,8,0:0:0:0:
256,192,267356,1,0,0:0:0:0:
256,192,267445,1,2,0:0:0:0:
256,192,267533,1,0,0:0:0:0:
256,192,267621,1,0,0:0:0:0:
256,192,267709,1,2,0:0:0:0:
256,192,267886,1,8,0:0:0:0:
256,192,267974,1,0,0:0:0:0:
256,192,268062,1,8,0:0:0:0:
256,192,268151,1,8,0:0:0:0:
256,192,268239,1,0,0:0:0:0:
256,192,268327,1,8,0:0:0:0:
256,192,268503,1,8,0:0:0:0:
256,192,268592,1,0,0:0:0:0:
256,192,268768,1,0,0:0:0:0:
256,192,268945,1,0,0:0:0:0:
256,192,269033,1,0,0:0:0:0:
256,192,269121,1,8,0:0:0:0:
256,192,269209,1,0,0:0:0:0:
256,192,269298,1,8,0:0:0:0:
256,192,269474,1,0,0:0:0:0:
256,192,269562,1,2,0:0:0:0:
256,192,269651,1,0,0:0:0:0:
256,192,269827,1,0,0:0:0:0:
256,192,270003,1,0,0:0:0:0:
256,192,270092,1,2,0:0:0:0:
256,192,270180,1,2,0:0:0:0:
256,192,270268,1,0,0:0:0:0:
256,192,270356,1,0,0:0:0:0:
256,192,270445,1,8,0:0:0:0:
256,192,270533,1,8,0:0:0:0:
256,192,270621,1,2,0:0:0:0:
256,192,270709,1,0,0:0:0:0:
256,192,270798,1,8,0:0:0:0:
256,192,270886,1,8,0:0:0:0:
256,192,270974,1,2,0:0:0:0:
256,192,271062,1,0,0:0:0:0:
256,192,271239,1,8,0:0:0:0:
256,192,271327,1,0,0:0:0:0:
256,192,271415,1,0,0:0:0:0:
256,192,271503,1,2,0:0:0:0:
256,192,271592,1,0,0:0:0:0:
256,192,271680,1,0,0:0:0:0:
256,192,271768,1,2,0:0:0:0:
256,192,271945,1,2,0:0:0:0:
256,192,272121,1,0,0:0:0:0:
256,192,272209,1,0,0:0:0:0:
256,192,272298,1,2,0:0:0:0:
256,192,272474,1,0,0:0:0:0:
256,192,272651,1,2,0:0:0:0:
256,192,272827,1,0,0:0:0:0:
256,192,272915,1,0,0:0:0:0:
256,192,273003,1,0,0:0:0:0:
256,192,273180,1,0,0:0:0:0:
256,192,273268,1,0,0:0:0:0:
256,192,273356,1,2,0:0:0:0:
256,192,273533,1,0,0:0:0:0:
256,192,273621,1,2,0:0:0:0:
256,192,273709,1,2,0:0:0:0:
256,192,273886,1,0,0:0:0:0:
256,192,273974,1,0,0:0:0:0:
256,192,274062,1,0,0:0:0:0:
256,192,274151,1,0,0:0:0:0:
256,192,274239,1,2,0:0:0:0:
256,192,274327,1,0,0:0:0:0:
256,192,274415,1,0,0:0:0:0:
256,192,274503,1,0,0:0:0:0:
256,192,274592,1,2,0:0:0:0:
256,192,274680,1,0,0:0:0:0:
256,192,274768,1,0,0:0:0:0:
256,192,274856,1,2,0:0:0:0:
256,192,274945,1,0,0:0:0:0:
256,192,275033,1,0,0:0:0:0:
256,192,275121,1,2,0:0:0:0:
256,192,275209,1,2,0:0:0:0:
256,192,275298,1,0,0:0:0:0:
256,192,275474,1,2,0:0:0:0:
256,192,275827,1,2,0:0:0:0:
256,192,276180,1,2,0:0:0:0:
256,192,276533,1,2,0:0:0:0:
256,192,276709,5,4,0:0:0:0:
256,192,276886,1,2,0:0:0:0:
256,192,276974,1,2,0:0:0:0:
256,192,277062,1,0,0:0:0:0:
256,192,277239,1,2,0:0:0:0:
256,192,277415,1,0,0:0:0:0:
256,192,277503,1,0,0:0:0:0:
256,192,277592,1,2,0:0:0:0:
256,192,277768,1,0,0:0:0:0:
256,192,277945,1,2,0:0:0:0:
256,192,278121,1,0,0:0:0:0:
256,192,278298,1,0,0:0:0:0:
256,192,278386,1,2,0:0:0:0:
256,192,278474,1,0,0:0:0:0:
256,192,278651,1,2,0:0:0:0:
256,192,278827,1,2,0:0:0:0:
256,192,278915,1,0,0:0:0:0:
256,192,279003,1,2,0:0:0:0:
256,192,279180,1,0,0:0:0:0:
256,192,279356,1,0,0:0:0:0:
256,192,279533,1,2,0:0:0:0:
256,192,279709,1,0,0:0:0:0:
256,192,279798,1,0,0:0:0:0:
256,192,279886,1,2,0:0:0:0:
256,192,279974,1,0,0:0:0:0:
256,192,280062,1,0,0:0:0:0:
256,192,280239,1,2,0:0:0:0:
256,192,280415,1,2,0:0:0:0:
256,192,280503,1,0,0:0:0:0:
256,192,280592,1,0,0:0:0:0:
256,192,280680,1,0,0:0:0:0:
256,192,280768,1,2,0:0:0:0:
256,192,280945,1,0,0:0:0:0:
256,192,281121,1,2,0:0:0:0:
256,192,281209,1,0,0:0:0:0:
256,192,281298,1,0,0:0:0:0:
256,192,281474,1,2,0:0:0:0:
256,192,281562,1,0,0:0:0:0:
256,192,281651,1,0,0:0:0:0:
256,192,281827,1,2,0:0:0:0:
256,192,282003,1,0,0:0:0:0:
256,192,282092,1,0,0:0:0:0:
256,192,282180,1,2,0:0:0:0:
256,192,282268,1,2,0:0:0:0:
256,192,282356,1,0,0:0:0:0:
256,192,282621,1,0,0:0:0:0:
256,192,282709,1,0,0:0:0:0:
256,192,282886,1,2,0:0:0:0:
256,192,283062,1,0,0:0:0:0:
256,192,283151,1,0,0:0:0:0:
256,192,283239,1,2,0:0:0:0:
256,192,283415,1,0,0:0:0:0:
256,192,283592,1,2,0:0:0:0:
256,192,283768,1,0,0:0:0:0:
256,192,283856,1,0,0:0:0:0:
256,192,283945,1,2,0:0:0:0:
256,192,284121,1,0,0:0:0:0:
256,192,284298,1,2,0:0:0:0:
256,192,284474,1,2,0:0:0:0:
256,192,284651,1,0,0:0:0:0:
256,192,284739,1,2,0:0:0:0:
256,192,284827,1,0,0:0:0:0:
256,192,285003,1,0,0:0:0:0:
256,192,285180,1,2,0:0:0:0:
256,192,285356,1,0,0:0:0:0:
256,192,285445,1,0,0:0:0:0:
256,192,285533,1,2,0:0:0:0:
256,192,285709,1,0,0:0:0:0:
256,192,285886,1,2,0:0:0:0:
256,192,285974,1,2,0:0:0:0:
256,192,286062,1,0,0:0:0:0:
256,192,286151,1,0,0:0:0:0:
256,192,286239,1,2,0:0:0:0:
256,192,286415,1,0,0:0:0:0:
256,192,286592,1,2,0:0:0:0:
256,192,286768,1,0,0:0:0:0:
256,192,286856,1,2,0:0:0:0:
256,192,286945,1,0,0:0:0:0:
256,192,287121,1,0,0:0:0:0:
256,192,287209,1,2,0:0:0:0:
256,192,287298,1,0,0:0:0:0:
256,192,287386,1,2,0:0:0:0:
256,192,287562,1,2,0:0:0:0:
256,192,287651,1,0,0:0:0:0:
256,192,287739,1,2,0:0:0:0:
256,192,287827,1,2,0:0:0:0:
256,192,288003,1,4,0:0:0:0:
256,192,288180,1,2,0:0:0:0:
256,192,288268,1,2,0:0:0:0:
256,192,288356,1,0,0:0:0:0:
256,192,288533,1,2,0:0:0:0:
256,192,288709,1,0,0:0:0:0:
256,192,288798,1,0,0:0:0:0:
256,192,288886,1,2,0:0:0:0:
256,192,289062,1,0,0:0:0:0:
256,192,289239,1,2,0:0:0:0:
256,192,289415,1,0,0:0:0:0:
256,192,289592,1,0,0:0:0:0:
256,192,289680,1,2,0:0:0:0:
256,192,289768,1,0,0:0:0:0:
256,192,289945,1,2,0:0:0:0:
256,192,290121,1,2,0:0:0:0:
256,192,290209,1,0,0:0:0:0:
256,192,290298,1,2,0:0:0:0:
256,192,290474,1,0,0:0:0:0:
256,192,290562,1,0,0:0:0:0:
256,192,290651,1,0,0:0:0:0:
256,192,290827,1,2,0:0:0:0:
256,192,290915,1,2,0:0:0:0:
256,192,291003,1,0,0:0:0:0:
256,192,291092,1,0,0:0:0:0:
256,192,291180,1,2,0:0:0:0:
256,192,291268,1,0,0:0:0:0:
256,192,291356,1,0,0:0:0:0:
256,192,291533,1,2,0:0:0:0:
256,192,291709,1,2,0:0:0:0:
256,192,291798,1,0,0:0:0:0:
256,192,291886,1,0,0:0:0:0:
256,192,291974,1,0,0:0:0:0:
256,192,292062,1,2,0:0:0:0:
256,192,292239,1,0,0:0:0:0:
256,192,292415,1,2,0:0:0:0:
256,192,292503,1,2,0:0:0:0:
256,192,292592,1,0,0:0:0:0:
256,192,292768,1,2,0:0:0:0:
256,192,292856,1,2,0:0:0:0:
256,192,292945,1,0,0:0:0:0:
256,192,293033,1,2,0:0:0:0:
256,192,293209,1,2,0:0:0:0:
256,192,293298,1,0,0:0:0:0:
256,192,293386,1,0,0:0:0:0:
256,192,293474,1,2,0:0:0:0:
256,192,293562,1,2,0:0:0:0:
256,192,293651,1,0,0:0:0:0:
256,192,293827,1,2,0:0:0:0:
256,192,293915,1,0,0:0:0:0:
256,192,294003,1,0,0:0:0:0:
256,192,294180,1,2,0:0:0:0:
256,192,294356,1,0,0:0:0:0:
256,192,294445,1,0,0:0:0:0:
256,192,294533,1,2,0:0:0:0:
256,192,294709,1,0,0:0:0:0:
256,192,294886,1,2,0:0:0:0:
256,192,294974,1,2,0:0:0:0:
256,192,295062,1,0,0:0:0:0:
256,192,295151,1,0,0:0:0:0:
256,192,295239,1,2,0:0:0:0:
256,192,295415,1,0,0:0:0:0:
256,192,295592,1,2,0:0:0:0:
256,192,295680,1,0,0:0:0:0:
256,192,295768,1,2,0:0:0:0:
256,192,295856,1,2,0:0:0:0:
256,192,295945,1,0,0:0:0:0:
256,192,296033,1,2,0:0:0:0:
256,192,296121,1,0,0:0:0:0:
256,192,296298,1,0,0:0:0:0:
256,192,296474,1,0,0:0:0:0:
256,192,296562,1,0,0:0:0:0:
256,192,296651,1,2,0:0:0:0:
256,192,296739,1,0,0:0:0:0:
256,192,296827,1,2,0:0:0:0:
256,192,296915,1,0,0:0:0:0:
256,192,297003,1,2,0:0:0:0:
256,192,297092,1,2,0:0:0:0:
256,192,297180,1,0,0:0:0:0:
256,192,297268,1,2,0:0:0:0:
256,192,297356,1,2,0:0:0:0:
256,192,297445,1,0,0:0:0:0:
256,192,297533,1,2,0:0:0:0:
256,192,297621,1,2,0:0:0:0:
256,192,297709,1,0,0:0:0:0:
256,192,297798,1,2,0:0:0:0:
256,192,297886,1,0,0:0:0:0:
256,192,298062,1,2,0:0:0:0:
256,192,298151,1,0,0:0:0:0:
256,192,298239,1,2,0:0:0:0:
256,192,298327,1,2,0:0:0:0:
256,192,298415,1,0,0:0:0:0:
256,192,298592,1,2,0:0:0:0:
256,192,298680,1,2,0:0:0:0:
256,192,298768,1,0,0:0:0:0:
256,192,298856,1,2,0:0:0:0:
256,192,298945,1,0,0:0:0:0:
256,192,299033,1,0,0:0:0:0:
256,192,299121,1,2,0:0:0:0:
256,192,299180,1,0,0:0:0:0:
256,192,299239,1,0,0:0:0:0:
256,192,299298,5,2,0:0:0:0:
256,192,299562,1,2,0:0:0:0:
256,192,299651,1,0,0:0:0:0:
256,192,299827,1,0,0:0:0:0:
256,192,300003,1,2,0:0:0:0:
256,192,300092,1,0,0:0:0:0:
256,192,300180,1,0,0:0:0:0:
256,192,300356,1,0,0:0:0:0:
256,192,300533,1,2,0:0:0:0:
256,192,300709,1,0,0:0:0:0:
256,192,300798,1,0,0:0:0:0:
256,192,300886,1,2,0:0:0:0:
256,192,301062,1,0,0:0:0:0:
256,192,301239,1,2,0:0:0:0:
256,192,301415,1,0,0:0:0:0:
256,192,301503,1,0,0:0:0:0:
256,192,301592,1,2,0:0:0:0:
256,192,301680,1,2,0:0:0:0:
256,192,301768,1,0,0:0:0:0:
256,192,301945,1,2,0:0:0:0:
256,192,302121,1,0,0:0:0:0:
256,192,302298,1,2,0:0:0:0:
256,192,302386,1,2,0:0:0:0:
256,192,302474,1,0,0:0:0:0:
256,192,302651,1,0,0:0:0:0:
256,192,302827,1,2,0:0:0:0:
256,192,302915,1,0,0:0:0:0:
256,192,303003,1,0,0:0:0:0:
256,192,303180,1,0,0:0:0:0:
256,192,303356,1,2,0:0:0:0:
256,192,303533,1,0,0:0:0:0:
256,192,303621,1,2,0:0:0:0:
256,192,303709,1,2,0:0:0:0:
256,192,303798,1,2,0:0:0:0:
256,192,303886,1,0,0:0:0:0:
256,192,304062,1,2,0:0:0:0:
256,192,304239,1,0,0:0:0:0:
256,192,304327,1,2,0:0:0:0:
256,192,304503,1,2,0:0:0:0:
256,192,304592,1,0,0:0:0:0:
256,192,304768,1,0,0:0:0:0:
256,192,304945,1,0,0:0:0:0:
256,192,305209,1,2,0:0:0:0:
256,192,305298,1,0,0:0:0:0:
256,192,305474,1,0,0:0:0:0:
256,192,305651,1,2,0:0:0:0:
256,192,305739,1,0,0:0:0:0:
256,192,305827,1,0,0:0:0:0:
256,192,306003,1,2,0:0:0:0:
256,192,306180,1,0,0:0:0:0:
256,192,306356,1,2,0:0:0:0:
256,192,306533,1,0,0:0:0:0:
256,192,306621,1,0,0:0:0:0:
256,192,306709,1,2,0:0:0:0:
256,192,306886,1,0,0:0:0:0:
256,192,307062,1,0,0:0:0:0:
256,192,307151,1,0,0:0:0:0:
256,192,307239,1,2,0:0:0:0:
256,192,307327,1,2,0:0:0:0:
256,192,307415,1,0,0:0:0:0:
256,192,307592,1,2,0:0:0:0:
256,192,307768,1,0,0:0:0:0:
256,192,307945,1,2,0:0:0:0:
256,192,308033,1,2,0:0:0:0:
256,192,308121,1,0,0:0:0:0:
256,192,308298,1,0,0:0:0:0:
256,192,308474,1,2,0:0:0:0:
256,192,308562,1,0,0:0:0:0:
256,192,308651,1,0,0:0:0:0:
256,192,308827,1,2,0:0:0:0:
256,192,309003,1,0,0:0:0:0:
256,192,309180,1,2,0:0:0:0:
256,192,309239,1,0,0:0:0:0:
256,192,309298,1,0,0:0:0:0:
256,192,309356,1,2,0:0:0:0:
256,192,309533,1,2,0:0:0:0:
256,192,309592,1,2,0:0:0:0:
256,192,309651,1,2,0:0:0:0:
256,192,309709,1,0,0:0:0:0:
256,192,309886,1,2,0:0:0:0:
256,192,309945,1,2,0:0:0:0:
256,192,310003,1,0,0:0:0:0:
256,192,310062,1,0,0:0:0:0:
256,192,310239,1,2,0:0:0:0:
256,192,310298,1,2,0:0:0:0:
256,192,310356,1,2,0:0:0:0:
256,192,310415,1,0,0:0:0:0:
256,192,310592,1,0,0:0:0:0:
256,192,310768,1,2,0:0:0:0:
256,192,310856,1,2,0:0:0:0:
256,192,310945,1,0,0:0:0:0:
256,192,311121,1,0,0:0:0:0:
256,192,311298,1,2,0:0:0:0:
256,192,311562,1,2,0:0:0:0:
256,192,311651,1,0,0:0:0:0:
256,192,311827,1,2,0:0:0:0:
256,192,312003,1,0,0:0:0:0:
256,192,312180,1,2,0:0:0:0:
256,192,312268,1,0,0:0:0:0:
256,192,312356,1,2,0:0:0:0:
256,192,312533,1,0,0:0:0:0:
256,192,312709,1,2,0:0:0:0:
256,192,312974,1,0,0:0:0:0:
256,192,313062,1,2,0:0:0:0:
256,192,313239,1,0,0:0:0:0:
256,192,313327,1,0,0:0:0:0:
256,192,313415,1,2,0:0:0:0:
256,192,313592,1,2,0:0:0:0:
256,192,313680,1,2,0:0:0:0:
256,192,313768,1,0,0:0:0:0:
256,192,313945,1,0,0:0:0:0:
256,192,314121,1,2,0:0:0:0:
256,192,314386,1,2,0:0:0:0:
256,192,314474,1,0,0:0:0:0:
256,192,314651,1,2,0:0:0:0:
256,192,314827,1,0,0:0:0:0:
256,192,315003,1,2,0:0:0:0:
256,192,315092,1,2,0:0:0:0:
256,192,315180,1,0,0:0:0:0:
256,192,315268,1,2,0:0:0:0:
256,192,315356,1,0,0:0:0:0:
256,192,315533,1,2,0:0:0:0:
256,192,315621,1,2,0:0:0:0:
256,192,315798,1,0,0:0:0:0:
256,192,315886,1,2,0:0:0:0:
256,192,316062,1,0,0:0:0:0:
256,192,316151,1,2,0:0:0:0:
256,192,316239,1,2,0:0:0:0:
256,192,316415,1,0,0:0:0:0:
256,192,316592,1,2,0:0:0:0:
256,192,316768,1,0,0:0:0:0:
256,192,316945,1,2,0:0:0:0:
256,192,317121,1,0,0:0:0:0:
256,192,317209,1,0,0:0:0:0:
256,192,317298,1,2,0:0:0:0:
256,192,317474,1,0,0:0:0:0:
256,192,317651,1,2,0:0:0:0:
256,192,317827,1,0,0:0:0:0:
256,192,317915,1,0,0:0:0:0:
256,192,318003,1,2,0:0:0:0:
256,192,318180,1,2,0:0:0:0:
256,192,318356,1,0,0:0:0:0:
256,192,318445,1,2,0:0:0:0:
256,192,318621,1,2,0:0:0:0:
256,192,318709,1,0,0:0:0:0:
256,192,318886,1,2,0:0:0:0:
256,192,319062,1,0,0:0:0:0:
256,192,319151,1,0,0:0:0:0:
256,192,319239,1,2,0:0:0:0:
256,192,319327,1,2,0:0:0:0:
256,192,319415,1,0,0:0:0:0:
256,192,319503,1,0,0:0:0:0:
256,192,319592,1,2,0:0:0:0:
256,192,319680,1,0,0:0:0:0:
256,192,319768,1,2,0:0:0:0:
256,192,319856,1,2,0:0:0:0:
256,192,319945,1,0,0:0:0:0:
256,192,320033,1,0,0:0:0:0:
256,192,320121,1,2,0:0:0:0:
256,192,320209,1,0,0:0:0:0:
256,192,320298,1,2,0:0:0:0:
256,192,320386,1,2,0:0:0:0:
256,192,320474,1,0,0:0:0:0:
256,192,320827,1,0,0:0:0:0:
256,192,321180,1,0,0:0:0:0:
256,192,321533,1,0,0:0:0:0:
256,192,321709,1,0,0:0:0:0:
256,192,321886,1,6,0:0:0:0:
