osu file format v14

[General]
AudioFilename: audio.mp3
AudioLeadIn: 0
PreviewTime: 192799
Countdown: 0
SampleSet: Soft
StackLeniency: 0.7
Mode: 0
LetterboxInBreaks: 0
WidescreenStoryboard: 0

[Editor]
Bookmarks: 21117,41987,62856,83722,104595,121875,125462,146331,151549,161983,172418,193288,214157,224592,235027,245462,255896,258505,279375,300244,321114
DistanceSpacing: 1.6
BeatDivisor: 8
GridSize: 16
TimelineZoom: 1.2

[Metadata]
Title:Amazing Trees -extended ver.-
TitleUnicode:Amazing Trees -extended ver.-
Artist:SawanoHiroyuki[nZk]:Tielle
ArtistUnicode:SawanoHiroyuki[nZk]:Tielle
Creator:TT Mouse
Version:Vitality
Source:Border Break
Tags:澤野弘之 Benjamin mpi Hiroyuki_Sawano
BeatmapID:1652732
BeatmapSetID:787421

[Difficulty]
HPDrainRate:5.5
CircleSize:4
OverallDifficulty:8.6
ApproachRate:9.2
SliderMultiplier:2.5
SliderTickRate:1

[Events]
//Background and Video events
0,0,"BG.jpg",0,0
//Break Periods
2,146694,149986
2,214357,224008
2,235064,239660
//Storyboard Layer 0 (Background)
//Storyboard Layer 1 (Fail)
//Storyboard Layer 2 (Pass)
//Storyboard Layer 3 (Foreground)
//Storyboard Sound Samples

[TimingPoints]
-2364,652.173913043478,4,2,5,65,1,0
244,-166.666666666667,4,2,3,65,0,0
5380,-166.666666666667,4,2,3,75,0,0
5543,-166.666666666667,4,2,3,65,0,0
7989,-166.666666666667,4,2,3,75,0,0
8152,-166.666666666667,4,2,3,65,0,0
15815,-166.666666666667,4,2,3,75,0,0
15978,-166.666666666667,4,2,3,65,0,0
18424,-166.666666666667,4,2,3,75,0,0
18587,-166.666666666667,4,2,3,65,0,0
21114,-166.666666666667,4,2,5,65,0,0
30244,-166.666666666667,4,2,4,65,0,0
41983,-83.3333333333333,4,2,5,75,0,0
62771,-111.111111111111,4,2,10,75,0,0
62934,-111.111111111111,4,2,5,75,0,0
65054,-111.111111111111,4,2,11,75,0,0
65217,-111.111111111111,4,2,5,75,0,0
65380,-111.111111111111,4,2,12,75,0,0
65543,-111.111111111111,4,2,5,75,0,0
67663,-111.111111111111,4,2,12,75,0,0
67826,-111.111111111111,4,2,5,75,0,0
67989,-111.111111111111,4,2,13,75,0,0
68152,-111.111111111111,4,2,5,75,0,0
70271,-111.111111111111,4,2,13,75,0,0
70434,-111.111111111111,4,2,5,75,0,0
70597,-111.111111111111,4,2,14,75,0,0
70760,-111.111111111111,4,2,5,75,0,0
73206,-111.111111111111,4,2,10,75,0,0
73369,-111.111111111111,4,2,5,75,0,0
75489,-111.111111111111,4,2,11,75,0,0
75652,-111.111111111111,4,2,5,75,0,0
75815,-111.111111111111,4,2,12,75,0,0
75978,-111.111111111111,4,2,5,75,0,0
78097,-111.111111111111,4,2,12,75,0,0
78260,-111.111111111111,4,2,5,75,0,0
78424,-111.111111111111,4,2,13,75,0,0
78587,-111.111111111111,4,2,5,75,0,0
80706,-111.111111111111,4,2,13,75,0,0
80869,-111.111111111111,4,2,5,75,0,0
81032,-111.111111111111,4,2,14,75,0,0
81195,-111.111111111111,4,2,5,75,0,0
83722,-111.111111111111,4,2,4,60,0,0
104510,-83.3333333333333,4,2,20,88,0,1
104674,-83.3333333333333,4,2,5,88,0,1
107119,-83.3333333333333,4,2,21,88,0,1
107282,-83.3333333333333,4,2,5,88,0,1
109728,-83.3333333333333,4,2,22,88,0,1
109891,-83.3333333333333,4,2,5,88,0,1
110706,-83.3333333333333,4,2,23,88,0,1
110869,-83.3333333333333,4,2,5,88,0,1
112337,-83.3333333333333,4,2,24,88,0,1
112500,-83.3333333333333,4,2,5,88,0,1
113315,-83.3333333333333,4,2,25,88,0,1
113478,-83.3333333333333,4,2,5,88,0,1
114945,-83.3333333333333,4,2,20,88,0,1
115108,-83.3333333333333,4,2,5,88,0,1
117554,-83.3333333333333,4,2,21,88,0,1
117717,-83.3333333333333,4,2,5,88,0,1
120163,-83.3333333333333,4,2,22,88,0,1
120326,-83.3333333333333,4,2,5,88,0,1
121141,-83.3333333333333,4,2,23,88,0,1
121304,-83.3333333333333,4,2,5,88,0,1
122771,-83.3333333333333,4,2,24,88,0,1
122934,-83.3333333333333,4,2,5,88,0,1
123750,-83.3333333333333,4,2,25,88,0,1
123913,-83.3333333333333,4,2,5,88,0,1
125380,-83.3333333333333,4,2,20,88,0,1
125543,-83.3333333333333,4,2,5,88,0,1
127989,-83.3333333333333,4,2,21,88,0,1
128152,-83.3333333333333,4,2,5,88,0,1
130597,-83.3333333333333,4,2,22,88,0,1
130760,-83.3333333333333,4,2,5,88,0,1
131576,-83.3333333333333,4,2,23,88,0,1
131739,-83.3333333333333,4,2,5,88,0,1
133206,-83.3333333333333,4,2,24,88,0,1
133369,-83.3333333333333,4,2,5,88,0,1
134184,-83.3333333333333,4,2,25,88,0,1
134347,-83.3333333333333,4,2,5,88,0,1
135815,-83.3333333333333,4,2,20,88,0,1
135978,-83.3333333333333,4,2,5,88,0,1
138424,-83.3333333333333,4,2,21,88,0,1
138587,-83.3333333333333,4,2,5,88,0,1
141032,-83.3333333333333,4,2,22,88,0,1
141195,-83.3333333333333,4,2,5,88,0,1
142010,-83.3333333333333,4,2,23,88,0,1
142174,-83.3333333333333,4,2,5,88,0,1
143641,-83.3333333333333,4,2,24,88,0,1
143804,-83.3333333333333,4,2,5,88,0,1
144619,-83.3333333333333,4,2,25,88,0,1
144782,-83.3333333333333,4,2,5,75,0,0
146331,-83.3333333333333,4,2,5,65,0,0
150570,-111.111111111111,4,2,4,75,0,0
151467,-111.111111111111,4,2,10,75,0,0
151630,-111.111111111111,4,2,4,75,0,0
152445,-111.111111111111,4,2,10,75,0,0
152608,-111.111111111111,4,2,4,75,0,0
153750,-111.111111111111,4,2,11,75,0,0
153913,-111.111111111111,4,2,4,75,0,0
154076,-111.111111111111,4,2,12,75,0,0
154239,-111.111111111111,4,2,4,75,0,0
155054,-111.111111111111,4,2,12,60,0,0
155217,-111.111111111111,4,2,4,75,0,0
156358,-111.111111111111,4,2,12,75,0,0
156521,-111.111111111111,4,2,4,75,0,0
156684,-111.111111111111,4,2,13,75,0,0
156847,-111.111111111111,4,2,4,75,0,0
157663,-111.111111111111,4,2,13,60,0,0
157826,-111.111111111111,4,2,4,75,0,0
158967,-111.111111111111,4,2,13,75,0,0
159130,-111.111111111111,4,2,4,75,0,0
159293,-111.111111111111,4,2,14,75,0,0
159456,-111.111111111111,4,2,4,75,0,0
160271,-111.111111111111,4,2,14,60,0,0
160434,-111.111111111111,4,2,4,75,0,0
161902,-111.111111111111,4,2,10,75,0,0
162065,-111.111111111111,4,2,5,75,0,0
164184,-111.111111111111,4,2,11,75,0,0
164347,-111.111111111111,4,2,5,75,0,0
164510,-111.111111111111,4,2,12,75,0,0
164674,-111.111111111111,4,2,5,75,0,0
166793,-111.111111111111,4,2,12,75,0,0
166956,-111.111111111111,4,2,5,75,0,0
167119,-111.111111111111,4,2,13,75,0,0
167282,-111.111111111111,4,2,5,75,0,0
169402,-111.111111111111,4,2,13,75,0,0
169565,-111.111111111111,4,2,5,75,0,0
169728,-111.111111111111,4,2,14,75,0,0
169891,-111.111111111111,4,2,5,75,0,0
172418,-111.111111111111,4,2,4,75,0,0
192146,-222.222222222221,4,2,3,75,0,0
193206,-83.3333333333333,4,2,20,88,0,1
193369,-83.3333333333333,4,2,5,88,0,1
195815,-83.3333333333333,4,2,21,88,0,1
195978,-83.3333333333333,4,2,5,88,0,1
198424,-83.3333333333333,4,2,22,88,0,1
198587,-83.3333333333333,4,2,5,88,0,1
199402,-83.3333333333333,4,2,23,88,0,1
199565,-83.3333333333333,4,2,5,88,0,1
201032,-83.3333333333333,4,2,24,88,0,1
201195,-83.3333333333333,4,2,5,88,0,1
202010,-83.3333333333333,4,2,25,88,0,1
202174,-83.3333333333333,4,2,5,88,0,1
203396,-83.3333333333333,4,2,4,88,0,1
203641,-83.3333333333333,4,2,20,88,0,1
203804,-83.3333333333333,4,2,5,88,0,1
206250,-83.3333333333333,4,2,21,88,0,1
206413,-83.3333333333333,4,2,5,88,0,1
208858,-83.3333333333333,4,2,22,88,0,1
209021,-83.3333333333333,4,2,5,88,0,1
209837,-83.3333333333333,4,2,23,88,0,1
210000,-83.3333333333333,4,2,5,88,0,1
211467,-83.3333333333333,4,2,24,88,0,1
211630,-83.3333333333333,4,2,5,88,0,1
212445,-83.3333333333333,4,2,25,88,0,1
212608,-83.3333333333333,4,2,5,88,0,1
214157,-83.3333333333333,4,2,5,75,0,0
224510,-83.3333333333333,4,2,20,75,0,0
224674,-83.3333333333333,4,2,5,75,0,0
227119,-83.3333333333333,4,2,21,75,0,0
227282,-83.3333333333333,4,2,5,75,0,0
229728,-83.3333333333333,4,2,22,75,0,0
229891,-83.3333333333333,4,2,5,75,0,0
230706,-83.3333333333333,4,2,23,75,0,0
230869,-83.3333333333333,4,2,5,75,0,0
232337,-83.3333333333333,4,2,24,75,0,0
232500,-83.3333333333333,4,2,5,75,0,0
233315,-83.3333333333333,4,2,25,75,0,0
233478,-83.3333333333333,4,2,5,75,0,0
233804,-83.3333333333333,4,2,4,75,0,0
233967,-83.3333333333333,4,2,5,75,0,0
234130,-83.3333333333333,4,2,4,75,0,0
234293,-83.3333333333333,4,2,5,75,0,0
240244,-111.111111111111,4,2,3,60,0,0
245462,-111.111111111111,4,2,3,60,0,0
250679,-111.111111111111,4,2,3,60,0,0
251168,-142.857142857143,4,2,3,60,0,0
251820,-200,4,2,3,60,0,0
253125,-111.111111111111,4,2,3,60,0,0
258424,-83.3333333333333,4,2,20,88,0,1
258587,-83.3333333333333,4,2,5,88,0,1
261032,-83.3333333333333,4,2,21,88,0,1
261195,-83.3333333333333,4,2,5,88,0,1
263641,-83.3333333333333,4,2,22,88,0,1
263804,-83.3333333333333,4,2,5,88,0,1
264619,-83.3333333333333,4,2,23,88,0,1
264782,-83.3333333333333,4,2,5,88,0,1
266250,-83.3333333333333,4,2,24,88,0,1
266413,-83.3333333333333,4,2,5,88,0,1
267228,-83.3333333333333,4,2,25,88,0,1
267391,-83.3333333333333,4,2,5,88,0,1
268858,-83.3333333333333,4,2,20,88,0,1
269021,-83.3333333333333,4,2,5,88,0,1
271467,-83.3333333333333,4,2,21,88,0,1
271630,-83.3333333333333,4,2,5,88,0,1
274076,-83.3333333333333,4,2,22,88,0,1
274239,-83.3333333333333,4,2,5,88,0,1
275054,-83.3333333333333,4,2,23,88,0,1
275217,-83.3333333333333,4,2,5,88,0,1
276684,-83.3333333333333,4,2,24,88,0,1
276847,-83.3333333333333,4,2,5,88,0,1
277663,-83.3333333333333,4,2,25,88,0,1
277826,-83.3333333333333,4,2,5,88,0,1
279293,-83.3333333333333,4,2,20,88,0,1
279456,-83.3333333333333,4,2,5,88,0,1
281902,-83.3333333333333,4,2,21,88,0,1
282065,-83.3333333333333,4,2,5,88,0,1
284510,-83.3333333333333,4,2,22,88,0,1
284674,-83.3333333333333,4,2,5,88,0,1
285489,-83.3333333333333,4,2,23,88,0,1
285652,-83.3333333333333,4,2,5,88,0,1
287119,-83.3333333333333,4,2,24,88,0,1
287282,-83.3333333333333,4,2,5,88,0,1
288097,-83.3333333333333,4,2,25,88,0,1
288260,-83.3333333333333,4,2,5,88,0,1
289728,-83.3333333333333,4,2,20,88,0,1
289891,-83.3333333333333,4,2,5,88,0,1
292337,-83.3333333333333,4,2,21,88,0,1
292500,-83.3333333333333,4,2,5,88,0,1
294945,-83.3333333333333,4,2,22,88,0,1
295108,-83.3333333333333,4,2,5,88,0,1
295924,-83.3333333333333,4,2,23,88,0,1
296087,-83.3333333333333,4,2,5,88,0,1
297554,-83.3333333333333,4,2,24,88,0,1
297717,-83.3333333333333,4,2,5,88,0,1
298532,-83.3333333333333,4,2,25,88,0,1
298695,-83.3333333333333,4,2,5,75,0,0
310190,-83.3333333333333,4,2,5,75,0,0
310679,-83.3333333333333,4,2,5,75,0,0
320054,-83.3333333333333,4,2,5,75,0,0
320380,-83.3333333333333,4,2,5,75,0,0

[Colours]
Combo1 : 0,128,192
Combo2 : 255,128,128
Combo3 : 192,192,192
Combo4 : 128,128,128

[HitObjects]
346,256,244,53,8,0:0:0:0:
373,343,407,2,0,B|400:362|400:362|476:353,1,74.9999977111817
435,276,896,2,0,B|441:243|441:243|403:177,1,74.9999977111817
290,324,1385,1,0,0:0:0:0:
237,258,1548,2,0,L|258:119,1,112.499996566773
253,146,2527,1,0,0:0:0:0:
54,355,2852,21,8,0:0:0:0:
97,280,3016,2,0,B|115:252|115:252|106:176,1,74.9999977111817
32,171,3505,2,0,B|25:138|25:138|47:102,1,74.9999977111817
194,176,3993,1,0,0:0:0:0:
149,101,4157,2,0,L|146:63,1,37.4999988555909
313,133,4483,1,0,0:0:0:0:
313,133,4646,2,0,L|297:188,1,37.4999988555909
319,293,4972,2,0,L|303:259,1,37.4999988555909
303,259,5461,6,0,L|320:293,1,37.4999988555909,8|2,0:0|0:0,0:0:0:0:
458,34,5950,1,0,0:0:0:0:
65,130,6439,1,0,0:0:0:0:
138,194,6602,1,0,0:0:0:0:
222,148,6765,2,0,P|231:110|217:73,1,74.9999977111817
116,217,7255,2,0,P|107:255|121:292,1,74.9999977111817
211,343,7743,2,0,L|266:345,1,37.4999988555909
248,344,8070,6,0,L|205:343,1,37.4999988555909,8|2,0:0|0:0,0:0:0:0:
494,237,8559,1,0,0:0:0:0:
116,217,9048,1,0,0:0:0:0:
71,136,9211,1,0,0:0:0:0:
137,63,9374,2,0,L|187:60,2,37.4999988555909
242,103,9863,2,0,P|254:67|245:26,1,74.9999977111817
172,139,10352,2,0,L|187:175,1,37.4999988555909
260,248,10678,6,0,L|272:212,1,37.4999988555909,8|0,0:0|0:0,0:0:0:0:
40,357,11167,1,0,0:0:0:0:
40,357,11331,2,0,P|74:336|125:341,1,74.9999977111817
372,358,11983,2,0,P|409:356|440:336,1,74.9999977111817
320,292,12472,1,0,0:0:0:0:
320,292,12635,2,0,B|313:250|313:250|331:203,1,74.9999977111817
405,165,13125,1,0,0:0:0:0:
405,165,13288,5,8,0:0:0:0:
405,165,13451,2,0,B|416:134|416:134|409:92,1,74.9999977111817
42,166,14266,1,0,0:0:0:0:
261,37,14591,1,0,0:0:0:0:
265,154,14754,2,0,L|276:190,1,37.4999988555909
226,258,15080,1,0,0:0:0:0:
178,121,15243,2,0,L|166:85,1,37.4999988555909
226,258,15570,1,0,0:0:0:0:
237,293,15896,6,0,L|225:257,1,37.4999988555909,8|2,0:0|0:0,0:0:0:0:
495,356,16385,1,0,0:0:0:0:
365,57,16874,1,0,0:0:0:0:
319,143,17037,1,0,0:0:0:0:
389,211,17200,2,0,L|482:191,1,74.9999977111817
343,302,17689,1,0,0:0:0:0:
343,302,17852,2,0,L|320:269,1,37.4999988555909
441,295,18178,2,0,L|429:343,1,37.4999988555909
431,331,18505,6,0,L|441:295,1,37.4999988555909,8|2,0:0|0:0,0:0:0:0:
172,355,18993,1,0,0:0:0:0:
237,53,19483,1,0,0:0:0:0:
214,134,19646,1,0,0:0:0:0:
130,148,19809,2,0,L|100:102,1,37.4999988555909
228,220,20135,1,0,0:0:0:0:
228,220,20298,2,0,B|191:235|191:235|112:222,1,112.499996566773
380,32,21113,1,2,0:0:0:0:
380,32,21439,1,2,0:0:0:0:
378,352,22417,5,2,0:0:0:0:
378,352,22743,1,2,0:0:0:0:
439,281,22907,1,0,0:0:0:0:
374,210,23070,2,0,L|325:198,2,37.4999988555909
189,356,23722,5,2,0:0:0:0:
189,356,24048,1,2,0:0:0:0:
244,87,25027,6,0,L|239:49,1,37.4999988555909,2|0,0:0|0:0,0:0:0:0:
155,123,25352,1,2,0:0:0:0:
225,188,25515,2,0,L|309:178,1,74.9999977111817
32,50,26330,5,2,0:0:0:0:
32,50,26656,1,2,0:0:0:0:
326,228,27635,5,2,0:0:0:0:
328,111,27798,2,0,L|308:154,1,37.4999988555909
326,228,28125,2,0,P|384:215|436:232,1,112.499996566773
172,244,28940,6,0,L|179:300,1,37.4999988555909,2|0,0:0|0:0,0:0:0:0:
187,356,29265,1,2,0:0:0:0:
143,28,30243,5,2,0:0:0:0:
87,198,30570,1,2,0:0:0:0:
93,194,30896,1,0,0:0:0:0:
99,191,31222,1,0,0:0:0:0:
105,188,31548,6,0,L|54:341,2,149.999995422363,2|2|2,0:0|0:0|0:0,0:0:0:0:
254,114,33179,1,0,0:0:0:0:
254,120,33505,1,2,0:0:0:0:
254,127,33831,1,0,0:0:0:0:
253,133,34157,6,0,L|153:20,2,149.999995422363,2|2|2,0:0|0:0|0:0,0:0:0:0:
376,253,35788,1,0,0:0:0:0:
382,256,36114,1,2,0:0:0:0:
388,259,36440,1,0,0:0:0:0:
393,263,36766,6,0,L|246:293,2,149.999995422363,2|2|2,0:0|0:0|0:0,0:0:0:0:
205,212,38396,1,0,0:0:0:0:
211,215,38722,1,2,0:0:0:0:
217,218,39048,1,0,0:0:0:0:
223,222,39374,6,0,B|212:176|212:176|221:128|221:128|199:70,2,149.999995422363,2|2|2,0:0|0:0|0:0,0:0:0:0:
152,366,41005,2,0,L|142:328,1,37.4999988555909
288,337,41331,2,0,P|252:346|219:328,1,74.9999977111817,2|0,0:0|0:0,0:0:0:0:
450,351,41983,6,0,P|468:318|467:280,1,74.9999977111817,4|0,0:0|0:0,0:0:0:0:
277,152,42309,2,0,L|352:144,1,74.9999977111817
386,299,42635,1,8,0:0:0:0:
232,238,42799,1,2,0:0:0:0:
423,181,42962,2,0,B|436:140|436:140|406:68|416:19,1,149.999995422363,2|0,0:0|0:0,0:0:0:0:
182,90,43451,5,0,0:0:0:0:
182,90,43614,2,0,L|198:182,1,74.9999977111817,2|0,0:0|0:0,0:0:0:0:
175,346,43940,2,0,B|133:357|133:357|62:325|13:333,1,149.999995422363,8|0,0:0|0:0,0:0:0:0:
185,198,44429,1,0,0:0:0:0:
137,273,44592,5,2,0:0:0:0:
80,154,44755,1,0,0:0:0:0:
86,147,44918,1,0,0:0:0:0:
301,107,45081,1,0,0:0:0:0:
299,98,45244,2,0,L|287:2,1,74.9999977111817,8|0,0:0|0:0,0:0:0:0:
274,260,45570,1,2,0:0:0:0:
421,315,45733,2,0,B|440:273|440:273|434:245,1,74.9999977111817,2|0,0:0|0:0,0:0:0:0:
348,196,46059,1,0,0:0:0:0:
195,248,46222,6,0,B|189:276|189:276|207:318,1,74.9999977111817,2|0,0:0|0:0,0:0:0:0:
323,350,46549,1,8,0:0:0:0:
117,309,46712,1,2,0:0:0:0:
167,157,46875,2,0,L|154:80,1,74.9999977111817,2|0,0:0|0:0,0:0:0:0:
46,280,47201,6,0,P|41:318|58:357,1,74.9999977111817,6|0,0:0|0:0,0:0:0:0:
348,277,47527,2,0,L|274:260,1,74.9999977111817
106,225,47853,1,8,0:0:0:0:
185,358,48017,1,2,0:0:0:0:
267,176,48179,2,0,B|279:134|279:134|248:63|257:14,1,149.999995422363,2|0,0:0|0:0,0:0:0:0:
486,170,48668,5,0,0:0:0:0:
486,170,48831,2,0,L|460:260,1,74.9999977111817,2|0,0:0|0:0,0:0:0:0:
196,343,49157,2,0,P|257:313|338:337,1,149.999995422363,8|0,0:0|0:0,0:0:0:0:
167,160,49646,1,0,0:0:0:0:
167,160,49809,6,0,L|157:85,1,74.9999977111817,2|0,0:0|0:0,0:0:0:0:
52,209,50135,2,0,B|35:249|35:249|54:314|40:366,1,149.999995422363,0|8,0:0|0:0,0:0:0:0:
253,332,50625,1,0,0:0:0:0:
146,240,50788,1,2,0:0:0:0:
146,240,50951,2,0,P|138:277|146:313,1,74.9999977111817,2|0,0:0|0:0,0:0:0:0:
331,216,51277,1,2,0:0:0:0:
331,216,51440,6,0,P|357:189|368:154,1,74.9999977111817,2|0,0:0|0:0,0:0:0:0:
96,83,51766,1,8,0:0:0:0:
274,129,51929,1,2,0:0:0:0:
102,297,52092,1,2,0:0:0:0:
102,297,52418,6,0,P|137:266|146:224,1,74.9999977111817,4|0,0:0|0:0,0:0:0:0:
344,149,52744,2,0,P|358:183|388:206,1,74.9999977111817
293,359,53070,1,8,0:0:0:0:
220,214,53234,1,2,0:0:0:0:
473,314,53396,2,0,B|461:273|461:273|492:202|485:170,1,149.999995422363,2|0,0:0|0:0,0:0:0:0:
328,269,53886,5,0,0:0:0:0:
310,126,54049,2,0,L|301:49,1,74.9999977111817,2|0,0:0|0:0,0:0:0:0:
164,205,54375,2,0,P|78:204|27:134,1,149.999995422363,8|0,0:0|0:0,0:0:0:0:
231,279,54864,1,0,0:0:0:0:
128,354,55027,5,2,0:0:0:0:
122,360,55190,1,0,0:0:0:0:
214,140,55353,1,0,0:0:0:0:
218,147,55516,1,0,0:0:0:0:
332,267,55679,2,0,L|319:360,1,74.9999977111817,8|0,0:0|0:0,0:0:0:0:
457,195,56005,1,2,0:0:0:0:
420,54,56168,2,0,B|384:45|384:45|321:59|321:59|273:49,1,149.999995422363,2|0,0:0|0:0,0:0:0:0:
77,168,56657,6,0,B|69:200|69:200|92:267,1,74.9999977111817,2|0,0:0|0:0,0:0:0:0:
153,94,56983,2,0,B|129:71|129:71|88:63,1,74.9999977111817,8|2,0:0|0:0,0:0:0:0:
171,206,57309,2,0,B|202:196|202:196|230:165,1,74.9999977111817,2|0,0:0|0:0,0:0:0:0:
84,321,57636,6,0,P|47:321|20:297,1,74.9999977111817,6|0,0:0|0:0,0:0:0:0:
284,250,57962,2,0,L|280:330,1,74.9999977111817
234,170,58288,1,8,0:0:0:0:
172,359,58452,1,2,0:0:0:0:
234,170,58614,2,0,B|253:135|253:135|222:74|235:11,1,149.999995422363,2|0,0:0|0:0,0:0:0:0:
195,253,59103,5,0,0:0:0:0:
344,195,59266,2,0,P|384:191|445:221,1,74.9999977111817,2|0,0:0|0:0,0:0:0:0:
229,358,59592,2,0,L|71:336,1,149.999995422363,8|0,0:0|0:0,0:0:0:0:
298,275,60081,1,0,0:0:0:0:
400,293,60244,6,0,B|409:319|409:319|387:382,1,74.9999977111817,2|0,0:0|0:0,0:0:0:0:
360,166,60570,2,0,B|351:140|351:140|366:95,1,74.9999977111817
477,203,60896,1,8,0:0:0:0:
298,275,61060,1,0,0:0:0:0:
270,169,61223,1,2,0:0:0:0:
189,303,61386,6,0,P|182:339|194:374,1,74.9999977111817,2|0,0:0|0:0,0:0:0:0:
371,371,61712,1,2,0:0:0:0:
371,371,61875,2,0,P|383:336|375:299,1,74.9999977111817
193,179,62201,2,0,L|36:200,1,149.999995422363
324,20,62853,6,0,L|408:41,1,56.2499982833863,6|0,1:2|0:0,0:0:0:0:
485,167,63179,1,0,0:0:0:0:
465,77,63342,1,0,0:0:0:0:
372,192,63505,2,0,P|359:219|362:254,2,56.2499982833863,8|2|2,0:0|0:0|0:0,0:0:0:0:
460,250,63994,1,0,0:0:0:0:
444,350,64157,2,0,B|402:365|402:365|298:349,1,112.499996566773,0|2,0:0|0:0,0:0:0:0:
214,296,64646,1,0,0:0:0:0:
214,296,64809,2,0,B|170:287|170:287|69:319,1,112.499996566773,8|0,0:0|1:2,0:0:0:0:
87,41,65462,6,0,L|104:116,1,56.2499982833863,2|0,1:2|0:0,0:0:0:0:
228,127,65788,1,0,0:0:0:0:
176,56,65951,1,0,0:0:0:0:
155,183,66114,2,0,L|149:238,2,56.2499982833863,8|0|2,0:0|0:0|0:0,0:0:0:0:
335,129,66603,1,2,0:0:0:0:
335,129,66766,2,0,B|349:160|349:160|338:277,1,112.499996566773,0|2,0:0|0:0,0:0:0:0:
253,358,67255,1,0,0:0:0:0:
409,291,67418,2,0,P|438:294|478:320,1,56.2499982833863,8|2,0:0|0:0,0:0:0:0:
343,358,67744,1,2,1:2:0:0:
265,248,67907,5,0,0:0:0:0:
264,247,68070,2,0,L|270:192,1,56.2499982833863,2|0,1:2|0:0,0:0:0:0:
292,35,68396,1,0,0:0:0:0:
320,120,68559,1,0,0:0:0:0:
169,62,68722,2,0,P|140:71|121:91,2,56.2499982833863,8|2|2,0:0|0:0|0:0,0:0:0:0:
201,156,69211,1,0,0:0:0:0:
87,229,69374,2,0,B|77:265|77:265|97:351,1,112.499996566773,0|2,0:0|0:0,0:0:0:0:
231,298,69864,1,0,0:0:0:0:
231,298,70027,2,0,L|356:316,1,112.499996566773,8|0,0:0|1:2,0:0:0:0:
479,101,70679,6,0,L|423:93,1,56.2499982833863,2|0,1:2|0:0,0:0:0:0:
426,222,71005,1,0,0:0:0:0:
315,145,71168,1,0,0:0:0:0:
426,222,71331,2,0,L|421:295,1,56.2499982833863,8|0,0:0|0:0,0:0:0:0:
346,54,71657,1,2,0:0:0:0:
286,231,71820,1,2,0:0:0:0:
168,138,71983,2,0,B|154:100|154:100|181:15,1,112.499996566773,0|2,0:0|0:0,0:0:0:0:
260,135,72472,1,0,0:0:0:0:
86,199,72635,1,8,0:0:0:0:
185,265,72799,1,2,0:0:0:0:
185,265,72962,2,0,L|177:320,1,56.2499982833863,2|0,0:0|0:0,0:0:0:0:
412,359,73288,6,0,L|419:303,1,56.2499982833863,6|0,1:2|0:0,0:0:0:0:
269,282,73614,1,0,0:0:0:0:
315,362,73777,1,0,0:0:0:0:
349,220,73940,2,0,P|347:192|322:157,2,56.2499982833863,8|2|2,0:0|0:0|0:0,0:0:0:0:
429,154,74429,1,0,0:0:0:0:
369,57,74592,2,0,L|247:41,1,112.499996566773,0|2,0:0|0:0,0:0:0:0:
131,87,75081,1,0,0:0:0:0:
131,87,75244,2,0,B|122:121|122:121|146:194,1,112.499996566773,8|0,0:0|1:2,0:0:0:0:
265,169,75733,5,0,0:0:0:0:
151,285,75897,2,0,L|95:273,1,56.2499982833863,2|0,1:2|0:0,0:0:0:0:
304,301,76223,1,0,0:0:0:0:
223,346,76386,1,0,0:0:0:0:
265,169,76549,2,0,L|339:188,1,56.2499982833863,8|0,0:0|0:0,0:0:0:0:
294,378,76875,1,2,0:0:0:0:
229,260,77038,1,2,0:0:0:0:
419,265,77201,2,0,B|436:296|436:296|417:377,1,112.499996566773,0|2,0:0|0:0,0:0:0:0:
319,183,77690,1,0,0:0:0:0:
431,83,77853,2,0,L|490:94,1,56.2499982833863,8|2,0:0|0:0,0:0:0:0:
474,275,78179,2,0,L|415:264,1,56.2499982833863,2|0,1:2|0:0,0:0:0:0:
265,169,78505,6,0,L|209:177,1,56.2499982833863,2|0,1:2|0:0,0:0:0:0:
149,315,78831,1,0,0:0:0:0:
78,237,78994,1,0,0:0:0:0:
149,315,79157,2,0,L|146:377,2,56.2499982833863,8|2|2,0:0|0:0|0:0,0:0:0:0:
113,153,79646,1,0,0:0:0:0:
113,153,79809,2,0,B|103:114|103:114|142:30,1,112.499996566773,0|2,0:0|0:0,0:0:0:0:
357,87,80298,1,0,0:0:0:0:
345,179,80461,2,0,L|331:293,1,112.499996566773,8|0,0:0|1:2,0:0:0:0:
200,93,81114,6,0,L|218:39,1,56.2499982833863,2|0,1:2|0:0,0:0:0:0:
247,176,81440,1,0,0:0:0:0:
133,213,81603,1,0,0:0:0:0:
218,327,81766,2,0,P|190:326|165:315,1,56.2499982833863,8|0,0:0|0:0,0:0:0:0:
314,364,82092,1,2,0:0:0:0:
207,246,82255,1,2,0:0:0:0:
415,198,82418,2,0,L|398:328,1,112.499996566773,0|2,0:0|0:0,0:0:0:0:
333,141,82907,1,0,0:0:0:0:
411,49,83070,2,0,L|466:63,1,56.2499982833863,8|2,0:0|0:0,0:0:0:0:
212,29,83396,2,0,L|146:46,1,56.2499982833863,2|0,0:0|0:0,0:0:0:0:
32,135,83722,6,0,B|20:196|20:196|41:251|41:251|27:326,2,168.749994850159,6|0|2,0:0|0:0|0:0,0:0:0:0:
260,316,85353,1,2,0:0:0:0:
302,79,85842,2,0,L|372:54,2,56.2499982833863,2|2|2,0:0|0:0|0:0,0:0:0:0:
302,79,86331,5,2,0:0:0:0:
134,288,86820,1,2,0:0:0:0:
404,344,87309,1,2,0:0:0:0:
194,158,87799,1,0,0:0:0:0:
253,225,87962,6,0,L|247:285,1,56.2499982833863,2|0,0:0|0:0,0:0:0:0:
122,212,88288,2,0,P|103:151|151:80,1,112.499996566773
253,32,88940,6,0,B|314:30|314:30|364:60|364:60|441:59,2,168.749994850159,2|0|2,0:0|0:0|0:0,0:0:0:0:
345,286,90407,1,0,0:0:0:0:
83,233,90896,2,0,L|107:363,1,112.499996566773
135,144,91549,5,2,0:0:0:0:
293,368,92038,1,2,0:0:0:0:
421,128,92527,1,2,0:0:0:0:
297,270,92853,1,0,0:0:0:0:
376,322,93016,5,0,0:0:0:0:
297,270,93179,2,0,L|223:290,1,56.2499982833863,2|0,0:0|0:0,0:0:0:0:
337,132,93505,2,0,L|310:-5,1,112.499996566773
418,196,94157,6,0,P|421:225|409:265,1,56.2499982833863,6|0,0:0|0:0,0:0:0:0:
273,191,94483,1,0,0:0:0:0:
209,296,94646,2,0,L|223:374,1,56.2499982833863
258,192,94972,1,0,0:0:0:0:
178,94,95135,2,0,P|120:85|53:122,1,112.499996566773,2|0,0:0|0:0,0:0:0:0:
337,132,95625,2,0,P|395:141|461:103,1,112.499996566773
185,181,96114,2,0,L|130:168,1,56.2499982833863,0|2,0:0|0:0,0:0:0:0:
336,276,96440,2,0,L|281:263,1,56.2499982833863,2|0,0:0|0:0,0:0:0:0:
77,313,96766,6,0,P|74:340|83:367,1,56.2499982833863,2|0,0:0|0:0,0:0:0:0:
230,368,97092,1,0,0:0:0:0:
267,184,97255,2,0,P|266:125|230:77,1,112.499996566773
339,274,97744,2,0,L|471:264,1,112.499996566773,2|0,0:0|0:0,0:0:0:0:
252,277,98233,1,0,0:0:0:0:
252,277,98396,2,0,P|257:314|290:344,1,56.2499982833863,2|0,0:0|0:0,0:0:0:0:
372,158,98722,2,0,L|382:102,1,56.2499982833863,0|2,0:0|0:0,0:0:0:0:
223,27,99049,2,0,L|237:85,1,56.2499982833863
140,184,99375,6,0,P|77:188|27:117,1,112.499996566773,2|0,0:0|0:0,0:0:0:0:
280,178,99864,2,0,P|281:241|209:288,1,112.499996566773
68,327,100353,2,0,L|200:335,2,112.499996566773,2|0|0,0:0|0:0|0:0,0:0:0:0:
267,360,101331,2,0,L|399:368,1,112.499996566773
379,366,101983,5,4,0:0:0:0:
256,192,102146,12,0,104429,0:0:0:0:
292,304,104592,6,0,L|272:407,1,74.9999977111817,4|0,1:2|0:0,0:0:0:0:
75,255,104918,2,0,P|59:214|72:153,1,74.9999977111817
241,182,105244,1,8,0:0:0:0:
159,326,105407,1,2,0:0:0:0:
96,109,105570,2,0,L|169:128,1,74.9999977111817,2|0,0:0|0:0,0:0:0:0:
376,38,105896,6,0,L|298:48,1,74.9999977111817
383,258,106222,2,0,P|403:221|396:166,1,74.9999977111817,2|0,0:0|0:0,0:0:0:0:
164,221,106549,2,0,B|151:262|151:262|181:334|171:383,1,149.999995422363,8|0,0:0|0:0,0:0:0:0:
416,340,107038,1,0,0:0:0:0:
416,340,107201,6,0,B|381:321|381:321|334:330,1,74.9999977111817,2|0,1:2|0:0,0:0:0:0:
119,275,107527,2,0,B|152:254|152:254|167:209,1,74.9999977111817
309,47,107853,2,0,B|309:86|309:86|341:122,1,74.9999977111817,8|0,0:0|0:0,0:0:0:0:
266,280,108179,5,2,0:0:0:0:
164,124,108342,2,0,B|123:111|123:111|51:141|2:131,1,149.999995422363,2|0,0:0|0:0,0:0:0:0:
114,349,108831,2,0,L|119:271,1,74.9999977111817,2|0,0:0|0:0,0:0:0:0:
144,30,109157,1,8,0:0:0:0:
55,218,109320,1,2,0:0:0:0:
273,244,109483,2,0,P|288:206|281:169,1,74.9999977111817,2|0,0:0|0:0,0:0:0:0:
39,357,109809,6,0,L|149:345,1,74.9999977111817,4|0,1:2|0:0,0:0:0:0:
421,356,110135,2,0,L|311:344,1,74.9999977111817
177,222,110462,1,8,0:0:0:0:
261,368,110625,1,2,0:0:0:0:
356,138,110788,2,0,L|338:65,1,74.9999977111817,6|0,1:2|0:0,0:0:0:0:
421,255,111114,6,0,B|449:268|449:268|495:255,1,74.9999977111817
263,150,111440,2,0,B|235:137|235:137|188:149,1,74.9999977111817,2|0,0:0|0:0,0:0:0:0:
261,368,111766,2,0,B|280:333|280:333|249:272|262:209,1,149.999995422363,8|0,0:0|0:0,0:0:0:0:
380,33,112255,1,0,0:0:0:0:
119,150,112418,6,0,P|105:115|110:79,1,74.9999977111817,6|0,1:2|0:0,0:0:0:0:
413,235,112744,2,0,P|441:211|456:177,1,74.9999977111817
125,352,113070,2,0,P|88:346|58:324,1,74.9999977111817,8|0,0:0|0:0,0:0:0:0:
397,376,113396,5,6,1:2:0:0:
374,154,113559,1,2,0:0:0:0:
281,241,113722,1,0,0:0:0:0:
458,312,113885,1,0,0:0:0:0:
220,291,114049,2,0,P|201:250|226:190,1,74.9999977111817,2|0,0:0|0:0,0:0:0:0:
413,235,114375,1,8,0:0:0:0:
285,369,114538,1,2,0:0:0:0:
262,162,114701,2,0,L|278:89,1,74.9999977111817,2|0,0:0|0:0,0:0:0:0:
52,271,115027,6,0,P|81:292|133:290,1,74.9999977111817,4|0,1:2|0:0,0:0:0:0:
338,320,115353,2,0,P|309:299|257:301,1,74.9999977111817
148,371,115679,1,8,0:0:0:0:
119,150,115842,1,2,0:0:0:0:
204,73,116005,2,0,L|277:88,1,74.9999977111817,2|0,0:0|0:0,0:0:0:0:
485,218,116331,6,0,L|375:232,1,74.9999977111817
144,301,116657,2,0,P|134:340|149:373,1,74.9999977111817,2|0,0:0|0:0,0:0:0:0:
338,320,116983,2,0,B|317:285|317:285|346:223|331:161,1,149.999995422363,8|0,0:0|0:0,0:0:0:0:
430,103,117473,1,0,0:0:0:0:
488,323,117635,6,0,P|455:340|418:336,1,74.9999977111817,2|0,1:2|0:0,0:0:0:0:
241,210,117962,2,0,P|204:206|171:223,1,74.9999977111817
430,103,118288,2,0,B|462:75|455:36,1,74.9999977111817,8|0,0:0|0:0,0:0:0:0:
417,228,118614,5,2,0:0:0:0:
263,93,118777,2,0,B|228:72|228:72|166:101|104:86,1,149.999995422363,2|0,0:0|0:0,0:0:0:0:
43,239,119266,2,0,L|71:326,1,74.9999977111817,2|0,0:0|0:0,0:0:0:0:
171,222,119592,1,8,0:0:0:0:
150,360,119755,1,2,0:0:0:0:
329,296,119918,2,0,P|373:293|423:325,1,74.9999977111817,2|0,0:0|0:0,0:0:0:0:
263,93,120244,6,0,L|268:18,1,74.9999977111817,6|0,1:2|0:0,0:0:0:0:
249,291,120570,2,0,L|243:365,1,74.9999977111817
380,156,120897,1,8,0:0:0:0:
147,289,121060,1,2,0:0:0:0:
401,380,121223,2,0,P|418:345|416:307,1,74.9999977111817,6|0,1:2|0:0,0:0:0:0:
254,221,121549,6,0,B|238:246|238:246|254:314,1,74.9999977111817
404,127,121875,2,0,B|420:102|420:102|404:34,1,74.9999977111817,2|0,0:0|0:0,0:0:0:0:
116,75,122201,2,0,B|150:95|150:95|212:66|274:81,1,149.999995422363,8|0,0:0|0:0,0:0:0:0:
337,233,122690,1,0,0:0:0:0:
104,356,122853,6,0,L|25:335,1,74.9999977111817,6|0,1:2|0:0,0:0:0:0:
401,298,123179,2,0,L|480:319,1,74.9999977111817
257,78,123505,2,0,L|178:57,1,74.9999977111817,8|0,0:0|0:0,0:0:0:0:
273,329,123831,1,6,1:2:0:0:
323,124,123994,1,2,0:0:0:0:
357,356,124157,5,0,0:0:0:0:
167,328,124320,1,8,0:0:0:0:
426,214,124484,2,0,P|429:169|404:118,1,74.9999977111817
291,216,124810,1,8,0:0:0:0:
485,301,124973,1,2,0:0:0:0:
167,328,125135,1,8,0:0:0:0:
485,301,125299,1,8,0:0:0:0:
217,204,125462,6,0,B|201:167|201:167|237:109|229:45,1,149.999995422363,4|0,1:2|0:0,0:0:0:0:
145,249,125951,1,0,0:0:0:0:
364,200,126114,1,8,0:0:0:0:
236,287,126277,1,2,0:0:0:0:
477,214,126440,6,0,B|496:249|496:249|467:310|478:355,1,149.999995422363,2|0,0:0|0:0,0:0:0:0:
340,106,126929,1,0,0:0:0:0:
421,55,127092,1,2,0:0:0:0:
425,153,127255,1,0,0:0:0:0:
221,123,127418,2,0,B|210:96|210:96|225:46,1,74.9999977111817,8|0,0:0|0:0,0:0:0:0:
308,266,127744,2,0,B|319:293|319:293|304:343,1,74.9999977111817
33,186,128070,6,0,B|68:205|68:205|129:176|174:187,1,149.999995422363,2|0,1:2|0:0,0:0:0:0:
174,187,128559,1,0,0:0:0:0:
181,368,128722,1,8,0:0:0:0:
44,298,128885,1,0,0:0:0:0:
181,368,129049,5,2,0:0:0:0:
241,225,129212,2,0,B|260:190|260:190|231:129|242:84,1,149.999995422363,2|0,0:0|0:0,0:0:0:0:
431,26,129701,2,0,L|523:49,1,74.9999977111817,2|0,0:0|0:0,0:0:0:0:
462,241,130027,1,8,0:0:0:0:
384,112,130190,1,2,0:0:0:0:
473,274,130353,2,0,L|451:353,1,74.9999977111817,2|0,0:0|0:0,0:0:0:0:
186,205,130679,6,0,B|151:186|151:186|90:215|45:204,1,149.999995422363,6|0,1:2|0:0,0:0:0:0:
44,203,131168,1,0,0:0:0:0:
284,144,131331,1,8,0:0:0:0:
138,272,131494,1,2,0:0:0:0:
311,345,131657,2,0,B|346:364|346:364|407:335|452:346,1,149.999995422363,6|0,1:2|0:0,0:0:0:0:
452,346,132146,5,0,0:0:0:0:
364,180,132309,2,0,P|358:143|371:105,1,74.9999977111817,2|0,0:0|0:0,0:0:0:0:
186,205,132635,2,0,P|221:218|246:248,1,74.9999977111817,8|0,0:0|0:0,0:0:0:0:
251,31,132962,2,0,P|221:54|182:61,1,74.9999977111817
44,203,133288,6,0,B|63:168|63:168|34:107|45:62,1,149.999995422363,6|0,1:2|0:0,0:0:0:0:
179,285,133777,1,0,0:0:0:0:
269,138,133940,2,0,B|243:126|243:126|176:138,1,74.9999977111817,8|0,0:0|0:0,0:0:0:0:
369,334,134266,1,6,1:2:0:0:
369,334,134429,2,0,B|403:353|403:353|465:325|509:337,1,149.999995422363,2|0,0:0|0:0,0:0:0:0:
436,97,134918,6,0,L|465:6,1,74.9999977111817,2|0,0:0|0:0,0:0:0:0:
280,304,135244,1,8,0:0:0:0:
322,83,135407,1,2,0:0:0:0:
418,251,135570,1,10,0:0:0:0:
335,11,135733,1,8,0:0:0:0:
181,200,135896,6,0,B|161:234|161:234|189:296|177:340,1,149.999995422363,6|0,1:2|0:0,0:0:0:0:
180,121,136385,1,0,0:0:0:0:
44,231,136549,1,8,0:0:0:0:
23,54,136712,1,2,0:0:0:0:
123,36,136875,1,2,0:0:0:0:
123,36,137038,2,0,B|157:17|157:17|219:45|263:33,1,149.999995422363
456,159,137527,6,0,B|460:197|460:197|441:228,1,74.9999977111817,2|0,0:0|0:0,0:0:0:0:
244,191,137853,2,0,B|239:152|239:152|258:121,1,74.9999977111817,8|0,0:0|0:0,0:0:0:0:
463,60,138179,1,0,0:0:0:0:
324,169,138342,1,0,0:0:0:0:
405,348,138505,6,0,L|483:366,1,74.9999977111817,2|0,1:2|0:0,0:0:0:0:
172,212,138831,2,0,L|94:194,1,74.9999977111817
312,21,139157,2,0,L|390:39,1,74.9999977111817,8|0,0:0|0:0,0:0:0:0:
302,253,139483,1,2,0:0:0:0:
98,195,139646,2,0,B|118:161|118:161|90:99|102:55,1,149.999995422363,2|0,0:0|0:0,0:0:0:0:
177,327,140135,6,0,P|151:354|98:360,1,74.9999977111817,2|0,0:0|0:0,0:0:0:0:
233,189,140462,1,8,0:0:0:0:
33,301,140625,1,2,0:0:0:0:
306,313,140788,2,0,L|304:239,1,74.9999977111817,2|0,0:0|0:0,0:0:0:0:
475,58,141114,6,0,B|441:38|441:38|379:66|335:54,1,149.999995422363,6|0,1:2|0:0,0:0:0:0:
233,189,141603,1,0,0:0:0:0:
153,82,141766,2,0,B|145:51|145:51|166:8,1,74.9999977111817,8|2,0:0|0:0,0:0:0:0:
68,186,142092,2,0,B|88:220|88:220|60:282|72:326,1,149.999995422363,6|0,1:2|0:0,0:0:0:0:
72,327,142581,5,0,0:0:0:0:
259,244,142744,2,0,L|251:162,1,74.9999977111817,2|0,0:0|0:0,0:0:0:0:
455,296,143070,2,0,L|463:378,1,74.9999977111817,8|0,0:0|0:0,0:0:0:0:
246,351,143396,1,0,0:0:0:0:
369,210,143559,1,0,0:0:0:0:
166,87,143722,6,0,B|132:107|132:107|70:79|26:91,1,149.999995422363,6|0,1:2|0:0,0:0:0:0:
83,273,144212,1,0,0:0:0:0:
224,178,144375,2,0,B|226:211|226:211|199:257,1,74.9999977111817,8|0,0:0|0:0,0:0:0:0:
83,273,144701,1,6,1:2:0:0:
278,352,144864,2,0,B|312:332|312:332|374:360|418:348,1,149.999995422363,2|0,0:0|0:0,0:0:0:0:
498,139,145353,2,0,P|464:119|419:127,1,74.9999977111817,2|0,0:0|0:0,0:0:0:0:
302,248,145679,1,8,0:0:0:0:
482,278,145842,1,2,0:0:0:0:
220,231,146005,1,10,0:0:0:0:
373,202,146168,1,2,0:0:0:0:
205,215,146331,2,0,L|212:140,1,74.9999977111817,0|0,0:0|2:0,0:0:0:0:
161,51,150570,6,0,B|203:36|203:36|307:52,2,112.499996566773
54,149,151549,6,0,L|57:270,1,112.499996566773,0|0,1:2|0:0,0:0:0:0:
159,341,152038,1,2,0:0:0:0:
159,341,152364,1,0,0:0:0:0:
252,237,152527,2,0,P|258:207|253:179,1,56.2499982833863,0|0,1:2|0:0,0:0:0:0:
253,181,153016,1,0,0:0:0:0:
332,298,153179,2,0,P|353:316|379:325,1,56.2499982833863,2|0,0:0|0:0,0:0:0:0:
441,181,153505,2,0,P|414:190|393:208,1,56.2499982833863
485,338,153831,2,0,P|489:310|484:282,1,56.2499982833863,0|0,1:2|0:0,0:0:0:0:
329,113,154157,6,0,L|467:101,1,112.499996566773,0|2,1:2|0:0,0:0:0:0:
243,191,154646,1,2,0:0:0:0:
243,191,154972,1,0,0:0:0:0:
212,68,155135,2,0,P|186:50|152:49,1,56.2499982833863,0|0,1:2|0:0,0:0:0:0:
162,47,155624,1,0,0:0:0:0:
123,204,155787,2,0,P|110:228|86:247,2,56.2499982833863,2|0|0,0:0|0:0|0:0,0:0:0:0:
273,117,156277,1,0,0:0:0:0:
273,117,156439,2,0,L|353:112,1,56.2499982833863,0|0,1:2|0:0,0:0:0:0:
449,238,156766,6,0,L|416:369,1,112.499996566773,0|0,1:2|0:0,0:0:0:0:
275,354,157255,1,2,0:0:0:0:
275,354,157581,1,0,0:0:0:0:
219,243,157744,2,0,P|226:179|280:143,1,112.499996566773,0|0,1:2|0:0,0:0:0:0:
392,175,158233,1,0,0:0:0:0:
374,288,158396,2,0,L|307:294,1,56.2499982833863,2|0,0:0|0:0,0:0:0:0:
176,306,158722,2,0,L|109:312,1,56.2499982833863
49,246,159049,1,0,1:2:0:0:
32,349,159212,1,0,0:0:0:0:
49,246,159375,6,0,L|28:126,1,112.499996566773,0|2,1:2|0:0,0:0:0:0:
111,44,159864,1,2,0:0:0:0:
111,44,160190,1,0,0:0:0:0:
210,133,160353,2,0,P|236:143|276:140,1,56.2499982833863,0|0,1:2|0:0,0:0:0:0:
108,228,160679,1,0,0:0:0:0:
264,143,160842,1,2,0:0:0:0:
333,244,161005,2,0,L|308:354,1,112.499996566773,0|2,0:0|0:0,0:0:0:0:
180,256,161494,1,2,0:0:0:0:
203,352,161657,1,0,0:0:0:0:
180,256,161820,1,0,0:0:0:0:
390,356,161983,6,0,P|422:357|446:342,1,56.2499982833863,2|0,1:2|0:0,0:0:0:0:
370,180,162309,2,0,P|343:161|332:135,1,56.2499982833863
480,8,162635,1,8,0:0:0:0:
409,111,162799,1,2,0:0:0:0:
409,111,162962,1,2,0:0:0:0:
301,24,163125,2,0,B|259:9|259:9|155:25,1,112.499996566773
63,89,163614,2,0,L|125:97,1,56.2499982833863,2|0,0:0|0:0,0:0:0:0:
253,139,163940,1,8,0:0:0:0:
161,210,164103,2,0,P|155:237|171:284,2,56.2499982833863,0|0|0,0:0|1:2|0:0,0:0:0:0:
308,303,164592,6,0,L|290:375,1,56.2499982833863,2|0,1:2|0:0,0:0:0:0:
340,194,164918,2,0,L|358:122,1,56.2499982833863
400,272,165244,2,0,L|468:289,1,56.2499982833863,8|0,0:0|0:0,0:0:0:0:
258,232,165570,1,2,0:0:0:0:
160,265,165733,2,0,B|142:306|142:306|153:410,1,112.499996566773,2|0,0:0|0:0,0:0:0:0:
187,178,166223,2,0,L|122:165,1,56.2499982833863,2|0,0:0|0:0,0:0:0:0:
36,235,166549,2,0,P|28:258|41:307,1,56.2499982833863,8|2,0:0|0:0,0:0:0:0:
86,98,166875,2,0,P|94:75|81:26,1,56.2499982833863,2|0,1:2|0:0,0:0:0:0:
242,169,167201,6,0,L|179:179,1,56.2499982833863,2|0,1:2|0:0,0:0:0:0:
321,239,167527,1,0,0:0:0:0:
345,128,167690,1,0,0:0:0:0:
321,239,167853,2,0,P|333:277|365:301,2,56.2499982833863,8|2|2,0:0|0:0|0:0,0:0:0:0:
454,145,168342,1,0,0:0:0:0:
454,145,168505,2,0,B|469:103|469:103|453:-1,1,112.499996566773,0|2,0:0|0:0,0:0:0:0:
342,11,168994,1,0,0:0:0:0:
240,63,169157,2,0,L|127:32,1,112.499996566773,8|0,0:0|1:2,0:0:0:0:
76,295,169809,6,0,P|92:269|96:242,1,56.2499982833863,2|0,1:2|0:0,0:0:0:0:
41,145,170135,1,0,0:0:0:0:
41,145,170299,1,0,0:0:0:0:
179,122,170462,2,0,L|233:135,1,56.2499982833863,8|0,0:0|0:0,0:0:0:0:
281,307,170788,1,2,0:0:0:0:
188,224,170951,1,2,0:0:0:0:
404,234,171114,2,0,B|413:266|413:266|390:350,1,112.499996566773,0|2,0:0|0:0,0:0:0:0:
203,304,171603,1,0,0:0:0:0:
333,173,171766,1,8,0:0:0:0:
321,369,171929,1,2,0:0:0:0:
251,219,172092,1,2,0:0:0:0:
228,203,172255,1,2,0:0:0:0:
205,188,172418,6,0,B|192:127|192:127|214:72|214:72|200:-3,2,168.749994850159
476,94,174049,1,0,0:0:0:0:
444,332,174538,1,0,0:0:0:0:
222,252,175027,6,0,B|159:248|159:248|108:279|108:279|32:276,2,168.749994850159
481,180,176494,1,0,0:0:0:0:
294,15,176983,1,0,0:0:0:0:
215,145,177309,5,0,0:0:0:0:
362,214,177635,2,0,B|375:153|375:153|353:98|353:98|367:23,2,168.749994850159
168,350,179103,1,0,0:0:0:0:
409,327,179592,1,0,0:0:0:0:
264,294,179918,5,0,0:0:0:0:
328,160,180244,2,0,B|389:148|389:148|443:171|443:171|519:158,2,168.749994850159
130,35,181712,1,0,0:0:0:0:
134,260,182201,2,0,L|161:374,1,112.499996566773
159,369,182853,5,2,0:3:0:0:
300,294,183016,2,0,P|323:242|315:178,1,112.499996566773,2|0,0:0|0:0,0:0:0:0:
176,177,183505,1,0,0:0:0:0:
311,39,183668,1,0,0:0:0:0:
96,85,183831,2,0,P|150:99|212:79,1,112.499996566773,2|0,0:3|0:0,0:0:0:0:
402,65,184320,2,0,L|469:83,2,56.2499982833863
351,181,184809,2,0,L|377:248,1,56.2499982833863,2|0,0:3|0:0,0:0:0:0:
458,364,185135,2,0,L|472:309,1,56.2499982833863,2|0,0:3|0:0,0:0:0:0:
256,256,185462,6,0,P|241:310|261:372,1,112.499996566773,2|0,0:3|0:0,0:0:0:0:
263,163,185951,2,0,L|250:71,1,56.2499982833863,2|0,0:3|0:0,0:0:0:0:
133,194,186277,1,0,0:0:0:0:
125,310,186440,2,0,P|82:341|6:341,1,112.499996566773,2|0,0:3|0:0,0:0:0:0:
57,141,186929,2,0,P|74:86|146:35,1,112.499996566773
342,34,187418,2,0,L|272:54,1,56.2499982833863
133,194,187744,2,0,L|209:229,1,56.2499982833863
284,346,188070,5,2,0:3:0:0:
384,243,188233,2,0,P|429:228|507:256,1,112.499996566773,2|0,0:0|0:0,0:0:0:0:
284,346,188722,1,0,0:0:0:0:
246,184,188885,1,0,0:0:0:0:
138,311,189049,2,0,P|93:326|15:298,1,112.499996566773,2|0,0:3|0:0,0:0:0:0:
48,141,189537,2,0,L|31:85,2,56.2499982833863
124,230,190026,2,0,L|179:221,1,56.2499982833863,2|0,0:3|0:0,0:0:0:0:
363,168,190352,2,0,L|311:149,1,56.2499982833863,2|0,0:3|0:0,0:0:0:0:
279,370,190679,6,0,P|261:308|269:258,1,112.499996566773,2|0,0:3|0:0,0:0:0:0:
311,149,191168,2,0,P|329:86|321:36,1,112.499996566773,2|0,0:3|0:0,0:0:0:0:
238,186,191657,1,2,0:0:0:0:
397,243,191820,1,2,0:0:0:0:
406,222,192146,2,0,P|447:216|453:319,1,168.749994850159
231,268,193288,6,0,L|127:247,1,74.9999977111817,6|0,1:2|0:0,0:0:0:0:
200,27,193614,2,0,P|241:11|302:23,1,74.9999977111817
273,193,193940,1,8,0:0:0:0:
129,111,194103,1,2,0:0:0:0:
346,49,194266,2,0,L|326:122,1,74.9999977111817,2|0,0:0|0:0,0:0:0:0:
417,329,194592,6,0,L|407:251,1,74.9999977111817
197,336,194918,2,0,P|234:355|289:348,1,74.9999977111817,2|0,0:0|0:0,0:0:0:0:
242,101,195245,2,0,B|200:88|200:88|128:118|79:108,1,149.999995422363,8|0,0:0|0:0,0:0:0:0:
98,318,195734,1,0,0:0:0:0:
98,318,195896,6,0,B|116:282|116:282|106:235,1,74.9999977111817,2|0,1:2|0:0,0:0:0:0:
242,101,196222,2,0,B|263:134|263:134|308:149,1,74.9999977111817
349,340,196549,2,0,B|309:341|309:341|273:373,1,74.9999977111817,8|0,0:0|0:0,0:0:0:0:
221,212,196875,5,2,0:0:0:0:
440,171,197038,2,0,B|453:130|453:130|423:58|433:9,1,149.999995422363,2|0,0:0|0:0,0:0:0:0:
339,265,197527,2,0,L|348:339,1,74.9999977111817,2|0,0:0|0:0,0:0:0:0:
322,120,197853,1,8,0:0:0:0:
471,328,198016,1,2,0:0:0:0:
230,282,198179,2,0,P|215:247|220:211,1,74.9999977111817,2|0,0:0|0:0,0:0:0:0:
427,244,198505,6,0,L|534:265,1,74.9999977111817,4|0,1:2|0:0,0:0:0:0:
186,353,198831,2,0,L|79:374,1,74.9999977111817
348,339,199158,1,8,0:0:0:0:
151,281,199321,1,2,0:0:0:0:
328,114,199483,2,0,P|360:152|359:207,1,74.9999977111817,6|0,1:2|0:0,0:0:0:0:
129,96,199810,6,0,B|116:67|116:67|131:22,1,74.9999977111817
228,257,200136,2,0,B|240:285|240:285|226:331,1,74.9999977111817,2|0,0:0|0:0,0:0:0:0:
0,291,200462,2,0,B|35:272|35:272|96:303|159:290,1,149.999995422363,8|0,0:0|0:0,0:0:0:0:
212,104,200951,1,0,0:0:0:0:
363,318,201114,6,0,L|451:303,1,74.9999977111817,6|0,1:2|0:0,0:0:0:0:
119,177,201440,2,0,L|31:192,1,74.9999977111817
370,327,201766,2,0,L|458:312,1,74.9999977111817,8|0,0:0|0:0,0:0:0:0:
263,142,202092,1,6,1:2:0:0:
280,365,202255,1,2,0:0:0:0:
320,238,202418,5,0,0:0:0:0:
280,365,202581,1,0,0:0:0:0:
416,219,202745,2,0,P|401:176|372:153,1,74.9999977111817,2|0,0:0|0:0,0:0:0:0:
121,298,203071,1,8,0:0:0:0:
370,327,203234,1,2,0:0:0:0:
200,199,203396,1,8,0:3:0:0:
379,156,203559,1,8,0:3:0:0:
188,91,203723,6,0,P|183:54|199:20,1,74.9999977111817,4|0,1:2|0:0,0:0:0:0:
469,97,204049,2,0,P|438:75|401:73,1,74.9999977111817
398,285,204375,1,8,0:0:0:0:
302,135,204538,1,2,0:0:0:0:
256,355,204701,2,0,L|328:373,1,74.9999977111817,2|0,0:0|0:0,0:0:0:0:
116,325,205027,6,0,L|44:347,1,74.9999977111817
184,125,205353,2,0,P|179:84|154:58,1,74.9999977111817,2|0,0:0|0:0,0:0:0:0:
44,207,205679,2,0,B|24:242|24:242|54:303|42:365,1,149.999995422363,8|0,0:0|0:0,0:0:0:0:
44,348,206169,1,0,0:0:0:0:
181,232,206331,2,0,P|214:215|251:219,1,74.9999977111817,2|0,1:2|0:0,0:0:0:0:
413,350,206657,2,0,P|449:353|482:336,1,74.9999977111817
381,119,206983,2,0,P|365:152|370:189,1,74.9999977111817,8|0,0:0|0:0,0:0:0:0:
244,320,207310,5,2,0:0:0:0:
370,189,207473,2,0,B|405:210|405:210|467:181|529:196,1,149.999995422363,2|0,0:0|0:0,0:0:0:0:
310,37,207962,2,0,L|203:49,1,74.9999977111817,2|0,0:0|0:0,0:0:0:0:
36,64,208288,1,8,0:0:0:0:
250,218,208451,1,2,0:0:0:0:
112,324,208614,2,0,P|87:295|81:259,1,74.9999977111817,2|0,0:0|0:0,0:0:0:0:
361,358,208940,6,0,L|435:344,1,74.9999977111817,4|0,1:2|0:0,0:0:0:0:
326,113,209266,2,0,L|251:124,1,74.9999977111817
258,293,209593,1,8,0:0:0:0:
193,55,209756,1,2,0:0:0:0:
258,293,209918,2,0,L|244:377,1,74.9999977111817,6|0,1:2|0:0,0:0:0:0:
403,238,210244,6,0,B|430:227|430:227|471:246,1,74.9999977111817
173,346,210570,2,0,B|145:356|145:356|104:337,1,74.9999977111817,2|0,0:0|0:0,0:0:0:0:
145,84,210897,2,0,B|125:118|125:118|154:180|139:242,1,149.999995422363,8|0,0:0|0:0,0:0:0:0:
22,357,211386,1,0,0:0:0:0:
273,365,211549,6,0,L|264:290,1,74.9999977111817,4|0,1:2|0:0,0:0:0:0:
34,93,211875,2,0,L|42:167,1,74.9999977111817
283,369,212201,2,0,L|274:294,1,74.9999977111817,8|0,0:0|0:0,0:0:0:0:
245,84,212527,1,6,1:2:0:0:
192,297,212690,5,2,0:0:0:0:
342,235,212853,1,8,0:0:0:0:
78,267,213016,1,0,0:0:0:0:
342,235,213179,2,0,B|351:202|351:202|330:157,1,74.9999977111817,2|0,0:0|0:0,0:0:0:0:
212,372,213506,1,8,0:0:0:0:
444,239,213669,1,8,0:0:0:0:
267,306,213831,1,8,0:0:0:0:
238,108,213995,1,8,0:0:0:0:
332,360,214157,1,4,0:0:0:0:
154,290,224592,6,0,B|112:277|112:277|40:307|-9:297,1,149.999995422363,2|0,1:2|0:0,0:0:0:0:
336,83,225244,2,0,L|409:98,1,74.9999977111817,8|2,0:0|0:0,0:0:0:0:
146,167,225570,1,2,0:0:0:0:
146,167,225733,2,0,B|133:125|133:125|163:53|153:4,1,149.999995422363
343,288,226222,2,0,B|352:315|352:315|334:373,1,74.9999977111817,2|0,0:0|0:0,0:0:0:0:
154,290,226549,2,0,B|145:317|145:317|163:375,1,74.9999977111817,8|0,0:0|0:0,0:0:0:0:
249,151,226875,1,0,0:0:0:0:
247,359,227038,1,0,0:0:0:0:
497,287,227201,6,0,L|424:272,1,74.9999977111817,2|0,1:2|0:0,0:0:0:0:
97,182,227527,2,0,L|170:166,1,74.9999977111817
451,34,227853,2,0,L|377:18,1,74.9999977111817,8|0,0:0|0:0,0:0:0:0:
272,236,228179,1,2,0:0:0:0:
460,178,228342,2,0,B|473:136|473:136|443:64|453:15,1,149.999995422363,2|0,0:0|0:0,0:0:0:0:
272,236,228831,2,0,P|261:269|283:319,1,74.9999977111817,2|0,0:0|0:0,0:0:0:0:
360,171,229157,1,8,0:0:0:0:
404,362,229320,1,2,0:0:0:0:
360,171,229483,2,0,L|369:86,1,74.9999977111817,2|0,0:0|0:0,0:0:0:0:
152,297,229809,6,0,B|110:310|110:310|38:280|-11:290,1,149.999995422363,6|0,1:2|0:0,0:0:0:0:
173,145,230299,1,0,0:0:0:0:
291,234,230462,2,0,B|297:262|297:262|276:322,1,74.9999977111817,8|2,0:0|0:0,0:0:0:0:
173,145,230788,2,0,B|160:103|160:103|190:31|180:-18,1,149.999995422363,6|0,1:2|0:0,0:0:0:0:
182,0,231277,1,0,0:0:0:0:
377,79,231440,2,0,L|451:72,1,74.9999977111817,2|0,0:0|0:0,0:0:0:0:
205,236,231766,2,0,L|103:218,1,74.9999977111817,8|0,0:0|0:0,0:0:0:0:
402,363,232092,1,0,0:0:0:0:
480,288,232255,1,0,0:0:0:0:
297,248,232418,6,0,B|310:206|310:206|280:134|290:85,1,149.999995422363,6|0,1:2|0:0,0:0:0:0:
241,323,232907,1,0,0:0:0:0:
78,284,233070,2,0,P|71:248|86:209,1,74.9999977111817,8|0,0:0|0:0,0:0:0:0:
214,155,233396,1,2,1:2:0:0:
163,341,233559,1,2,0:0:0:0:
269,226,233722,5,8,0:0:0:0:
340,345,233885,1,2,0:3:0:0:
314,69,234049,1,8,0:0:0:0:
360,202,234212,1,2,0:0:0:0:
209,80,234375,5,10,0:0:0:0:
474,94,234538,1,2,0:0:0:0:
135,28,234701,1,10,0:0:0:0:
409,39,234864,1,10,0:0:0:0:
248,146,240244,6,0,L|299:167,2,56.2499982833863,2|0|0,0:0|0:0|0:0,0:0:0:0:
223,332,240896,2,0,L|175:368,2,56.2499982833863,2|0|0,0:0|0:0|0:0,0:0:0:0:
86,222,241549,2,0,L|78:166,2,56.2499982833863,2|0|0,0:0|0:0|0:0,0:0:0:0:
303,294,242201,2,0,L|319:228,2,56.2499982833863,2|0|0,0:0|0:0|0:0,0:0:0:0:
89,335,242853,6,0,P|61:332|36:343,1,56.2499982833863,8|0,0:0|0:0,0:0:0:0:
195,235,243179,2,0,P|197:263|190:290,1,56.2499982833863
151,151,243505,2,0,P|148:118|160:84,1,56.2499982833863
282,53,243831,2,0,L|227:47,1,56.2499982833863
376,111,244157,2,0,P|395:45|372:-8,2,112.499996566773
376,111,245135,1,0,0:0:0:0:
327,357,245462,6,0,B|308:332|308:332|309:288,1,56.2499982833863,8|0,0:0|0:0,0:0:0:0:
412,272,245788,2,0,B|431:297|431:297|430:341,1,56.2499982833863
318,360,246114,2,0,B|299:335|299:335|300:291,1,56.2499982833863
403,275,246440,2,0,B|422:300|422:300|421:344,1,56.2499982833863
185,357,246766,6,0,B|204:332|204:332|203:288,1,56.2499982833863,8|0,0:0|0:0,0:0:0:0:
100,272,247092,2,0,B|81:297|81:297|82:341,1,56.2499982833863
194,360,247418,2,0,B|213:335|213:335|212:291,1,56.2499982833863
109,275,247744,2,0,B|90:300|90:300|91:344,1,56.2499982833863
258,235,248070,5,8,0:0:0:0:
251,227,248233,1,0,0:0:0:0:
245,220,248396,2,0,L|245:152,1,56.2499982833863
245,19,248722,2,0,L|245:87,1,56.2499982833863
239,215,249049,2,0,L|239:147,1,56.2499982833863
383,163,249375,6,0,B|351:159|351:159|320:128,1,56.2499982833863,8|0,0:0|0:0,0:0:0:0:
381,42,249701,2,0,B|412:45|412:45|443:76,1,56.2499982833863
379,171,250027,2,0,B|347:167|347:167|316:136,1,56.2499982833863
377,51,250353,2,0,B|408:54|408:54|439:85,1,56.2499982833863
471,274,250679,6,0,L|447:333,2,56.2499982833863,2|0|0,0:0|0:0|0:0,0:0:0:0:
278,335,251331,2,0,L|296:382,2,43.749998664856,2|0|0,0:0|0:0|0:0,0:0:0:0:
113,262,251984,2,0,L|81:276,2,31.25,2|0|0,0:0|0:0|0:0,0:0:0:0:
248,144,252636,2,0,L|287:153,2,31.25,2|0|0,0:0|0:0|0:0,0:0:0:0:
73,117,253288,6,0,B|54:92|54:92|55:48,1,56.2499982833863,8|0,0:0|0:0,0:0:0:0:
158,32,253614,2,0,B|177:57|177:57|176:101,1,56.2499982833863
64,120,253940,2,0,B|45:95|45:95|46:51,1,56.2499982833863
149,35,254266,2,0,B|168:60|168:60|167:104,1,56.2499982833863
354,32,254592,6,0,B|335:57|335:57|336:101,1,56.2499982833863,8|0,0:0|0:0,0:0:0:0:
439,117,254918,2,0,B|458:92|458:92|457:48,1,56.2499982833863
363,35,255244,2,0,B|344:60|344:60|345:104,1,56.2499982833863
448,120,255570,2,0,B|467:95|467:95|466:51,1,56.2499982833863
256,192,255815,12,0,258342,0:0:0:0:
359,83,258505,6,0,L|451:110,1,74.9999977111817,4|0,1:2|0:0,0:0:0:0:
131,166,258831,2,0,P|117:131|118:94,1,74.9999977111817
265,279,259157,1,8,0:0:0:0:
262,57,259320,1,2,0:0:0:0:
265,279,259483,2,0,L|278:369,1,74.9999977111817,2|0,0:0|0:0,0:0:0:0:
272,131,259809,6,0,L|259:41,1,74.9999977111817
421,216,260135,2,0,P|427:252|419:288,1,74.9999977111817,2|0,0:0|0:0,0:0:0:0:
177,334,260462,2,0,B|136:347|136:347|64:317|15:327,1,149.999995422363,8|0,0:0|0:0,0:0:0:0:
47,76,260951,1,0,0:0:0:0:
47,76,261114,6,0,B|81:69|81:69|116:88,1,74.9999977111817,2|0,1:2|0:0,0:0:0:0:
241,292,261440,2,0,B|217:265|217:265|217:226,1,74.9999977111817
324,8,261766,2,0,B|312:42|312:42|279:63,1,74.9999977111817,8|0,0:0|0:0,0:0:0:0:
114,190,262092,5,2,0:0:0:0:
348,124,262255,2,0,B|389:111|389:111|461:141|510:131,1,149.999995422363,2|0,0:0|0:0,0:0:0:0:
296,279,262744,2,0,L|310:352,1,74.9999977111817,2|0,0:0|0:0,0:0:0:0:
267,155,263070,1,8,0:0:0:0:
443,353,263233,1,2,0:0:0:0:
193,364,263396,2,0,P|182:324|192:288,1,74.9999977111817,2|0,0:0|0:0,0:0:0:0:
388,197,263722,6,0,L|490:218,1,74.9999977111817,6|0,1:2|0:0,0:0:0:0:
187,205,264049,2,0,L|85:184,1,74.9999977111817
310,352,264375,1,8,0:0:0:0:
342,128,264538,1,2,0:0:0:0:
285,45,264701,2,0,L|183:24,1,74.9999977111817,6|0,1:2|0:0,0:0:0:0:
448,93,265027,6,0,B|459:64|459:64|444:19,1,74.9999977111817
307,281,265353,2,0,B|295:309|295:309|310:354,1,74.9999977111817,2|0,0:0|0:0,0:0:0:0:
495,179,265679,2,0,B|460:198|460:198|399:167|336:180,1,149.999995422363,8|0,0:0|0:0,0:0:0:0:
188,344,266168,1,0,0:0:0:0:
114,156,266331,6,0,L|125:62,1,74.9999977111817,6|0,1:2|0:0,0:0:0:0:
416,285,266657,2,0,L|405:379,1,74.9999977111817
88,314,266983,2,0,L|15:331,1,74.9999977111817,8|0,0:0|0:0,0:0:0:0:
353,177,267309,1,6,1:2:0:0:
294,359,267472,5,2,0:0:0:0:
227,250,267635,1,0,0:0:0:0:
300,366,267798,1,8,0:0:0:0:
249,166,267962,2,0,B|242:137|242:137|265:81,1,74.9999977111817,2|0,0:0|0:0,0:0:0:0:
206,342,268288,1,8,0:0:0:0:
463,293,268451,1,2,0:0:0:0:
304,228,268614,1,8,0:0:0:0:
474,298,268777,1,8,0:0:0:0:
108,320,268940,6,0,P|101:280|116:240,1,74.9999977111817,4|0,1:2|0:0,0:0:0:0:
68,24,269266,2,0,P|76:61|66:97,1,74.9999977111817
18,233,269592,1,8,0:0:0:0:
238,135,269755,1,2,0:0:0:0:
304,228,269918,2,0,L|280:306,1,74.9999977111817,2|0,0:0|0:0,0:0:0:0:
445,114,270244,6,0,L|392:43,1,74.9999977111817
365,343,270570,2,0,P|403:353|437:338,1,74.9999977111817,2|0,0:0|0:0,0:0:0:0:
304,228,270896,2,0,B|325:193|325:193|296:131|311:69,1,149.999995422363,8|0,0:0|0:0,0:0:0:0:
365,343,271386,1,0,0:0:0:0:
207,275,271548,6,0,P|170:271|137:288,1,74.9999977111817,2|0,1:2|0:0,0:0:0:0:
365,343,271875,2,0,P|403:353|437:338,1,74.9999977111817
147,213,272201,2,0,B|134:299,1,74.9999977111817,8|0,0:0|0:0,0:0:0:0:
415,217,272527,5,2,0:0:0:0:
227,59,272690,2,0,B|192:80|192:80|130:51|68:66,1,149.999995422363,2|0,0:0|0:0,0:0:0:0:
405,103,273179,2,0,L|393:18,1,74.9999977111817,2|0,0:0|0:0,0:0:0:0:
280,218,273505,1,8,0:0:0:0:
460,253,273668,1,2,0:0:0:0:
234,292,273831,2,0,P|225:328|235:364,1,74.9999977111817,2|0,0:0|0:0,0:0:0:0:
477,123,274157,6,0,L|405:103,1,74.9999977111817,6|0,1:2|0:0,0:0:0:0:
136,158,274483,2,0,L|209:144,1,74.9999977111817
395,28,274810,1,8,0:0:0:0:
375,233,274973,1,2,0:0:0:0:
136,158,275135,2,0,P|124:113|143:73,1,74.9999977111817,6|0,1:2|0:0,0:0:0:0:
220,350,275462,6,0,B|193:362|193:362|127:337,1,74.9999977111817
425,284,275788,2,0,B|451:271|451:271|517:296,1,74.9999977111817,2|0,0:0|0:0,0:0:0:0:
303,78,276114,2,0,B|283:112|283:112|312:174|297:236,1,149.999995422363,8|0,0:0|0:0,0:0:0:0:
301,220,276603,1,0,0:0:0:0:
104,356,276766,6,0,L|25:335,1,74.9999977111817,6|0,1:2|0:0,0:0:0:0:
188,47,277092,2,0,L|260:66,1,74.9999977111817
473,317,277418,2,0,L|401:298,1,74.9999977111817,8|0,0:0|0:0,0:0:0:0:
195,143,277744,1,6,1:2:0:0:
267,343,277907,5,2,0:0:0:0:
392,187,278070,1,0,0:0:0:0:
348,364,278233,1,8,0:0:0:0:
233,240,278397,2,0,B|263:234|263:234|313:254,1,74.9999977111817,2|0,0:0|0:0,0:0:0:0:
446,362,278723,1,8,0:0:0:0:
140,316,278885,1,2,0:0:0:0:
374,287,279048,1,8,0:0:0:0:
140,316,279212,1,8,0:0:0:0:
447,249,279375,6,0,B|463:212|463:212|427:154|435:90,1,149.999995422363,4|0,1:2|0:0,0:0:0:0:
214,115,279864,1,0,0:0:0:0:
341,175,280027,1,8,0:0:0:0:
328,29,280190,1,2,0:0:0:0:
245,211,280353,2,0,B|208:227|208:227|150:191|86:199,1,149.999995422363,2|0,0:0|0:0,0:0:0:0:
120,352,280842,1,0,0:0:0:0:
43,300,281005,1,2,0:0:0:0:
120,352,281168,1,0,0:0:0:0:
38,163,281331,2,0,B|31:134|31:134|53:87,1,74.9999977111817,8|0,0:0|0:0,0:0:0:0:
211,300,281657,2,0,B|217:328|217:328|195:375,1,74.9999977111817
317,166,281983,6,0,B|352:147|352:147|413:176|458:165,1,149.999995422363,2|0,1:2|0:0,0:0:0:0:
458,164,282472,1,0,0:0:0:0:
331,329,282635,1,8,0:0:0:0:
442,281,282798,1,0,0:0:0:0:
225,205,282962,1,2,0:0:0:0:
225,205,283125,2,0,B|206:170|206:170|235:109|224:64,1,149.999995422363,2|0,0:0|0:0,0:0:0:0:
21,219,283614,2,0,P|55:239|112:233,1,74.9999977111817,2|0,0:0|0:0,0:0:0:0:
307,119,283940,1,8,0:0:0:0:
331,234,284103,1,2,0:0:0:0:
425,91,284266,2,0,L|410:12,1,74.9999977111817,2|0,0:0|0:0,0:0:0:0:
331,234,284592,6,0,B|312:269|312:269|341:330|330:375,1,149.999995422363,2|0,1:2|0:0,0:0:0:0:
163,229,285081,1,0,0:0:0:0:
239,366,285244,1,8,0:0:0:0:
207,157,285407,1,2,0:0:0:0:
14,318,285570,2,0,B|49:337|49:337|110:308|155:319,1,149.999995422363,2|0,1:2|0:0,0:0:0:0:
155,319,286059,1,0,0:0:0:0:
89,151,286222,2,0,P|83:114|96:76,1,74.9999977111817,2|0,0:0|0:0,0:0:0:0:
284,236,286549,2,0,P|254:259|215:266,1,74.9999977111817,8|0,0:0|0:0,0:0:0:0:
260,18,286875,2,0,P|295:31|320:61,1,74.9999977111817
218,266,287201,6,0,B|199:231|199:231|228:170|217:125,1,149.999995422363,2|0,1:2|0:0,0:0:0:0:
406,230,287690,1,0,0:0:0:0:
400,75,287853,2,0,B|374:63|374:63|307:75,1,74.9999977111817,8|0,0:0|0:0,0:0:0:0:
327,329,288179,1,2,1:2:0:0:
327,329,288342,2,0,B|361:348|361:348|423:320|467:332,1,149.999995422363,2|0,0:0|0:0,0:0:0:0:
123,277,288831,2,0,L|29:299,1,74.9999977111817,2|0,0:0|0:0,0:0:0:0:
329,242,289157,1,8,0:0:0:0:
159,363,289320,1,2,0:0:0:0:
180,120,289483,1,8,0:0:0:0:
396,282,289646,1,8,0:0:0:0:
282,41,289809,6,0,B|248:21|248:21|186:49|142:37,1,149.999995422363,4|0,1:2|0:0,0:0:0:0:
94,259,290299,1,0,0:0:0:0:
233,179,290462,1,8,0:0:0:0:
93,89,290625,1,2,0:0:0:0:
185,241,290788,1,2,0:0:0:0:
185,241,290951,2,0,B|166:275|166:275|194:337|181:382,1,149.999995422363
348,216,291440,2,0,B|383:206|383:206|418:221,1,74.9999977111817,2|0,0:0|0:0,0:0:0:0:
403,378,291766,2,0,B|367:387|367:387|332:372,1,74.9999977111817,8|0,0:0|0:0,0:0:0:0:
491,273,292092,1,0,0:0:0:0:
264,146,292255,1,0,0:0:0:0:
472,27,292418,6,0,L|477:127,1,74.9999977111817,2|0,1:2|0:0,0:0:0:0:
277,319,292744,2,0,L|271:218,1,74.9999977111817
32,176,293070,2,0,L|36:250,1,74.9999977111817,8|0,0:0|0:0,0:0:0:0:
25,19,293396,1,2,0:0:0:0:
207,95,293559,2,0,B|241:115|241:115|303:87|347:99,1,149.999995422363,2|0,0:0|0:0,0:0:0:0:
227,354,294048,2,0,P|189:354|147:321,1,74.9999977111817,2|0,0:0|0:0,0:0:0:0:
157,174,294375,1,8,0:0:0:0:
316,282,294538,1,2,0:0:0:0:
66,264,294701,2,0,L|62:339,1,74.9999977111817,2|0,0:0|0:0,0:0:0:0:
386,326,295027,6,0,B|406:292|406:292|378:230|390:186,1,149.999995422363,2|0,1:2|0:0,0:0:0:0:
234,176,295516,1,0,0:0:0:0:
227,354,295679,2,0,B|256:367|256:367|302:354,1,74.9999977111817,8|2,0:0|0:0,0:0:0:0:
178,120,296005,2,0,B|142:138|142:138|82:106|37:116,1,149.999995422363,2|0,1:2|0:0,0:0:0:0:
36,116,296494,1,0,0:0:0:0:
277,107,296657,2,0,L|284:32,1,74.9999977111817,2|0,0:0|0:0,0:0:0:0:
234,279,296983,2,0,L|228:353,1,74.9999977111817,8|0,0:0|0:0,0:0:0:0:
234,176,297309,1,0,0:0:0:0:
109,344,297472,1,0,0:0:0:0:
326,264,297635,6,0,B|360:244|360:244|422:272|466:260,1,149.999995422363,2|0,1:2|0:0,0:0:0:0:
465,96,298125,1,0,0:0:0:0:
322,192,298288,2,0,B|313:233|313:233|326:264,1,74.9999977111817,8|0,0:0|0:0,0:0:0:0:
484,351,298614,5,2,1:2:0:0:
308,359,298777,1,2,0:0:0:0:
416,173,298940,5,8,0:0:0:0:
308,359,299103,1,8,0:0:0:0:
290,103,299266,1,8,0:0:0:0:
239,234,299429,1,8,0:0:0:0:
384,60,299592,5,8,0:0:0:0:
138,33,299755,1,8,0:0:0:0:
322,192,299918,1,8,0:0:0:0:
113,280,300081,1,8,0:0:0:0:
409,359,300244,6,0,L|489:350,1,74.9999977111817,4|0,0:0|0:0,0:0:0:0:
198,372,300570,2,0,P|185:330|197:297,1,74.9999977111817
138,102,300896,1,8,0:0:0:0:
277,209,301060,1,2,0:0:0:0:
102,373,301223,2,0,B|89:332|89:332|119:260|109:211,1,149.999995422363,2|0,0:0|0:0,0:0:0:0:
347,362,301712,5,0,0:0:0:0:
347,362,301875,2,0,L|346:276,1,74.9999977111817,2|0,0:0|0:0,0:0:0:0:
349,55,302201,2,0,B|391:44|391:44|462:76|511:68,1,149.999995422363,8|0,0:0|0:0,0:0:0:0:
339,203,302690,1,0,0:0:0:0:
387,128,302853,5,2,0:0:0:0:
444,247,303016,1,0,0:0:0:0:
446,257,303179,1,0,0:0:0:0:
223,294,303342,1,0,0:0:0:0:
225,303,303505,2,0,L|237:399,1,74.9999977111817,8|0,0:0|0:0,0:0:0:0:
250,141,303831,1,2,0:0:0:0:
26,196,303994,6,0,B|68:184|68:184|139:215|170:207,1,149.999995422363,2|0,0:0|0:0,0:0:0:0:
329,153,304483,2,0,B|335:125|335:125|317:83,1,74.9999977111817,2|0,0:0|0:0,0:0:0:0:
201,51,304810,1,8,0:0:0:0:
411,136,304973,1,2,0:0:0:0:
364,285,305136,2,0,L|377:362,1,74.9999977111817,2|0,0:0|0:0,0:0:0:0:
485,162,305462,6,0,P|490:124|473:85,1,74.9999977111817,6|0,0:0|0:0,0:0:0:0:
176,124,305788,2,0,L|250:141,1,74.9999977111817
426,212,306114,1,8,0:0:0:0:
339,43,306278,1,2,0:0:0:0:
257,225,306440,6,0,B|245:267|245:267|276:338|267:387,1,149.999995422363,2|0,0:0|0:0,0:0:0:0:
51,267,306929,1,0,0:0:0:0:
51,267,307092,2,0,L|77:177,1,74.9999977111817,2|0,0:0|0:0,0:0:0:0:
328,58,307418,2,0,P|267:88|186:64,1,149.999995422363,8|0,0:0|0:0,0:0:0:0:
357,241,307907,1,0,0:0:0:0:
357,241,308070,6,0,L|367:316,1,74.9999977111817,2|0,0:0|0:0,0:0:0:0:
472,192,308396,2,0,B|489:152|489:152|470:87|484:35,1,149.999995422363,0|8,0:0|0:0,0:0:0:0:
290,179,308886,1,0,0:0:0:0:
378,160,309049,1,2,0:0:0:0:
377,160,309212,2,0,P|385:123|377:87,1,74.9999977111817,2|0,0:0|0:0,0:0:0:0:
193,185,309538,1,2,0:0:0:0:
193,185,309701,6,0,P|167:212|156:247,1,74.9999977111817,2|0,0:0|0:0,0:0:0:0:
428,318,310027,1,8,0:0:0:0:
250,272,310190,1,10,0:3:0:0:
353,42,310353,1,10,0:3:0:0:
353,42,310679,6,0,P|345:83|309:115,1,74.9999977111817,4|0,0:0|0:0,0:0:0:0:
139,184,311005,2,0,P|125:150|95:127,1,74.9999977111817
231,42,311331,1,8,0:0:0:0:
304,187,311495,1,2,0:0:0:0:
58,201,311657,2,0,B|70:242|70:242|39:313|46:345,1,149.999995422363,2|0,0:0|0:0,0:0:0:0:
197,121,312147,5,0,0:0:0:0:
214,275,312310,2,0,L|223:352,1,74.9999977111817,2|0,0:0|0:0,0:0:0:0:
360,196,312636,2,0,P|446:197|497:267,1,149.999995422363,8|0,0:0|0:0,0:0:0:0:
293,122,313125,1,0,0:0:0:0:
396,47,313288,5,2,0:0:0:0:
390,36,313451,1,0,0:0:0:0:
310,261,313614,1,0,0:0:0:0:
314,272,313777,1,0,0:0:0:0:
192,134,313940,2,0,L|205:41,1,74.9999977111817,8|0,0:0|0:0,0:0:0:0:
67,206,314266,1,2,0:0:0:0:
104,347,314429,2,0,B|140:356|140:356|203:342|203:342|251:352,1,149.999995422363,2|0,0:0|0:0,0:0:0:0:
447,233,314918,6,0,B|455:201|455:201|432:134,1,74.9999977111817,2|0,0:0|0:0,0:0:0:0:
371,307,315244,2,0,B|395:330|395:330|436:338,1,74.9999977111817,8|2,0:0|0:0,0:0:0:0:
353,195,315570,2,0,B|322:205|322:205|294:236,1,74.9999977111817,2|0,0:0|0:0,0:0:0:0:
504,104,315897,6,0,P|476:79|440:80,1,74.9999977111817,6|0,0:0|0:0,0:0:0:0:
240,151,316223,2,0,L|244:71,1,74.9999977111817
290,231,316549,1,8,0:0:0:0:
352,42,316713,1,2,0:0:0:0:
290,231,316875,6,0,B|271:266|271:266|302:327|289:390,1,149.999995422363,2|0,0:0|0:0,0:0:0:0:
329,148,317364,1,0,0:0:0:0:
180,206,317527,2,0,P|140:210|79:180,1,74.9999977111817,2|0,0:0|0:0,0:0:0:0:
295,43,317853,2,0,L|453:65,1,149.999995422363,8|0,0:0|0:0,0:0:0:0:
226,126,318342,1,0,0:0:0:0:
124,108,318505,6,0,B|115:82|115:82|137:19,1,74.9999977111817,2|0,0:0|0:0,0:0:0:0:
164,235,318831,2,0,B|173:261|173:261|158:306,1,74.9999977111817
47,198,319157,1,8,0:0:0:0:
226,126,319321,1,0,0:0:0:0:
254,232,319484,1,2,0:0:0:0:
254,232,319647,1,2,0:0:0:0:
395,96,319809,6,0,L|376:8,1,74.9999977111817,8|0,0:0|0:0,0:0:0:0:
331,294,320135,2,0,P|333:355|362:384,1,74.9999977111817,2|0,0:3|0:0,0:0:0:0:
326,151,320462,1,8,0:0:0:0:
422,317,320625,1,8,0:0:0:0:
422,317,320788,1,0,0:0:0:0:
487,214,320951,1,0,0:0:0:0:
