osu file format v14

[General]
AudioFilename: audio.mp3
AudioLeadIn: 0
PreviewTime: 63831
Countdown: 1
SampleSet: Soft
StackLeniency: 0.7
Mode: 0
LetterboxInBreaks: 0
WidescreenStoryboard: 1

[Editor]
DistanceSpacing: 2.5
BeatDivisor: 8
GridSize: 4
TimelineZoom: 1.7

[Metadata]
Title:Amazing Trees
TitleUnicode:Amazing Trees
Artist:SawanoHiroyuki[nZk]:Tielle
ArtistUnicode:SawanoHiroyuki[nZk]:Tielle
Creator:NotEnough
Version:remap insane
Source:
Tags:
BeatmapID:1549248
BeatmapSetID:696708

[Difficulty]
HPDrainRate:6
CircleSize:4
OverallDifficulty:8
ApproachRate:9
SliderMultiplier:2.3
SliderTickRate:1

[Events]
//Background and Video events
0,0,"Amazing trees.png",0,0
//Break Periods
//Storyboard Layer 0 (Background)
//Storyboard Layer 1 (Fail)
//Storyboard Layer 2 (Pass)
//Storyboard Layer 3 (Foreground)
//Storyboard Sound Samples

[TimingPoints]
-1304,652.173913043478,4,2,0,36,1,0
1304,-100,4,2,0,36,0,0
22174,-125,4,2,0,36,0,0
43043,-166.666666666667,4,2,0,36,0,0
61304,-200,4,2,0,36,0,0
63913,-83.3333333333333,4,2,0,36,0,1
84782,-100,4,2,0,36,0,0

[Colours]
Combo1 : 134,134,255
Combo2 : 21,21,255
Combo3 : 103,103,103

[HitObjects]
72,49,326,5,0,0:0:0:0:
113,126,652,1,0,0:0:0:0:
154,203,978,1,0,0:0:0:0:
307,83,1304,5,0,0:0:0:0:
261,225,1467,1,0,0:0:0:0:
182,103,1630,2,0,B|189:46|189:46|218:3,1,86.25
226,4,1956,1,0,0:0:0:0:
386,43,2119,1,0,0:0:0:0:
252,170,2282,2,0,B|257:226|257:226|296:269,1,115
409,157,2772,1,0,0:0:0:0:
328,349,2935,2,0,B|271:343|271:343|232:317,1,86.25
228,312,3261,5,0,0:0:0:0:
334,193,3424,1,0,0:0:0:0:
169,247,3587,2,0,B|146:285|146:285|143:332,1,86.25
143,359,3913,1,0,0:0:0:0:
293,268,4076,1,0,0:0:0:0:
162,158,4239,2,0,B|120:176|120:176|79:230,1,86.25
80,237,4565,5,0,0:0:0:0:
109,78,4728,1,0,0:0:0:0:
189,264,4891,1,0,0:0:0:0:
30,103,5054,2,0,B|30:45|30:45|73:-2,1,115
149,129,5543,2,0,B|149:187|149:187|112:229,1,86.25
117,228,5869,1,0,0:0:0:0:
250,133,6032,1,0,0:0:0:0:
59,150,6195,2,0,B|27:189|27:189|26:248,1,86.25
26,250,6522,5,0,0:0:0:0:
26,80,6685,1,0,0:0:0:0:
117,228,6848,2,0,B|117:286|117:286|147:317,1,86.25
151,324,7174,1,0,0:0:0:0:
26,224,7337,1,0,0:0:0:0:
209,255,7500,2,0,B|273:263|273:263|327:309,1,115
168,373,7989,1,0,0:0:0:0:
117,228,8152,2,0,B|97:175|97:175|114:128,1,86.25
118,125,8478,5,0,0:0:0:0:
19,253,8641,1,0,0:0:0:0:
18,78,8804,2,0,B|49:42|49:42|100:22,1,86.25
105,20,9130,1,0,0:0:0:0:
266,69,9293,1,0,0:0:0:0:
112,126,9456,2,0,B|69:152|69:152|51:196,1,86.25
51,206,9782,5,0,0:0:0:0:
192,295,9945,1,0,0:0:0:0:
193,92,10109,1,0,0:0:0:0:
108,273,10272,2,0,B|107:331|107:331|149:379,1,115
277,269,10761,2,0,B|278:211|278:211|247:173,1,86.25
247,175,11087,5,0,0:0:0:0:
368,296,11250,1,0,0:0:0:0:
181,245,11413,2,0,B|120:225|120:225|105:202|104:201,1,86.25
102,187,11739,1,0,0:0:0:0:
177,335,11902,1,0,0:0:0:0:
261,199,12065,2,0,B|292:150|292:150|328:133,1,86.25
335,131,12391,5,0,0:0:0:0:
175,141,12554,1,0,0:0:0:0:
357,213,12717,2,0,B|417:236|417:236|443:282,1,115
369,130,13206,1,0,0:0:0:0:
312,282,13369,2,0,B|290:328|290:328|253:352,1,86.25
246,358,13695,1,0,0:0:0:0:
403,306,13859,1,0,0:0:0:0:
229,275,14022,2,0,B|170:262|170:262|136:234,1,86.25
139,232,14348,5,0,0:0:0:0:
218,372,14511,1,0,0:0:0:0:
327,254,14674,2,0,B|358:216|358:216|362:161,1,86.25
360,158,15000,1,0,0:0:0:0:
437,298,15163,1,0,0:0:0:0:
279,175,15326,1,0,0:0:0:0:
474,95,15489,2,0,B|499:146|499:146|479:226,1,115
369,320,15978,2,0,B|344:269|344:269|360:215,1,86.25
360,227,16304,5,0,0:0:0:0:
463,345,16467,1,0,0:0:0:0:
268,347,16630,2,0,B|215:324|215:324|193:277,1,86.25
200,283,16956,1,0,0:0:0:0:
361,325,17119,1,0,0:0:0:0:
237,209,17282,2,0,B|199:199|199:199|144:215,1,86.25
137,219,17609,5,0,0:0:0:0:
272,130,17772,1,0,0:0:0:0:
202,299,17935,2,0,B|175:352|175:352|120:371,1,115
282,358,18424,1,0,0:0:0:0:
103,285,18587,2,0,B|52:260|52:260|36:210,1,86.25
39,215,18913,1,0,0:0:0:0:
199,277,19076,1,0,0:0:0:0:
104,141,19239,2,0,B|71:96|71:96|76:54,1,86.25
78,48,19565,5,0,0:0:0:0:
38,206,19728,1,0,0:0:0:0:
194,176,19891,2,0,B|240:162|240:162|298:173,1,86.25
295,175,20217,1,0,0:0:0:0:
168,102,20380,1,0,0:0:0:0:
250,263,20543,1,0,0:0:0:0:
279,39,20706,1,0,0:0:0:0:
111,92,20869,6,0,L|174:102,1,57.5
316,144,21195,6,0,L|253:154,1,57.5
111,196,21522,6,0,L|174:206,1,57.5
316,248,21848,6,0,L|253:258,1,57.5
288,54,22174,6,0,P|357:72|383:137,1,138
401,259,22826,1,0,0:0:0:0:
476,148,22989,1,0,0:0:0:0:
304,132,23152,2,0,P|235:150|209:215,1,138
325,290,23804,2,0,P|372:284|397:262,1,69
401,260,24130,5,0,0:0:0:0:
495,172,24293,1,0,0:0:0:0:
481,300,24456,1,0,0:0:0:0:
416,178,24619,1,0,0:0:0:0:
370,358,24782,2,0,P|279:358|249:319,1,138
262,198,25435,2,0,P|311:239|318:262,1,69
321,260,25761,5,0,0:0:0:0:
156,285,25924,2,0,P|105:287|52:272,1,92
262,198,26413,2,0,P|313:200|348:194,1,69
349,194,26739,1,0,0:0:0:0:
240,107,26902,1,0,0:0:0:0:
186,263,27065,1,0,0:0:0:0:
262,198,27228,1,0,0:0:0:0:
101,239,27391,6,0,P|113:311|163:349,1,138
29,310,28043,1,0,0:0:0:0:
186,263,28206,1,0,0:0:0:0:
15,197,28369,2,0,P|48:160|141:153,1,138
262,198,29022,2,0,P|292:220|311:247,1,69
318,261,29348,5,0,0:0:0:0:
224,348,29511,1,0,0:0:0:0:
159,222,29674,1,0,0:0:0:0:
130,345,29837,1,0,0:0:0:0:
262,198,30000,2,0,P|320:155|394:173,1,138
289,312,30652,2,0,P|318:295|337:263,1,69
340,248,30978,5,0,0:0:0:0:
218,155,31141,2,0,P|265:159|315:152,1,92
404,37,31630,2,0,P|408:84|402:127,1,69
405,123,31956,1,0,0:0:0:0:
296,39,32119,1,0,0:0:0:0:
373,195,32282,2,0,P|386:228|391:258,1,46
193,299,32609,2,0,P|245:304|305:245,1,138
321,123,33261,1,0,0:0:0:0:
219,213,33424,1,0,0:0:0:0:
389,195,33587,6,0,P|413:136|388:59,1,138
240,90,34239,2,0,P|274:110|320:121,1,69
321,123,34565,1,0,0:0:0:0:
466,126,34728,1,0,0:0:0:0:
357,216,34891,1,0,0:0:0:0:
399,83,35054,1,0,0:0:0:0:
440,249,35217,6,0,P|401:296|323:305,1,138
401,140,35869,2,0,P|377:164|362:198,1,69
357,216,36195,1,0,0:0:0:0:
371,54,36359,2,0,P|436:57|471:84,1,92
512,219,36848,2,0,P|447:216|426:204,1,69
430,208,37174,5,0,0:0:0:0:
315,139,37337,1,0,0:0:0:0:
258,292,37500,1,0,0:0:0:0:
390,290,37663,1,0,0:0:0:0:
218,205,37826,6,0,P|183:233|171:249,1,46
103,332,38152,1,0,0:0:0:0:
140,131,38315,6,0,P|123:172|121:192,1,46
103,332,38641,1,0,0:0:0:0:
28,113,38804,6,0,P|34:157|42:175,1,46
103,332,39130,1,0,0:0:0:0:
182,233,39293,1,0,0:0:0:0:
11,313,39456,1,0,0:0:0:0:
35,158,39619,1,0,0:0:0:0:
103,332,39782,2,0,P|126:349|164:356,1,46
267,289,40109,2,0,P|244:272|206:265,1,46
166,113,40435,6,0,P|129:171|144:248,1,138
196,384,41087,1,0,0:0:0:0:
75,329,41250,1,0,0:0:0:0:
234,295,41413,1,0,0:0:0:0:
39,237,41576,2,0,P|14:202|6:146,1,92
98,17,42065,2,0,P|123:52|131:97,1,69
134,94,42391,5,0,0:0:0:0:
5,36,42554,1,0,0:0:0:0:
82,171,42717,2,0,P|107:186|141:184,1,46
263,94,43043,6,0,L|345:101,1,68.9999978942872
408,116,43532,2,0,L|404:151,2,34.4999989471436
396,232,44022,2,0,L|388:314,1,68.9999978942872
308,236,44511,5,0,0:0:0:0:
308,236,44674,2,0,L|300:318,1,68.9999978942872
232,224,45163,2,0,L|196:220,2,34.4999989471436
120,212,45652,2,0,L|37:204,1,68.9999978942872
60,128,46141,2,0,L|63:92,2,34.4999989471436
72,16,46630,2,0,L|140:22,1,68.9999978942872
216,32,47119,5,0,0:0:0:0:
216,32,47282,2,0,L|209:100,1,68.9999978942872
200,176,47772,2,0,L|234:179,2,34.4999989471436
316,192,48261,2,0,L|384:198,1,68.9999978942872
460,204,48750,2,0,L|463:169,2,34.4999989471436
472,96,49239,2,0,L|478:27,1,68.9999978942872
340,12,49891,6,0,L|333:80,1,68.9999978942872
320,156,50380,2,0,L|285:152,2,34.4999989471436
208,144,50869,2,0,L|139:137,1,68.9999978942872
60,136,51359,2,0,L|56:170,2,34.4999989471436
48,248,51848,2,0,L|41:316,1,68.9999978942872
120,324,52337,5,0,0:0:0:0:
120,324,52500,2,0,L|188:330,1,68.9999978942872
128,240,52989,2,0,L|167:243,1,34.4999989471436
248,248,53315,1,0,0:0:0:0:
248,248,53478,2,0,L|254:179,1,68.9999978942872
336,224,53967,2,0,L|339:189,2,34.4999989471436
348,104,54456,2,0,L|354:35,1,68.9999978942872
268,72,54945,5,0,0:0:0:0:
268,72,55109,2,0,L|261:140,1,68.9999978942872
188,100,55598,2,0,L|191:65,2,34.4999989471436
180,188,56087,2,0,L|173:256,1,68.9999978942872
256,228,56576,2,0,L|252:262,2,34.4999989471436
264,140,57065,2,0,L|270:71,1,68.9999978942872
352,76,57554,5,0,0:0:0:0:
352,76,57717,2,0,L|420:82,1,68.9999978942872
416,172,58206,2,0,L|412:206,1,34.4999989471436
404,288,58532,1,0,0:0:0:0:
404,288,58695,2,0,L|335:281,1,68.9999978942872
380,204,59185,2,0,L|345:200,2,34.4999989471436
264,192,59674,2,0,L|152:180,1,103.499996841431
176,100,60326,2,0,L|244:106,1,68.9999978942872
224,28,60815,2,0,L|258:31,2,34.4999989471436
352,32,61304,6,0,B|436:48|440:104|440:104|388:100|360:148|360:148|392:216|356:256|356:256|320:224|256:228,1,431.25
108,68,63913,5,0,0:0:0:0:
272,96,64076,1,0,0:0:0:0:
80,172,64239,2,0,B|32:192|32:192|12:256,1,103.499996841431
12,260,64565,1,0,0:0:0:0:
184,144,64728,1,0,0:0:0:0:
84,324,64891,2,0,B|116:344|116:344|156:346,1,68.9999978942872
288,248,65217,2,0,B|256:228|256:228|215:225,1,68.9999978942872
12,260,65543,2,0,B|28:204|28:204|72:172,1,103.499996841431
84,168,65869,5,0,0:0:0:0:
188,304,66032,2,0,B|226:245|226:245|228:176,1,137.999995788574
132,48,66522,2,0,B|132:96|132:96|160:128,1,68.9999978942872
128,268,66848,2,0,B|128:220|128:220|100:188,1,68.9999978942872
284,332,67174,2,0,B|316:356|316:356|376:340,1,68.9999978942872
444,208,67500,1,0,0:0:0:0:
242,236,67663,2,0,B|182:240|182:240|114:204,1,137.999995788574
224,64,68152,6,0,B|224:108|224:108|208:148,1,68.9999978942872
136,344,68478,1,0,0:0:0:0:
296,284,68641,1,0,0:0:0:0:
112,200,68804,2,0,B|76:184|76:184|56:156,1,68.9999978942872
212,0,69130,2,0,B|212:44|212:44|188:88,1,68.9999978942872
284,224,69456,2,0,B|284:180|284:180|308:136,1,68.9999978942872
420,312,69782,1,0,0:0:0:0:
424,128,69945,1,0,0:0:0:0:
304,308,70109,2,0,B|264:308|264:308|212:284,1,68.9999978942872
52,212,70435,6,0,B|92:212|92:212|144:236,1,68.9999978942872
304,308,70761,2,0,B|352:264|352:264|364:208,1,103.499996841431
360,208,71087,1,0,0:0:0:0:
272,64,71250,2,0,B|254:135|254:135|262:199,1,137.999995788574
56,40,71739,5,0,0:0:0:0:
120,232,71902,1,0,0:0:0:0:
216,8,72065,5,0,0:0:0:0:
68,144,72228,1,0,0:0:0:0:
272,84,72391,5,0,0:0:0:0:
204,256,72554,1,0,0:0:0:0:
108,32,72717,5,0,0:0:0:0:
360,188,72880,2,0,B|412:232|412:232|436:300,1,137.999995788574
272,312,73369,2,0,B|220:268|220:268|200:208,1,103.499996841431
200,204,73695,1,0,0:0:0:0:
364,332,73859,1,0,0:0:0:0:
284,160,74022,2,0,B|232:124|232:124|184:120,1,103.499996841431
168,120,74348,5,0,0:0:0:0:
364,72,74511,1,0,0:0:0:0:
312,268,74674,2,0,B|280:296|280:296|232:316,1,68.9999978942872
168,120,75000,1,0,0:0:0:0:
128,300,75163,1,0,0:0:0:0:
280,172,75326,2,0,B|312:148|312:148|344:140,1,68.9999978942872
148,216,75652,2,0,B|119:208|119:208|87:184,1,68.9999978942872
228,60,75978,2,0,B|264:104|264:104|280:160,1,103.499996841431
280,172,76304,5,0,0:0:0:0:
87,184,76467,2,0,B|43:244|43:244|39:312,1,137.999995788574
212,384,76956,2,0,B|248:380|248:380|292:344,1,68.9999978942872
320,212,77282,2,0,B|284:216|284:216|258:236,1,68.9999978942872
428,376,77609,2,0,B|460:328|460:328|460:252,1,103.499996841431
460,264,77935,5,0,0:0:0:0:
273,359,78098,2,0,B|204:360|204:360|152:312,1,137.999995788574
32,136,78587,2,0,B|32:200|32:200|80:244,1,103.499996841431
72,236,78913,1,0,0:0:0:0:
8,40,79076,1,0,0:0:0:0:
172,192,79239,2,0,B|204:216|204:216|260:232,1,68.9999978942872
372,40,79565,6,0,B|372:80|372:80|356:124,1,68.9999978942872
320,288,79891,2,0,B|310:260|310:260|310:220,1,68.9999978942872
372,40,80217,1,0,0:0:0:0:
464,256,80380,1,0,0:0:0:0:
256,108,80543,2,0,B|224:88|224:88|164:76,1,68.9999978942872
128,236,80869,2,0,B|161:218|161:218|201:172,1,68.9999978942872
81,61,81195,2,0,B|79:98|79:98|99:156,1,68.9999978942872
204,312,81522,1,0,0:0:0:0:
352,216,81685,2,0,B|404:184|404:184|432:96,1,137.999995788574
100,136,82174,5,0,0:0:0:0:
316,72,82337,1,0,0:0:0:0:
132,252,82500,5,0,0:0:0:0:
232,52,82663,1,0,0:0:0:0:
40,220,82826,5,0,0:0:0:0:
256,160,82989,1,0,0:0:0:0:
32,16,83152,5,0,0:0:0:0:
148,256,83315,2,0,B|168:292|168:292|208:308,1,68.9999978942872
188,120,83641,1,0,0:0:0:0:
40,264,83804,2,0,B|48:304|48:304|68:328,1,68.9999978942872
200,364,84130,1,0,0:0:0:0:
112,220,84293,1,0,0:0:0:0:
276,320,84456,1,0,0:0:0:0:
66,325,84619,1,0,0:0:0:0:
288,200,84782,6,0,B|360:168|360:168|456:168,1,172.5
396,288,85435,1,0,0:0:0:0:
288,200,85598,1,0,0:0:0:0:
359,43,85761,2,0,B|435:83|435:83|455:174,1,172.5
428,336,86413,2,0,B|390:329|390:329|364:304,1,57.5
304,99,86739,6,0,B|270:110|270:110|254:125,1,57.5
208,292,87065,2,0,B|241:280|241:280|264:258,1,57.5
424,172,87391,2,0,B|440:204|440:204|440:225,1,57.5
356,376,87717,2,0,B|340:344|340:344|340:312,1,57.5
412,80,88043,2,0,B|448:84|448:84|484:108,1,57.5
408,224,88369,1,0,0:0:0:0:
320,80,88532,2,0,B|300:40|300:40|236:4,1,115
132,148,89022,2,0,B|196:136|196:136|228:108,1,86.25
224,112,89348,5,0,0:0:0:0:
152,256,89511,1,0,0:0:0:0:
160,56,89674,2,0,B|180:36|180:36|232:24,1,57.5
336,192,90000,2,0,B|328:224|328:224|304:256,1,57.5
148,320,90326,2,0,B|156:288|156:288|180:256,1,57.5
312,348,90652,1,0,0:0:0:0:
148,320,90815,1,0,0:0:0:0:
316,240,90978,6,0,B|368:200|368:200|388:136,1,115
376,316,91467,1,0,0:0:0:0:
292,144,91630,2,0,B|272:116|272:116|228:96,1,57.5
160,208,91956,2,0,B|194:204|194:204|233:176,1,57.5
170,61,92282,2,0,B|155:92|155:92|160:140,1,57.5
196,296,92609,2,0,B|224:304|224:304|272:292,1,57.5
328,168,92935,6,0,B|334:195|334:195|326:223,1,57.5
116,268,93261,2,0,B|109:295|109:295|117:323,1,57.5
16,200,93587,1,0,0:0:0:0:
200,296,93750,2,0,B|272:300|272:300|328:264,1,115
344,76,94239,2,0,B|368:136|368:136|356:176,1,86.25
356,176,94565,5,0,0:0:0:0:
444,40,94728,1,0,0:0:0:0:
272,148,94891,2,0,B|244:168|244:168|204:176,1,57.5
40,284,95217,2,0,B|68:304|68:304|108:312,1,57.5
300,228,95543,2,0,B|272:248|272:248|216:256,1,86.25
204,260,95869,5,0,0:0:0:0:
360,324,96032,1,0,0:0:0:0:
220,176,96195,2,0,B|168:100|168:100|168:12,1,172.5
300,156,96848,2,0,B|304:188|304:188|288:236,1,57.5
88,76,97174,2,0,B|84:108|84:108|100:156,1,57.5
164,280,97500,6,0,B|168:248|168:248|152:200,1,57.5
251,27,97826,2,0,B|225:46|225:46|202:92,1,57.5
160,224,98152,2,0,B|185:204|185:204|208:158,1,57.5
400,107,98478,2,0,B|368:103|368:103|312:124,1,86.25
304,128,98804,1,0,0:0:0:0:
456,268,98967,2,0,B|404:236|404:236|372:184,1,115
304,24,99456,2,0,B|256:64|256:64|208:72,1,86.25
212,72,99782,5,0,0:0:0:0:
372,104,99945,1,0,0:0:0:0:
184,164,100109,2,0,B|152:156|152:156|124:128,1,57.5
328,280,100435,2,0,B|364:280|364:280|388:268,1,57.5
224,328,100761,2,0,B|188:328|188:328|140:344,1,86.25
128,348,101087,5,0,0:0:0:0:
232,228,101250,1,0,0:0:0:0:
44,256,101413,2,0,B|24:164|24:164|80:88,1,172.5
160,224,102065,2,0,B|192:280|192:280|228:300,1,86.25
228,300,102391,1,0,0:0:0:0:
116,300,102554,1,0,0:0:0:0:
68,180,102717,2,0,B|104:144|104:144|144:132,1,86.25
152,132,103043,5,0,0:0:0:0:
4,76,103206,1,0,0:0:0:0:
152,212,103369,2,0,B|180:236|180:236|220:248,1,57.5
336,80,103695,2,0,B|352:128|352:128|352:172,1,86.25
352,180,104022,1,0,0:0:0:0:
168,92,104185,2,0,B|224:132|224:132|280:136,1,115
360,20,104674,2,0,B|308:20|308:20|264:44,1,86.25
264,48,105000,5,0,0:0:0:0:
420,80,105163,1,0,0:0:0:0:
224,120,105326,1,0,0:0:0:0:
