osu file format v14

[General]
AudioFilename: audio.mp3
AudioLeadIn: 0
PreviewTime: 215407
Countdown: 0
SampleSet: Soft
StackLeniency: 0.7
Mode: 0
LetterboxInBreaks: 0
WidescreenStoryboard: 0

[Editor]
Bookmarks: 63827,121218,173392,238610,280349
DistanceSpacing: 1
BeatDivisor: 8
GridSize: 4
TimelineZoom: 1

[Metadata]
Title:Amazing Trees
TitleUnicode:Amazing Trees
Artist:SawanoHiroyuki[nZk]:Tielle
ArtistUnicode:SawanoHiroyuki[nZk]:Tielle
Creator:Agatsu
Version:Collab
Source:BORDER BREAK
Tags:door weapon xiced shiinoha kotone tomadoi jpop j-pop pop english japanese cage binary star game opening 2v-alk
BeatmapID:2209285
BeatmapSetID:1056976

[Difficulty]
HPDrainRate:5
CircleSize:4.2
OverallDifficulty:8
ApproachRate:9
SliderMultiplier:3.1
SliderTickRate:1

[Events]
//Background and Video events
0,0,"72213186_p0.jpg",0,0
//Break Periods
2,194462,204097
//Storyboard Layer 0 (Background)
//Storyboard Layer 1 (Fail)
//Storyboard Layer 2 (Pass)
//Storyboard Layer 3 (Foreground)
//Storyboard Layer 4 (Overlay)
//Storyboard Sound Samples

[TimingPoints]
1219,652.173913043478,4,2,1,70,1,0
20784,-100,4,2,1,60,0,0
21762,-125,4,2,1,60,0,0
22088,-111.111111111111,4,2,1,50,0,0
32523,-111.111111111111,4,2,1,50,0,0
42958,-125,4,2,12,40,0,0
63827,-90.9090909090909,4,2,10,70,0,0
66436,-125,4,2,10,70,0,0
67088,-100,4,2,10,70,0,0
68066,-90.9090909090909,4,2,10,70,0,0
77197,-83.3333333333333,4,2,10,70,0,0
77523,-76.9230769230769,4,2,10,70,0,0
78012,-90.9090909090909,4,2,10,70,0,0
82088,-76.9230769230769,4,2,10,70,0,0
84697,-71.4285714285714,4,2,10,70,0,0
85349,-83.3333333333333,4,2,10,70,0,0
86327,-111.111111111111,4,2,10,70,0,0
87305,-76.9230769230769,4,2,10,70,0,0
90240,-90.9090909090909,4,2,10,70,0,0
94153,-76.9230769230769,4,2,10,70,0,0
100349,-100,4,2,10,70,0,0
101001,-76.9230769230769,4,2,10,70,0,0
105240,-111.111111111111,4,2,10,60,0,0
109805,-111.111111111111,4,2,1,50,0,0
110784,-125,4,2,1,50,0,0
118936,-166.666666666667,4,2,1,50,0,0
119751,-125,4,2,1,50,0,0
121218,-111.111111111111,4,2,1,50,0,0
131653,-125,4,2,1,40,0,0
152523,-90.9090909090909,4,2,10,70,0,0
173392,-71.4285714285714,4,2,10,70,0,0
174045,-100,4,2,10,70,0,0
174371,-76.9230769230769,4,2,10,70,0,0
178284,-90.9090909090909,4,2,10,70,0,0
178610,-83.3333333333333,4,2,10,70,0,0
184153,-71.4285714285714,4,2,10,70,0,0
194262,-71.4285714285714,4,2,10,60,0,0
204697,-166.666666666667,4,2,1,40,0,0
209914,-333.333333333334,4,2,1,40,0,0
214153,-166.666666666667,4,2,1,40,0,0
214479,-125,4,2,1,40,0,0
214805,-100,4,2,1,40,0,0
215458,-166.666666666667,4,2,1,40,0,0
216110,-125,4,2,1,50,0,0
216762,-100,4,2,1,60,0,0
217414,-83.3333333333333,4,2,1,70,0,0
217740,-83.3333333333333,4,2,10,70,0,0
218066,-71.4285714285714,4,2,10,70,0,0
220349,-66.6666666666667,4,2,10,70,0,0
228175,-71.4285714285714,4,2,10,70,0,0
231110,-66.6666666666667,4,2,10,70,0,0
233392,-71.4285714285714,4,2,10,70,0,0
236653,-66.6666666666667,4,2,10,70,0,0
238610,-90.9090909090909,4,2,10,70,0,0
259479,-100,4,2,1,70,0,0
280349,-100,4,2,1,35,0,0

[Colours]
Combo1 : 165,209,168
Combo2 : 210,176,142
Combo3 : 186,162,202
Combo4 : 222,160,160

[HitObjects]
339,52,1219,6,0,L|496:20,1,155,6|2,1:2|0:1,0:0:0:0:
391,118,1708,1,2,0:0:0:0:
470,221,1871,2,0,L|487:302,1,77.5,10|2,0:0|1:1,0:0:0:0:
322,378,2197,2,0,B|353:280|301:315|335:220,1,155,2|0,1:1|0:0,0:0:0:0:
227,345,2686,1,2,1:1:0:0:
109,295,2849,2,0,P|120:291|208:285,1,77.5,2|0,1:1|0:0,0:0:0:0:
363,149,3175,5,10,0:0:0:0:
291,126,3338,1,2,0:0:0:0:
229,198,3501,1,2,0:1:0:0:
301,221,3664,1,2,0:0:0:0:
192,96,3827,6,0,L|170:265,1,155,0|2,1:2|0:1,0:0:0:0:
212,310,4316,1,2,0:0:0:0:
291,126,4479,2,0,P|313:131|388:135,1,77.5,10|2,0:0|0:1,0:0:0:0:
301,221,4805,1,2,1:1:0:0:
433,289,4968,2,0,P|356:302|321:371,1,155,0|2,1:2|1:1,0:0:0:0:
479,222,5458,2,0,L|495:140,1,77.5,2|0,1:1|1:2,0:0:0:0:
493,145,5702,1,0,1:2:0:0:
493,145,5784,5,10,0:0:0:0:
386,90,5947,1,2,1:1:0:0:
361,21,6110,5,2,1:1:0:0:
290,115,6273,1,2,0:0:0:0:
215,96,6436,5,2,1:2:0:0:
311,234,6599,2,0,B|220:222|242:259|154:244,1,155,2|2,0:1|0:0,0:0:0:0:
355,301,7088,2,0,L|370:377,1,77.5,8|2,0:0|1:1,0:0:0:0:
452,228,7414,2,0,L|483:64,1,155,2|2,1:1|0:0,0:0:0:0:
338,162,7903,1,2,1:1:0:0:
257,85,8066,2,0,L|267:166,1,77.5,2|0,1:1|0:0,0:0:0:0:
81,142,8392,5,10,0:0:0:0:
166,242,8555,1,2,0:1:0:0:
70,324,8718,1,2,0:1:0:0:
46,252,8882,1,2,0:0:0:0:
217,300,9045,6,0,B|312:280|291:325|383:300,1,155,2|2,1:2|0:1,0:0:0:0:
227,169,9534,1,2,0:0:0:0:
293,130,9697,2,0,L|309:51,1,77.5,8|2,0:0|0:1,0:0:0:0:
397,119,10023,1,2,1:1:0:0:
227,169,10186,2,0,P|157:187|130:264,1,155,0|2,1:2|1:1,0:0:0:0:
293,380,10675,6,0,B|301:339|301:339|296:295,1,77.5,2|0,1:1|1:2,0:0:0:0:
296,303,10920,1,0,1:2:0:0:
296,303,11001,1,8,0:0:0:0:
209,377,11164,1,2,1:1:0:0:
376,174,11327,2,0,P|375:188|382:299,1,116.25,2|0,1:1|0:0,0:0:0:0:
380,289,11653,6,0,P|456:301|491:376,1,155,4|2,1:2|0:1,0:0:0:0:
321,237,12142,1,2,0:0:0:0:
448,151,12305,2,0,P|424:159|359:171,1,77.5,8|2,0:0|1:1,0:0:0:0:
216,321,12632,2,0,L|239:165,1,155,2|0,1:1|0:0,0:0:0:0:
114,288,13121,1,2,1:1:0:0:
3,228,13284,2,0,P|31:221|95:220,1,77.5,2|0,1:1|0:0,0:0:0:0:
75,360,13610,5,10,0:0:0:0:
206,275,13773,1,2,1:1:0:0:
261,333,13936,5,2,1:1:0:0:
230,178,14099,1,2,0:0:0:0:
359,94,14262,6,0,B|271:77|290:119|203:97,1,155,2|2,1:2|0:1,0:0:0:0:
305,197,14751,1,2,0:0:0:0:
194,294,14914,2,0,L|177:383,1,77.5,8|2,0:0|1:1,0:0:0:0:
320,273,15240,1,2,1:1:0:0:
398,351,15403,2,0,L|384:191,1,155,0|2,1:2|1:1,0:0:0:0:
478,78,15892,2,0,B|437:83|437:83|393:74,1,77.5,2|0,1:1|1:2,0:0:0:0:
401,75,16137,1,0,1:2:0:0:
401,75,16218,5,10,0:0:0:0:
344,122,16382,1,2,1:1:0:0:
263,75,16545,1,2,1:1:0:0:
328,37,16708,1,2,0:0:0:0:
201,182,16871,5,2,1:2:0:0:
207,28,17034,2,0,P|210:50|196:198,1,155,2|2,0:1|0:0,0:0:0:0:
337,351,17523,1,8,0:0:0:0:
310,280,17686,1,2,1:1:0:0:
403,310,17849,2,0,B|312:296|330:336|237:316,1,155,2|0,1:1|0:0,0:0:0:0:
31,299,18338,2,0,L|126:280,1,77.5,2|2,1:1|1:1,0:0:0:0:
255,173,18664,5,0,1:2:0:0:
255,173,18746,1,0,1:2:0:0:
255,173,18827,1,10,0:0:0:0:
321,206,18990,1,2,1:1:0:0:
392,119,19153,5,2,1:1:0:0:
341,278,19316,1,2,0:0:0:0:
466,146,19479,6,0,P|468:180|486:317,1,155,2|2,1:2|0:1,0:0:0:0:
314,372,19968,1,2,0:0:0:0:
251,330,20132,2,0,B|210:333|210:333|158:321,1,77.5,8|2,0:0|0:1,0:0:0:0:
46,378,20458,1,2,1:1:0:0:
103,297,20621,1,0,1:2:0:0:
38,189,20784,6,0,L|63:30,2,155,2|2|2,3:2|3:2|3:2,0:0:0:0:
165,98,21599,1,2,0:0:0:0:
225,141,21762,2,0,P|245:139|294:129,1,62,2|2,0:0|0:0,0:0:0:0:
156,247,22088,6,0,L|133:395,1,139.499995742798,6|2,1:2|0:0,0:0:0:0:
265,260,22577,1,2,0:0:0:0:
344,332,22740,2,0,L|336:262,1,69.749997871399,10|2,0:0|1:2,0:0:0:0:
200,177,23066,2,0,L|192:247,1,69.749997871399,2|2,1:2|0:0,0:0:0:0:
272,383,23392,5,2,0:0:0:0:
207,350,23555,1,2,0:0:0:0:
344,332,23718,2,0,P|374:335|492:369,1,139.499995742798,2|8,1:2|0:0,0:0:0:0:
366,210,24208,1,2,0:0:0:0:
418,118,24371,2,0,L|436:190,1,69.749997871399,2|2,0:0|0:0,0:0:0:0:
252,307,24697,5,0,1:2:0:0:
389,303,24860,2,0,B|308:289|331:321|250:306,1,139.499995742798,2|2,0:0|0:0,0:0:0:0:
140,384,25349,2,0,L|155:315,1,69.749997871399,10|2,0:0|0:0,0:0:0:0:
85,314,25675,1,2,1:2:0:0:
0,202,25838,2,0,L|15:271,1,69.749997871399,0|0,1:2|0:0,0:0:0:0:
152,184,26164,5,0,0:0:0:0:
217,220,26327,2,0,B|286:231|286:231|350:205,1,139.499995742798,2|8,1:2|0:0,0:0:0:0:
455,309,26816,1,2,1:2:0:0:
504,253,26979,2,0,L|517:182,1,69.749997871399,2|2,1:2|0:0,0:0:0:0:
380,305,27305,6,0,P|311:325|286:391,2,139.499995742798,2|2|10,1:2|0:0|0:0,0:0:0:0:
236,213,28121,1,0,1:2:0:0:
303,82,28284,2,0,P|308:113|308:230,1,139.499995742798,2|0,1:2|0:0,0:0:0:0:
205,88,28773,6,0,P|188:87|122:77,1,69.749997871399,2|2,0:0|1:2,0:0:0:0:
85,128,29099,1,2,0:0:0:0:
145,218,29262,1,8,0:0:0:0:
41,363,29425,5,2,0:0:0:0:
57,293,29588,1,2,0:0:0:0:
73,223,29751,1,2,0:0:0:0:
184,345,29914,6,0,L|327:376,2,139.499995742798,2|2|10,1:2|0:0|0:0,0:0:0:0:
354,193,30892,1,2,1:2:0:0:
216,190,31055,2,0,B|297:174|280:211|354:192,1,139.499995742798,0|0,1:2|0:0,0:0:0:0:
240,111,31545,6,0,L|256:42,1,69.749997871399,0|2,1:2|0:0,0:0:0:0:
255,43,31789,1,2,0:0:0:0:
255,43,31871,1,10,0:0:0:0:
149,163,32034,1,0,1:2:0:0:
36,111,32197,2,0,P|56:110|124:98,1,69.749997871399,0|0,1:2|0:0,0:0:0:0:
231,191,32523,6,0,L|260:329,1,139.499995742798,6|2,1:2|0:0,0:0:0:0:
201,371,33012,1,0,0:0:0:0:
331,240,33175,2,0,P|345:239|416:224,1,69.749997871399,10|0,0:0|1:2,0:0:0:0:
366,318,33501,1,2,1:2:0:0:
222,234,33664,2,0,B|139:223|155:260|70:243,1,139.499995742798,2|2,0:0|0:0,0:0:0:0:
230,162,34153,2,0,L|252:88,1,69.749997871399,2|2,1:2|0:0,0:0:0:0:
369,186,34479,5,8,0:0:0:0:
334,250,34642,1,2,0:0:0:0:
396,300,34805,1,2,0:0:0:0:
431,236,34968,1,2,0:0:0:0:
272,364,35132,6,0,B|267:327|267:327|275:282,1,69.749997871399,2|2,1:2|0:0,0:0:0:0:
316,111,35458,2,0,L|335:258,1,139.499995742798,2|10,0:0|0:0,0:0:0:0:
242,114,35947,1,2,0:0:0:0:
126,196,36110,1,2,1:2:0:0:
126,196,36273,2,0,P|62:209|22:289,1,139.499995742798,0|0,1:2|0:0,0:0:0:0:
192,233,36762,2,0,L|281:217,1,69.749997871399,0|2,1:2|0:0,0:0:0:0:
159,344,37088,5,8,0:0:0:0:
283,377,37251,1,2,1:2:0:0:
247,315,37414,5,2,1:2:0:0:
361,215,37577,1,2,0:0:0:0:
302,76,37740,6,0,P|301:102|283:232,1,139.499995742798,2|2,1:2|0:0,0:0:0:0:
416,93,38229,2,0,P|426:92|508:71,1,69.749997871399,2|8,0:0|0:0,0:0:0:0:
435,220,38555,1,2,1:2:0:0:
499,257,38718,2,0,L|510:339,1,69.749997871399,2|0,1:2|0:0,0:0:0:0:
416,310,39045,5,2,0:0:0:0:
333,376,39208,2,0,L|342:306,1,69.749997871399,2|0,0:0|1:2,0:0:0:0:
195,232,39534,1,2,0:0:0:0:
333,232,39697,2,0,B|254:215|271:250|182:229,1,139.499995742798,8|2,0:0|0:0,0:0:0:0:
32,351,40186,1,2,0:0:0:0:
32,351,40267,1,2,0:0:0:0:
32,351,40349,6,0,L|65:209,1,139.499995742798,2|2,1:2|0:0,0:0:0:0:
179,69,40838,2,0,L|191:153,1,69.749997871399,2|10,0:0|0:0,0:0:0:0:
107,49,41164,1,2,0:0:0:0:
218,225,41327,1,2,1:2:0:0:
218,225,41490,2,0,B|136:209|153:250|58:225,1,139.499995742798,0|0,1:2|0:0,0:0:0:0:
269,168,41979,6,0,L|346:155,1,69.749997871399,0|2,1:2|0:0,0:0:0:0:
469,246,42305,1,8,0:0:0:0:
430,182,42468,1,0,1:2:0:0:
501,69,42632,2,0,P|507:87|510:164,1,69.749997871399,2|0,1:2|0:0,0:0:0:0:
379,59,42958,6,0,B|281:32|278:93|186:88,1,186,6|0,0:0|0:0,0:0:0:0:
303,140,43610,2,0,L|362:156,1,62,0|0,0:0|0:0,0:0:0:0:
470,289,43936,2,0,P|472:264|494:93,1,186,2|0,0:0|0:0,0:0:0:0:
405,202,44588,1,2,0:0:0:0:
311,60,45077,5,2,0:0:0:0:
189,33,45240,2,0,P|200:31|259:18,1,62,2|2,0:0|0:0,0:0:0:0:
163,124,45566,6,0,P|73:142|38:247,1,186,6|0,0:0|0:0,0:0:0:0:
124,361,46218,2,0,B|128:328|128:328|124:290,1,62,0|0,0:0|0:0,0:0:0:0:
47,354,46545,2,0,L|240:332,1,186,2|0,0:0|0:0,0:0:0:0:
301,357,47197,1,2,0:0:0:0:
481,233,47686,5,6,0:0:0:0:
471,305,47849,1,0,0:0:0:0:
461,377,48012,1,0,0:0:0:0:
370,250,48175,6,0,B|349:162|349:162|382:64,1,186,6|0,0:0|0:0,0:0:0:0:
441,108,48827,2,0,L|514:124,1,62,0|0,0:0|0:0,0:0:0:0:
370,250,49153,1,2,0:0:0:0:
493,248,49316,2,0,B|418:235|436:266|353:247,1,124,0|0,0:0|0:0,0:0:0:0:
495,324,49805,1,2,0:0:0:0:
245,384,50295,5,2,0:0:0:0:
299,335,50458,1,2,0:0:0:0:
253,281,50621,1,2,0:0:0:0:
351,169,50784,6,0,L|375:359,1,186,6|0,0:0|0:0,0:0:0:0:
432,213,51436,2,0,P|446:211|501:197,1,62,0|0,0:0|0:0,0:0:0:0:
313,253,51762,1,2,0:0:0:0:
334,131,51925,2,0,L|311:271,1,124,0|0,0:0|0:0,0:0:0:0:
257,166,52414,1,2,0:0:0:0:
68,349,52903,5,6,0:0:0:0:
177,302,53066,2,0,L|193:373,1,62,0|0,0:0|0:0,0:0:0:0:
45,277,53392,5,6,0:0:0:0:
144,170,53555,2,0,P|158:169|225:155,1,62,0|0,0:0|0:0,0:0:0:0:
262,206,53882,2,0,P|286:211|401:238,1,124,0|0,0:0|0:0,0:0:0:0:
500,66,54371,2,0,P|494:90|468:205,1,124,2|0,0:0|0:0,0:0:0:0:
415,75,54860,6,0,P|406:73|344:54,1,62,0|2,0:0|0:0,0:0:0:0:
251,107,55186,2,0,B|174:92|187:123|110:105,1,124,0|2,0:0|0:0,0:0:0:0:
269,198,55675,1,2,0:0:0:0:
212,246,55838,1,0,0:0:0:0:
329,110,56001,6,0,L|347:248,1,124,6|0,0:0|0:0,0:0:0:0:
244,382,56490,2,0,B|241:349|241:349|247:313,1,62,0|0,0:0|0:0,0:0:0:0:
94,364,56816,1,0,0:0:0:0:
154,322,56979,1,2,0:0:0:0:
7,250,57142,2,0,B|79:232|68:268|142:246,1,124,0|2,0:0|0:0,0:0:0:0:
22,352,57632,1,2,0:0:0:0:
233,224,58121,6,0,L|246:153,1,62,6|0,0:0|0:0,0:0:0:0:
305,242,58447,1,0,0:0:0:0:
370,60,58610,6,0,P|372:86|386:200,1,124,6|0,0:0|0:0,0:0:0:0:
294,336,59099,1,0,0:0:0:0:
379,284,59262,2,0,L|365:357,1,62,0|0,0:0|0:0,0:0:0:0:
183,226,59588,1,2,0:0:0:0:
305,241,59751,6,0,P|276:233|154:229,1,124,0|0,0:0|0:0,0:0:0:0:
345,143,60240,1,2,0:0:0:0:
121,9,60729,5,6,0:0:0:0:
187,170,60892,2,0,B|171:92|204:118|182:38,1,124,2|6,0:0|0:0,0:0:0:0:
29,17,63827,5,4,1:1:0:0:
29,17,63990,1,0,0:0:0:0:
187,170,64153,2,0,B|149:140|79:130,1,85.2500026016236,0|0,3:2|0:0,0:0:0:0:
187,170,64479,1,8,3:2:0:0:
24,221,64642,5,2,0:0:0:0:
266,112,64805,2,0,B|165:94|196:163|91:147,1,170.500005203247,2|0,3:2|1:2,0:0:0:0:
109,141,65458,2,0,P|147:146|191:174,1,85.2500026016236,2|0,1:2|0:0,0:0:0:0:
285,344,65784,2,0,P|270:309|272:257,1,85.2500026016236,8|0,3:2|1:2,0:0:0:0:
373,90,66110,2,0,P|350:120|304:144,1,85.2500026016236,0|0,3:2|0:0,0:0:0:0:
172,324,66436,5,2,1:2:0:0:
172,324,66762,2,0,P|178:297|182:258,1,62,0|0,1:2|0:0,0:0:0:0:
375,355,67088,6,0,P|365:315|361:263,1,77.5,8|0,1:2|0:0,0:0:0:0:
285,344,67414,5,2,1:2:0:0:
485,228,67577,2,0,B|394:236|435:182|321:191,1,155,2|0,0:0|0:0,0:0:0:0:
258,29,68066,2,0,B|271:68|271:68|256:115,1,85.2500026016236,2|0,3:2|0:0,0:0:0:0:
174,184,68392,5,8,3:2:0:0:
422,172,68555,1,2,0:0:0:0:
422,172,68718,2,0,L|305:197,1,85.2500026016236,2|0,3:2|0:0,0:0:0:0:
141,366,69045,6,0,P|133:273|135:196,1,170.500005203247,6|0,1:2|3:2,0:0:0:0:
135,195,69534,1,0,0:0:0:0:
241,208,69697,5,8,3:2:0:0:
54,270,69860,1,2,0:0:0:0:
22,204,70023,2,0,P|31:159|31:106,1,85.2500026016236,6|0,3:2|0:0,0:0:0:0:
310,25,70349,6,0,B|309:84|202:113|158:63,2,170.500005203247,0|2|8,1:2|1:2|3:2,0:0:0:0:
173,75,71164,1,0,1:2:0:0:
356,129,71327,2,0,P|406:136|456:148,1,85.2500026016236,0|0,3:2|0:0,0:0:0:0:
416,46,71653,1,6,1:2:0:0:
200,361,71979,5,0,1:2:0:0:
383,307,72142,1,0,0:0:0:0:
205,252,72305,6,0,B|230:263|230:263|268:263|268:263|299:277,1,85.2500026016236,8|0,1:2|0:0,0:0:0:0:
356,129,72632,5,6,1:2:0:0:
205,252,72795,2,0,B|161:261|161:261|106:321|106:321|55:333,1,170.500005203247,2|0,0:0|0:0,0:0:0:0:
272,121,73284,2,0,L|287:34,1,85.2500026016236,2|0,3:2|0:0,0:0:0:0:
411,330,73610,5,8,3:2:0:0:
411,330,73773,2,0,L|492:375,2,85.2500026016236,2|2|4,0:0|3:2|3:3,0:0:0:0:
312,248,74262,5,6,1:2:0:0:
312,248,74425,1,0,0:0:0:0:
491,119,74588,2,0,P|457:139|406:140,1,85.2500026016236,0|0,3:2|0:0,0:0:0:0:
207,52,74914,1,8,3:2:0:0:
207,52,75077,2,0,P|241:32|292:31,2,85.2500026016236,2|2|0,0:0|3:2|0:0,0:0:0:0:
353,71,75566,1,2,0:0:0:0:
353,71,75729,1,0,0:0:0:0:
120,7,75892,2,0,P|115:43|112:91,1,85.2500026016236,2|0,1:2|0:0,0:0:0:0:
213,243,76218,5,8,3:2:0:0:
165,170,76382,1,0,1:2:0:0:
86,201,76545,1,0,3:2:0:0:
134,274,76709,1,0,0:0:0:0:
272,138,76871,6,0,P|264:82|263:48,1,85.2500026016236,2|0,1:2|0:0,0:0:0:0:
86,201,77197,2,0,P|41:235|7:257,1,92.9999971618653,0|0,1:2|0:0,0:0:0:0:
258,333,77523,2,0,P|310:354|351:374,1,100.749995388031,8|0,1:2|0:0,0:0:0:0:
176,187,77849,5,2,1:2:0:0:
172,354,78012,2,0,B|196:247|141:290|179:179,1,170.500005203247,2|0,0:0|0:0,0:0:0:0:
359,40,78501,2,0,P|368:74|372:133,1,85.2500026016236,2|0,3:2|0:0,0:0:0:0:
283,133,78827,5,8,3:2:0:0:
472,47,78990,1,2,0:0:0:0:
283,133,79153,2,0,B|390:131|332:181|457:181,1,170.500005203247,2|6,3:2|1:2,0:0:0:0:
442,180,79805,5,0,3:2:0:0:
263,240,79968,1,0,0:0:0:0:
414,285,80132,2,0,B|385:323|390:364,1,85.2500026016236,8|2,3:2|0:0,0:0:0:0:
148,357,80458,6,0,B|254:357|205:312|315:314,1,170.500005203247,6|0,1:2|0:0,0:0:0:0:
50,356,80947,1,0,0:0:0:0:
50,356,81110,2,0,P|48:307|37:267,1,85.2500026016236,2|0,3:2|0:0,0:0:0:0:
230,70,81436,5,8,3:2:0:0:
195,236,81599,2,0,P|207:162|231:65,1,170.500005203247,0|0,0:0|0:0,0:0:0:0:
131,136,82088,5,6,1:2:0:0:
131,136,82251,2,0,P|84:111|28:101,2,100.749995388031,0|0|0,0:0|1:2|0:0,0:0:0:0:
296,342,82740,2,0,P|283:303|282:241,1,100.749995388031,8|0,1:2|0:0,0:0:0:0:
387,68,83066,1,6,1:2:0:0:
210,203,83229,6,0,B|332:211|283:274|415:260,2,201.499990776062,2|8|0,0:0|0:0|0:0,0:0:0:0:
104,166,84045,5,8,3:2:0:0:
214,300,84208,1,2,0:0:0:0:
397,261,84371,1,8,3:2:0:0:
287,127,84534,1,8,0:0:0:0:
259,369,84697,6,0,P|249:227|245:39,1,325.499990066529,6|0,1:2|0:0,0:0:0:0:
469,169,85349,1,8,3:2:0:0:
469,169,85512,1,2,0:0:0:0:
398,110,85675,6,0,B|238:93|297:194|133:179,1,278.999991485596,6|0,3:2|0:0,0:0:0:0:
21,63,86327,2,0,P|49:79|71:121,1,69.749997871399,2|0,0:0|0:0,0:0:0:0:
24,358,86653,5,8,1:2:0:0:
0,277,86816,1,0,0:0:0:0:
78,247,86979,1,0,1:2:0:0:
102,328,87142,1,0,0:0:0:0:
231,369,87305,6,0,L|338:386,1,100.749995388031,6|0,1:2|0:0,0:0:0:0:
102,328,87632,2,0,L|2:312,1,100.749995388031,0|0,1:2|0:0,0:0:0:0:
220,176,87958,2,0,L|245:71,1,100.749995388031,8|0,1:2|0:0,0:0:0:0:
293,22,88284,5,6,1:2:0:0:
48,56,88447,2,0,B|169:29|124:101|252:76,1,201.499990776062,2|0,0:0|0:0,0:0:0:0:
512,116,88936,2,0,P|470:127|393:131,1,100.749995388031,2|0,3:2|0:0,0:0:0:0:
256,268,89262,5,8,1:2:0:0:
337,98,89425,1,2,0:0:0:0:
256,268,89588,2,0,P|267:226|302:157,1,100.749995388031,2|0,1:2|0:0,0:0:0:0:
291,174,89914,1,6,1:2:0:0:
8,37,90240,6,0,P|39:66|79:83,1,85.2500026016236,0|0,1:2|0:0,0:0:0:0:
97,179,90566,1,8,1:2:0:0:
97,179,90729,2,0,P|139:177|179:161,1,85.2500026016236,2|2,0:0|1:2,0:0:0:0:
225,103,91382,1,0,0:0:0:0:
18,201,91545,2,0,P|86:221|168:284,1,170.500005203247,2|8,3:2|3:2,0:0:0:0:
227,232,92034,1,0,0:0:0:0:
43,339,92197,1,0,3:2:0:0:
109,213,92360,5,0,0:0:0:0:
164,280,92523,2,0,B|270:287|228:226|344:237,1,170.500005203247,2|0,1:2|1:2,0:0:0:0:
487,297,93012,5,0,0:0:0:0:
487,297,93175,2,0,P|466:263|464:204,1,85.2500026016236,8|0,1:2|0:0,1:2:0:0:
395,4,93501,5,2,1:2:0:0:
463,39,93664,2,0,P|399:47|317:118,1,170.500005203247,2|0,0:0|0:0,0:0:0:0:
169,321,94153,2,0,P|127:311|85:273,1,100.749995388031,2|0,3:2|0:0,0:0:0:0:
0,349,94479,5,8,3:2:0:0:
184,206,94642,1,2,0:0:0:0:
0,349,94805,2,0,P|6:301|9:245,1,100.749995388031,2|4,3:2|3:3,0:0:0:0:
247,277,95132,6,0,P|362:286|468:301,1,201.499990776062,6|0,1:2|3:2,0:0:0:0:
447,297,95621,1,0,0:0:0:0:
322,133,95784,5,8,3:2:0:0:
349,250,95947,1,2,0:0:0:0:
322,133,96110,2,0,P|333:84|336:27,1,100.749995388031,2|0,3:2|0:0,0:0:0:0:
422,98,96599,1,0,0:0:0:0:
233,173,96762,2,0,B|115:168|162:108|43:114,1,201.499990776062,2|8,3:2|3:2,0:0:0:0:
66,99,97251,1,0,0:0:0:0:
105,99,97414,1,0,1:2:0:0:
171,133,97577,1,0,0:0:0:0:
218,285,97740,6,0,P|173:288|111:300,1,100.749995388031,2|0,1:2|0:0,0:0:0:0:
355,178,98066,2,0,P|380:215|422:263,1,100.749995388031,0|0,1:2|0:0,0:0:0:0:
194,112,98392,2,0,P|214:72|234:12,1,100.749995388031,8|0,1:2|0:0,0:0:0:0:
246,205,98718,5,2,1:2:0:0:
149,21,98882,2,0,P|73:42|6:155,1,201.499990776062,2|0,0:0|0:0,0:0:0:0:
120,262,99371,2,0,P|117:221|80:173,1,100.749995388031,2|0,3:2|0:0,0:0:0:0:
24,362,99697,5,8,3:2:0:0:
207,300,99860,1,2,0:0:0:0:
24,362,100023,2,0,B|60:357|128:366,1,100.749995388031,2|0,3:2|0:0,0:0:0:0:
125,366,100349,6,0,P|121:328|118:287,1,77.5,2|0,1:2|0:0,0:0:0:0:
352,69,100675,2,0,P|356:107|359:146,1,77.5,0|0,0:0|0:0,0:0:0:0:
301,199,101001,5,8,1:2:0:0:
443,38,101164,1,2,0:0:0:0:
301,199,101327,1,2,1:2:0:0:
443,38,101490,2,0,B|331:1|355:76|231:51,1,201.499990776062,0|0,0:0|0:0,0:0:0:0:
11,96,101979,2,0,P|56:99|117:115,1,100.749995388031,2|0,3:2|0:0,0:0:0:0:
249,299,102305,5,8,3:2:0:0:
167,339,102468,1,0,0:0:0:0:
98,279,102632,1,0,3:2:0:0:
180,239,102795,1,0,0:0:0:0:
381,384,102958,6,0,P|394:257|396:179,1,201.499990776062,2|0,3:2|3:2,0:0:0:0:
396,183,103610,1,8,3:2:0:0:
396,183,103773,1,0,0:0:0:0:
478,256,103936,1,2,3:2:0:0:
280,256,104099,2,0,P|267:129|265:51,1,201.499990776062,2|0,0:0|0:0,0:0:0:0:
184,326,104588,6,0,P|140:348|85:368,1,100.749995388031,2|0,3:2|0:0,0:0:0:0:
303,143,104914,2,0,P|347:165|402:185,1,100.749995388031,8|2,3:2|0:0,0:0:0:0:
512,384,105240,6,0,P|506:351|503:311,1,69.749997871399,2|0,3:2|0:0,0:0:0:0:
503,314,105566,1,0,1:2:0:0:
241,18,109805,5,2,0:0:0:0:
292,93,110132,1,2,0:0:0:0:
220,176,110458,1,2,0:0:0:0:
280,314,110784,5,6,1:2:0:0:
280,314,111110,2,0,P|276:285|275:251,1,62,2|2,0:0|0:0,0:0:0:0:
82,340,111436,1,10,0:0:0:0:
82,340,111599,1,2,1:2:0:0:
82,340,111762,2,0,P|138:344|211:359,1,124,2|2,1:2|0:0,0:0:0:0:
204,357,112251,1,2,0:0:0:0:
338,377,112414,2,0,P|369:370|412:365,1,62,2|0,1:2|0:0,0:0:0:0:
472,112,112740,5,8,0:0:0:0:
455,235,112903,1,2,0:0:0:0:
355,283,113066,5,2,0:0:0:0:
337,185,113229,1,2,0:0:0:0:
290,246,113392,6,0,P|259:250|218:258,1,62,2|2,1:2|0:0,0:0:0:0:
59,362,113718,2,0,P|89:356|120:352,1,62,2|2,0:0|0:0,0:0:0:0:
72,269,114045,1,10,0:0:0:0:
72,269,114208,1,2,0:0:0:0:
72,269,114371,1,2,1:2:0:0:
236,379,114534,6,0,P|229:316|229:228,1,124,0|0,1:2|0:0,0:0:0:0:
117,92,115023,2,0,P|123:123|123:168,2,62,0|0|8,1:2|0:0|0:0,0:0:0:0:
42,137,115512,5,2,1:2:0:0:
268,98,115675,2,0,P|234:94|206:88,1,62,2|2,1:2|0:0,0:0:0:0:
395,23,116001,6,0,P|460:43|501:96,1,124,0|2,1:2|0:0,0:0:0:0:
395,23,116490,1,0,0:0:0:0:
417,203,116653,5,10,0:0:0:0:
399,105,116816,1,0,1:2:0:0:
417,203,116979,2,0,P|413:233|412:273,1,62,2|2,1:2|0:0,0:0:0:0:
488,377,117305,2,0,P|491:346|492:315,1,62,0|2,0:0|0:0,0:0:0:0:
338,231,117632,1,2,1:2:0:0:
338,231,117795,1,2,0:0:0:0:
512,161,117958,2,0,B|445:155|474:123|395:116,1,124,8|2,0:0|0:0,0:0:0:0:
399,116,118447,1,2,0:0:0:0:
252,177,118610,5,0,1:2:0:0:
252,177,118773,1,2,0:0:0:0:
323,223,118936,6,0,L|372:233,1,46.4999985809327,2|2,0:0|0:0,0:0:0:0:
174,142,119262,2,0,L|125:152,1,46.4999985809327,10|2,0:0|0:0,0:0:0:0:
243,53,119588,5,2,1:2:0:0:
252,177,119751,2,0,P|249:100|243:50,1,124,0|0,1:2|0:0,0:0:0:0:
11,234,120240,2,0,P|10:266|16:306,1,62,0|0,1:2|0:0,0:0:0:0:
13,295,120566,1,8,0:0:0:0:
112,114,120729,2,0,L|43:103,1,62,0|0,1:2|1:2,0:0:0:0:
283,342,121218,6,0,B|366:324|344:360|422:343,1,139.499995742798,6|2,1:2|0:0,0:0:0:0:
282,267,121708,1,0,0:0:0:0:
343,228,121871,2,0,L|351:153,1,69.749997871399,10|0,0:0|1:2,0:0:0:0:
243,28,122197,1,2,1:2:0:0:
253,166,122360,6,0,P|254:144|241:22,1,139.499995742798,2|2,0:0|0:0,0:0:0:0:
110,103,122849,1,2,1:2:0:0:
10,50,123012,2,0,P|22:48|86:35,1,69.749997871399,2|8,0:0|0:0,0:0:0:0:
53,178,123338,5,2,0:0:0:0:
41,251,123501,1,2,0:0:0:0:
29,324,123664,1,2,0:0:0:0:
151,229,123827,6,0,B|158:269|158:269|156:310,1,69.749997871399,2|2,1:2|0:0,0:0:0:0:
0,132,124153,2,0,B|84:112|68:154|144:128,1,139.499995742798,2|10,0:0|0:0,0:0:0:0:
245,203,124642,2,0,L|261:136,1,69.749997871399,2|2,0:0|1:2,0:0:0:0:
374,86,124968,2,0,L|390:153,1,69.749997871399,0|0,1:2|0:0,0:0:0:0:
330,194,125295,5,0,0:0:0:0:
454,284,125458,1,0,1:2:0:0:
390,384,125621,2,0,B|371:314|371:314|384:245,1,139.499995742798,0|2,0:0|1:2,0:0:0:0:
260,353,126110,2,0,L|186:372,1,69.749997871399,2|2,1:2|0:0,0:0:0:0:
10,283,126436,6,0,B|91:264|80:301|158:281,1,139.499995742798,2|2,1:2|0:0,0:0:0:0:
237,160,126925,2,0,B|244:198|244:198|242:235,1,69.749997871399,2|8,0:0|0:0,0:0:0:0:
242,229,127170,1,0,1:2:0:0:
242,229,127251,1,2,1:2:0:0:
118,138,127414,2,0,L|133:-8,1,139.499995742798,2|2,1:2|0:0,0:0:0:0:
14,89,127903,6,0,B|7:127|7:127|9:164,1,69.749997871399,2|0,0:0|1:2,0:0:0:0:
127,266,128229,1,2,0:0:0:0:
195,239,128392,2,0,B|196:207|196:207|189:169,1,69.749997871399,8|0,0:0|0:0,0:0:0:0:
312,69,128718,2,0,P|326:71|432:82,1,104.624996807098,2|0,0:0|0:0,0:0:0:0:
416,81,129045,6,0,P|365:93|332:177,1,139.499995742798,2|2,1:2|0:0,0:0:0:0:
477,259,129534,2,0,P|475:249|470:179,1,69.749997871399,2|8,0:0|0:0,0:0:0:0:
356,278,129860,1,2,0:0:0:0:
507,366,130023,1,2,1:2:0:0:
507,366,130186,2,0,L|351:349,1,139.499995742798,0|0,1:2|0:0,0:0:0:0:
254,258,130675,5,0,1:2:0:0:
254,258,130838,1,0,0:0:0:0:
197,305,131001,5,8,0:0:0:0:
50,350,131164,1,0,1:2:0:0:
118,360,131327,6,0,P|106:359|37:347,1,69.749997871399,2|2,1:2|0:0,0:0:0:0:
100,232,131653,6,0,P|170:231|228:385,1,248,6|0,3:2|0:0,0:0:0:0:
265,158,132632,2,0,P|195:157|137:311,1,248,2|0,3:2|0:0,0:0:0:0:
280,60,133610,1,2,0:0:0:0:
370,173,133773,2,0,L|352:43,1,124,0|0,0:0|0:0,0:0:0:0:
250,178,134262,6,0,B|149:146|145:211|56:210,1,186,2|0,3:2|0:0,0:0:0:0:
278,324,135240,2,0,B|379:292|383:357|472:356,1,186,2|0,3:2|0:0,0:0:0:0:
287,215,136218,2,0,L|272:151,1,62,2|0,0:0|0:0,0:0:0:0:
166,203,136545,2,0,L|151:263,1,62,2|0,0:0|0:0,0:0:0:0:
262,318,136871,6,0,L|246:110,1,186,2|0,1:2|3:2,0:0:0:0:
300,81,137523,2,0,B|335:84|335:84|369:73,1,62,2|0,3:2|3:2,0:0:0:0:
453,198,137849,2,0,B|359:171|351:231|265:221,1,186,2|0,1:2|3:2,0:0:0:0:
219,269,138501,1,2,3:2:0:0:
0,172,138990,5,2,3:2:0:0:
0,172,139153,2,0,L|73:164,1,62,2|0,3:2|3:2,0:0:0:0:
111,83,139479,6,0,L|87:279,1,186,2|0,1:2|3:2,0:0:0:0:
19,376,140132,2,0,B|13:342|13:342|18:307,1,62,2|0,3:2|3:2,0:0:0:0:
136,202,140458,2,0,P|218:219|245:322,1,186,2|0,1:2|3:2,0:0:0:0:
189,353,141110,1,2,3:2:0:0:
416,207,141436,6,0,L|406:278,1,62,0|0,0:0|3:2,0:0:0:0:
483,166,141762,1,2,3:2:0:0:
483,166,141925,1,2,3:2:0:0:
357,14,142088,6,0,L|367:137,1,124,4|0,3:0|1:2,0:0:0:0:
232,252,142577,2,0,B|158:241|180:273|96:256,1,124,8|0,3:0|0:0,0:0:0:0:
273,185,143066,1,4,3:0:0:0:
209,74,143229,2,0,P|212:86|220:153,1,62,0|0,0:0|0:0,0:0:0:0:
96,332,143555,5,8,3:0:0:0:
109,258,143718,1,0,3:0:0:0:
122,184,143882,1,0,0:0:0:0:
184,291,144045,2,0,L|252:310,1,62,2|0,3:0|0:0,0:0:0:0:
446,254,144371,1,8,3:0:0:0:
301,355,144534,1,8,3:0:0:0:
368,194,144697,6,0,B|354:272|384:239|368:319,1,124,4|0,3:0|0:0,0:0:0:0:
239,184,145186,2,0,L|102:166,1,124,2|0,3:0|3:0,0:0:0:0:
14,291,145675,2,0,B|6:257|6:257|10:217,1,62,8|0,3:0|3:0,0:0:0:0:
85,254,146001,1,0,0:0:0:0:
15,378,146164,1,8,3:0:0:0:
221,363,146327,2,0,B|148:369|164:340|90:342,1,124,2|8,3:0|3:0,0:0:0:0:
233,246,146816,5,2,3:0:0:0:
258,175,146979,1,0,0:0:0:0:
187,155,147142,1,0,3:0:0:0:
329,58,147305,6,0,P|374:69|404:139,1,124,2|8,3:0|3:0,0:0:0:0:
496,272,147795,2,0,P|497:254|508:145,1,124,4|0,3:0|1:2,0:0:0:0:
379,283,148284,2,0,B|289:263|285:321|197:323,1,186,2|8,3:0|3:0,0:0:0:0:
21,216,149262,6,0,L|32:146,1,62,4|0,3:0|0:0,0:0:0:0:
121,229,149588,1,8,3:0:0:0:
121,229,149751,1,2,3:0:0:0:
169,64,149914,6,0,P|171:88|186:208,1,124,4|0,3:0|3:0,0:0:0:0:
394,229,150403,2,0,P|370:231|250:246,1,124,2|0,3:0|0:0,0:0:0:0:
409,123,150892,1,8,3:0:0:0:
347,112,151055,2,0,P|367:116|436:125,1,62,0|0,1:2|1:2,0:0:0:0:
494,260,151382,6,0,B|468:145|535:191|499:63,1,186,8|14,3:0|3:0,0:0:0:0:
287,350,152523,5,4,1:1:0:0:
287,350,152686,1,0,0:0:0:0:
158,228,152849,2,0,B|148:272|148:272|154:326,1,85.2500026016236,0|0,3:2|0:0,0:0:0:0:
232,236,153175,5,8,3:2:0:0:
115,131,153338,1,2,0:0:0:0:
242,22,153501,2,0,P|259:21|425:-4,1,170.500005203247,2|0,3:2|1:2,0:0:0:0:
425,9,154153,2,0,P|422:25|409:126,1,85.2500026016236,2|0,1:2|0:0,0:0:0:0:
275,199,154479,1,8,3:2:0:0:
442,193,154642,2,0,B|347:173|367:221|274:198,1,170.500005203247,0|0,1:2|0:0,0:0:0:0:
90,318,155132,6,0,P|107:300|218:296,1,127.875003902435,2|0,1:2|0:0,0:0:0:0:
205,289,155458,2,0,L|191:377,1,85.2500026016236,0|0,1:2|0:0,0:0:0:0:
368,292,155784,2,0,L|355:207,1,85.2500026016236,8|0,1:2|0:0,0:0:0:0:
175,107,156110,1,2,1:2:0:0:
343,130,156273,2,0,P|314:122|156:107,1,170.500005203247,2|0,0:0|0:0,0:0:0:0:
348,14,156762,6,0,P|368:13|460:-1,1,85.2500026016236,2|2,3:2|0:0,0:0:0:0:
432,4,157007,1,2,0:0:0:0:
432,4,157088,1,8,3:2:0:0:
343,130,157251,1,2,0:0:0:0:
476,240,157414,2,0,L|457:150,1,85.2500026016236,2|0,3:2|0:0,0:0:0:0:
278,281,157740,6,0,P|277:327|382:376,1,170.500005203247,6|0,1:2|3:2,0:0:0:0:
309,215,158229,1,0,0:0:0:0:
434,137,158392,2,0,P|422:142|327:158,1,85.2500026016236,8|2,3:2|0:0,0:0:0:0:
153,326,158718,2,0,B|134:243|165:270|144:187,1,127.875003902435,6|0,3:2|0:0,0:0:0:0:
146,199,159045,6,0,P|158:204|253:220,1,85.2500026016236,0|0,1:2|0:0,0:0:0:0:
408,384,159371,2,0,L|389:178,1,170.500005203247,2|8,1:2|3:2,0:0:0:0:
220,51,159860,2,0,P|266:54|311:165,1,170.500005203247,0|0,1:2|0:0,0:0:0:0:
200,314,160349,6,0,B|193:269|193:269|205:214,1,85.2500026016236,6|0,1:2|0:0,0:0:0:0:
388,114,160675,2,0,B|352:142|352:142|298:159,1,85.2500026016236,0|0,1:2|0:0,0:0:0:0:
121,52,161001,2,0,B|163:68|163:68|205:106,1,85.2500026016236,8|0,1:2|0:0,0:0:0:0:
34,243,161327,5,6,1:2:0:0:
201,230,161490,2,0,B|104:214|128:259|30:242,1,170.500005203247,2|0,0:0|0:0,0:0:0:0:
246,286,161979,2,0,L|262:376,1,85.2500026016236,2|0,3:2|0:0,0:0:0:0:
159,329,162305,5,8,3:2:0:0:
260,186,162468,1,2,0:0:0:0:
242,113,162632,5,8,3:3:0:0:
372,212,162795,1,4,3:3:0:0:
506,133,162958,6,0,B|432:116|443:146|373:129,1,127.875003902435,6|0,1:2|0:0,0:0:0:0:
379,130,163284,2,0,P|375:115|361:35,1,85.2500026016236,0|0,3:2|0:0,0:0:0:0:
260,186,163610,1,8,3:2:0:0:
167,89,163773,1,2,0:0:0:0:
21,176,163936,2,0,P|41:173|203:162,1,170.500005203247,2|0,3:2|1:2,0:0:0:0:
377,362,164588,6,0,P|372:324|255:277,1,170.500005203247,2|8,1:2|3:2,0:0:0:0:
89,368,165077,2,0,L|110:280,1,85.2500026016236,0|0,1:2|3:2,0:0:0:0:
170,321,165403,1,0,0:0:0:0:
244,190,165566,6,0,L|263:272,1,85.2500026016236,2|0,1:2|0:0,0:0:0:0:
53,140,165892,2,0,P|73:135|184:127,1,127.875003902435,0|0,1:2|0:0,0:0:0:0:
179,126,166218,2,0,P|183:79|78:28,1,170.500005203247,8|2,1:2|1:2,0:0:0:0:
107,229,166708,2,0,B|96:273|96:273|103:317,1,85.2500026016236,2|0,0:0|3:2,0:0:0:0:
299,209,167034,5,2,0:0:0:0:
299,209,167115,1,2,0:0:0:0:
299,209,167197,2,0,L|278:116,1,85.2500026016236,2|0,3:2|0:0,0:0:0:0:
212,248,167523,1,8,3:2:0:0:
383,343,167686,1,2,0:0:0:0:
299,359,167849,2,0,P|310:355|406:343,1,85.2500026016236,2|0,3:2|0:0,0:0:0:0:
511,206,168175,6,0,B|436:187|447:219|373:199,1,127.875003902435,6|0,1:2|0:0,0:0:0:0:
384,201,168501,2,0,B|376:153|376:153|383:112,1,85.2500026016236,0|0,3:2|0:0,0:0:0:0:
239,244,168827,5,8,3:2:0:0:
77,170,168990,1,2,0:0:0:0:
244,168,169153,2,0,B|148:142|165:194|69:168,1,170.500005203247,6|0,1:2|3:2,0:0:0:0:
71,184,169805,6,0,P|68:164|42:10,1,170.500005203247,2|8,3:2|3:2,0:0:0:0:
225,78,170295,2,0,P|234:80|324:97,1,85.2500026016236,0|0,0:0|3:2,0:0:0:0:
205,154,170621,1,0,0:0:0:0:
320,280,170784,6,0,P|319:248|292:173,1,85.2500026016236,6|0,1:2|0:0,0:0:0:0:
131,149,171110,2,0,P|118:189|115:232,1,85.2500026016236,0|0,1:2|0:0,0:0:0:0:
216,384,171436,2,0,B|201:303|232:335|210:248,1,127.875003902435,8|0,1:2|0:0,0:0:0:0:
212,257,171762,5,6,1:2:0:0:
352,368,171925,1,2,0:0:0:0:
481,309,172088,2,0,P|460:309|371:298,1,85.2500026016236,8|8,3:2|0:0,0:0:0:0:
216,384,172414,2,0,B|140:370|151:395|76:379,1,127.875003902435,2|0,3:2|0:0,0:0:0:0:
88,381,172740,5,8,3:2:0:0:
185,197,172903,1,2,0:0:0:0:
127,240,173066,5,8,3:2:0:0:
29,103,173229,1,8,0:0:0:0:
40,206,173392,6,0,P|225:220|366:236,1,325.499990066529,6|0,1:2|0:0,0:0:0:0:
500,384,174045,2,0,P|466:384|411:375,1,77.5,8|2,3:2|0:0,0:0:0:0:
194,348,174371,6,0,B|175:171|283:243|254:53,1,302.249986164094,6|0,3:2|0:0,0:0:0:0:
344,89,175023,5,2,0:0:0:0:
159,158,175186,1,0,0:0:0:0:
345,245,175349,6,0,P|299:228|243:220,1,100.749995388031,8|0,1:2|0:0,0:0:0:0:
24,106,175675,2,0,P|73:98|120:81,1,100.749995388031,0|0,1:2|0:0,0:0:0:0:
64,338,176001,6,0,B|40:296|40:296|66:183,1,151.124993082047,6|0,1:2|0:0,0:0:0:0:
63,195,176327,2,0,P|112:202|159:219,1,100.749995388031,0|0,1:2|0:0,0:0:0:0:
401,327,176653,2,0,P|352:334|305:351,1,100.749995388031,8|0,1:2|0:0,0:0:0:0:
401,327,176979,1,6,1:2:0:0:
215,384,177142,2,0,P|224:307|261:182,1,201.499990776062,2|0,0:0|0:0,0:0:0:0:
473,129,177632,2,0,P|469:76|456:28,1,100.749995388031,2|0,3:2|0:0,0:0:0:0:
255,89,177958,5,8,1:2:0:0:
414,211,178121,1,2,0:0:0:0:
255,89,178284,2,0,P|299:87|346:78,1,85.2500026016236,2|0,1:2|0:0,0:0:0:0:
141,144,178610,6,0,P|154:102|157:46,1,92.9999971618653,6|0,1:2|0:0,0:0:0:0:
251,311,178936,2,0,P|208:320|158:346,1,92.9999971618653,0|0,1:2|0:0,0:0:0:0:
360,156,179262,5,8,1:2:0:0:
430,215,179425,1,2,0:0:0:0:
416,102,179588,2,0,P|404:167|392:295,1,185.999994323731,2|0,1:2|3:2,0:0:0:0:
449,338,180077,1,0,0:0:0:0:
251,311,180240,2,0,P|207:313|149:319,1,92.9999971618653,2|0,3:2|0:0,0:0:0:0:
34,177,180566,5,8,3:2:0:0:
100,240,180729,1,0,0:0:0:0:
66,327,180892,1,0,3:2:0:0:
0,263,181055,1,0,0:0:0:0:
75,102,181218,6,0,B|177:90|129:37|246:32,1,185.999994323731,2|0,1:2|1:2,0:0:0:0:
75,102,181708,1,0,0:0:0:0:
325,0,181871,2,0,P|325:43|330:96,1,92.9999971618653,8|0,1:2|0:0,0:0:0:0:
192,314,182197,5,2,1:2:0:0:
209,130,182360,2,0,P|206:221|192:318,1,185.999994323731,2|0,0:0|0:0,0:0:0:0:
414,52,182849,2,0,P|465:41|516:31,1,92.9999971618653,2|0,3:2|0:0,0:0:0:0:
287,158,183175,5,8,3:2:0:0:
182,46,183338,1,2,0:0:0:0:
90,141,183501,2,0,P|43:148|-6:163,1,92.9999971618653,4|8,3:3|3:3,0:0:0:0:
29,72,183827,1,6,1:2:0:0:
232,380,184153,6,0,P|208:337|210:263,1,108.499996688843,0|0,3:2|0:0,0:0:0:0:
361,84,184479,2,0,P|335:126|270:161,1,108.499996688843,8|2,3:2|0:0,0:0:0:0:
40,120,184805,5,2,3:2:0:0:
193,183,184968,2,0,P|104:204|11:312,1,216.999993377686,0|0,0:0|0:0,0:0:0:0:
223,105,185458,2,0,P|231:49|249:-8,1,108.499996688843,2|0,3:2|0:0,0:0:0:0:
420,231,185784,5,8,3:2:0:0:
327,116,185947,1,0,0:0:0:0:
211,288,186110,5,0,1:2:0:0:
295,212,186273,1,0,0:0:0:0:
381,312,186436,6,0,P|438:328|496:354,1,108.499996688843,2|0,1:2|0:0,0:0:0:0:
193,183,186762,2,0,P|143:204|90:218,1,108.499996688843,0|0,1:2|0:0,0:0:0:0:
211,288,187088,1,8,1:2:0:0:
211,288,187251,1,0,0:0:0:0:
97,125,187414,5,2,1:2:0:0:
32,378,187577,2,0,P|17:270|18:144,1,216.999993377686,2|0,0:0|0:0,0:0:0:0:
221,16,188066,2,0,P|228:60|230:131,1,108.499996688843,2|0,3:2|0:0,0:0:0:0:
324,72,188392,5,8,3:2:0:0:
140,153,188555,1,2,0:0:0:0:
211,288,188718,1,2,3:2:0:0:
311,237,188882,1,0,0:0:0:0:
230,208,189045,6,0,P|122:263|66:348,1,216.999993377686,2|0,1:2|0:0,0:0:0:0:
230,208,189534,1,0,0:0:0:0:
436,384,189697,2,0,P|417:340|413:280,1,108.499996688843,8|2,1:2|0:0,0:0:0:0:
209,323,190023,2,0,P|239:232|247:104,1,216.999993377686,2|0,1:2|3:2,0:0:0:0:
322,147,190512,1,0,0:0:0:0:
146,85,190675,1,2,3:2:0:0:
348,52,190838,1,0,0:0:0:0:
247,111,191001,2,0,P|241:67|242:-4,1,108.499996688843,8|0,3:2|0:0,0:0:0:0:
95,191,191327,5,0,3:2:0:0:
274,277,191490,1,0,0:0:0:0:
181,153,191653,5,2,3:2:0:0:
207,229,191816,2,0,P|130:259|51:368,1,216.999993377686,0|0,0:0|0:0,0:0:0:0:
7,108,192305,2,0,P|54:129|99:179,1,108.499996688843,8|0,3:2|0:0,0:0:0:0:
116,63,192632,1,2,3:2:0:0:
116,63,192795,1,2,0:0:0:0:
207,229,192958,5,8,0:3:0:0:
229,64,193121,1,4,0:3:0:0:
93,169,193284,5,8,0:3:0:0:
334,115,193447,1,8,0:3:0:0:
93,169,193610,2,0,P|86:226|91:283,1,108.499996688843,4|4,0:3|0:3,0:0:0:0:
334,115,193936,2,0,P|341:58|336:1,1,108.499996688843,4|4,0:3|0:3,0:0:0:0:
337,7,194262,1,2,1:2:0:0:
74,6,204697,6,0,P|46:46|45:98,2,92.9999971618653,2|0|2,3:2|3:2|3:2,0:0:0:0:
183,226,205838,5,2,0:0:0:0:
13,287,206001,2,0,B|115:282|73:219|194:227,1,185.999994323731,2|0,3:2|0:0,0:0:0:0:
222,311,206816,2,0,L|203:372,1,46.4999985809327,2|2,0:0|0:0,0:0:0:0:
428,251,207305,6,0,L|409:62,1,185.999994323731,2|0,3:2|0:0,0:0:0:0:
484,76,208284,1,2,0:0:0:0:
342,139,208447,1,2,0:0:0:0:
226,52,208610,2,0,P|266:28|331:31,1,92.9999971618653,2|0,0:0|0:0,0:0:0:0:
342,139,209099,6,0,P|318:149|293:153,1,46.4999985809327,2|0,0:0|0:0,0:0:0:0:
281,226,209425,2,0,P|256:216|236:201,1,46.4999985809327,2|0,0:0|0:0,0:0:0:0:
177,248,209751,2,0,P|168:231|164:212,1,23.2499992904663,0|0,3:2|3:2,0:0:0:0:
67,201,209914,6,0,P|232:236|386:367,1,371.999988647461,2|2,0:0|0:0,0:0:0:0:
423,241,212686,1,0,3:0:0:0:
423,241,212849,2,0,P|418:206|418:167,1,69.749997871399,0|0,3:2|3:2,0:0:0:0:
491,125,213501,5,2,3:2:0:0:
335,179,213664,1,0,3:2:0:0:
417,171,213827,6,0,L|414:136,1,23.2499992904663,2|0,3:2|3:2,0:0:0:0:
354,68,214153,6,0,P|336:62|293:60,1,46.4999985809327,2|0,3:2|3:2,0:0:0:0:
193,155,214479,6,0,L|202:229,1,62,2|0,3:2|3:2,0:0:0:0:
96,354,214805,6,0,P|62:364|13:364,1,77.5,2|0,3:2|3:2,0:0:0:0:
20,364,215458,6,0,P|33:323|39:259,1,92.9999971618653,2|0,0:0|0:0,0:0:0:0:
10,205,215947,1,2,0:0:0:0:
184,362,216110,6,0,P|161:299|112:250,1,124,2|0,0:0|0:0,0:0:0:0:
10,205,216599,1,2,0:0:0:0:
327,199,216762,6,0,P|269:168|172:157,1,155,2|0,0:0|3:2,0:0:0:0:
10,205,217251,1,2,0:0:0:0:
284,0,217414,6,0,P|199:10|111:58,1,185.999994323731,2|4,0:0|1:1,0:0:0:0:
49,21,217903,1,0,0:0:0:0:
264,147,218066,6,0,P|317:152|370:165,1,108.499996688843,0|0,3:2|0:0,0:0:0:0:
324,76,218392,1,8,3:2:0:0:
299,277,218555,1,2,0:0:0:0:
392,151,218718,6,0,B|261:140|316:207|176:201,1,216.999993377686,2|0,3:2|1:2,0:0:0:0:
155,135,219208,1,0,0:0:0:0:
0,363,219371,2,0,P|12:304|38:254,1,108.499996688843,2|0,1:2|0:0,0:0:0:0:
77,157,219697,5,8,3:2:0:0:
129,367,219860,2,0,P|111:268|75:152,1,216.999993377686,0|0,1:2|0:0,0:0:0:0:
284,277,220349,6,0,P|349:284|400:301,1,116.250004434586,2|0,1:2|0:0,0:0:0:0:
184,103,220675,2,0,P|145:155|105:191,1,116.250004434586,0|0,1:2|0:0,0:0:0:0:
388,109,221001,2,0,P|361:49|350:-3,1,116.250004434586,8|0,1:2|0:0,0:0:0:0:
273,183,221327,5,2,1:2:0:0:
481,344,221490,2,0,B|344:356|398:282|248:297,1,232.500008869171,2|0,0:0|0:0,0:0:0:0:
24,368,221979,2,0,P|83:371|144:382,1,116.250004434586,2|0,3:2|0:0,0:0:0:0:
81,102,222305,5,8,3:2:0:0:
110,294,222468,1,2,0:0:0:0:
81,102,222632,2,0,P|79:170|70:222,1,116.250004434586,2|0,3:2|0:0,0:0:0:0:
286,146,222958,6,0,P|381:126|465:13,1,232.500008869171,6|0,1:2|3:2,0:0:0:0:
512,100,223447,1,0,0:0:0:0:
245,23,223610,2,0,P|197:37|123:42,1,116.250004434586,8|2,3:2|0:0,0:0:0:0:
286,146,223936,1,6,3:2:0:0:
131,42,224099,1,0,0:0:0:0:
362,99,224262,6,0,B|238:92|286:165|123:166,1,232.500008869171,0|2,1:2|1:2,0:0:0:0:
68,127,224751,1,0,0:0:0:0:
218,326,224914,5,8,3:2:0:0:
0,372,225077,2,0,P|91:324|240:335,1,232.500008869171,0|0,1:2|0:0,0:0:0:0:
404,358,225566,5,6,1:2:0:0:
338,252,225729,1,0,0:0:0:0:
177,240,225892,5,0,1:2:0:0:
262,84,226055,1,0,0:0:0:0:
272,181,226218,5,8,1:2:0:0:
272,181,226382,1,0,0:0:0:0:
167,45,226545,5,6,1:2:0:0:
359,141,226708,2,0,P|431:132|512:-2,1,232.500008869171,2|0,0:0|0:0,0:0:0:0:
177,240,227197,2,0,P|145:281|133:349,1,116.250004434586,2|0,3:2|0:0,0:0:0:0:
282,269,227523,5,8,3:2:0:0:
142,144,227686,1,2,0:0:0:0:
38,316,227849,5,2,3:2:0:0:
177,240,228012,1,4,3:3:0:0:
73,220,228175,5,6,1:2:0:0:
73,220,228338,1,0,0:0:0:0:
244,356,228501,6,0,P|298:361|368:374,1,108.499996688843,0|0,3:2|0:0,0:0:0:0:
466,204,228827,5,8,3:2:0:0:
495,349,228990,1,2,0:0:0:0:
466,204,229153,2,0,P|473:148|478:93,1,108.499996688843,2|0,3:2|0:0,0:0:0:0:
277,237,229479,2,0,P|196:250|106:349,1,216.999993377686,0|2,1:2|1:2,0:0:0:0:
213,359,229968,5,0,0:0:0:0:
60,256,230132,1,8,3:2:0:0:
19,346,230295,5,0,1:2:0:0:
277,237,230458,2,0,P|222:227|162:216,1,108.499996688843,0|0,3:2|0:0,0:0:0:0:
90,95,230784,6,0,B|189:90|143:45|265:45,1,162.749995033264,2|0,1:2|0:0,0:0:0:0:
256,33,231110,1,0,1:2:0:0:
75,83,231273,1,0,0:0:0:0:
347,156,231436,6,0,P|357:89|359:34,1,116.250004434586,8|0,1:2|0:0,0:0:0:0:
104,313,231762,5,2,1:2:0:0:
75,83,231925,2,0,P|85:195|105:317,1,232.500008869171,2|0,0:0|0:0,0:0:0:0:
392,371,232414,2,0,P|388:321|376:243,1,116.250004434586,2|0,3:2|0:0,0:0:0:0:
104,313,232740,5,8,3:2:0:0:
304,351,232903,1,2,0:0:0:0:
104,313,233066,2,0,P|161:308|230:297,1,116.250004434586,2|0,3:2|0:0,0:0:0:0:
457,181,233392,5,6,1:2:0:0:
357,135,233555,1,0,0:0:0:0:
279,210,233718,1,0,3:2:0:0:
378,255,233881,1,0,0:0:0:0:
495,113,234045,6,0,P|491:59|497:0,1,108.499996688843,8|2,3:2|0:0,0:0:0:0:
261,129,234371,5,6,1:2:0:0:
461,198,234534,2,0,B|332:194|398:125|249:130,1,216.999993377686,0|0,0:0|0:0,0:0:0:0:
0,283,235023,2,0,P|53:277|105:261,1,108.499996688843,2|0,3:2|0:0,0:0:0:0:
70,364,235349,5,8,3:2:0:0:
27,167,235512,2,0,P|85:175|242:224,1,216.999993377686,0|0,0:0|0:0,0:0:0:0:
350,300,236001,5,6,1:2:0:0:
239,357,236164,1,0,0:0:0:0:
334,179,236327,5,0,1:2:0:0:
483,303,236490,1,0,0:0:0:0:
236,221,236653,6,0,P|229:164|228:101,1,116.250004434586,8|0,1:2|0:0,0:0:0:0:
293,53,236979,5,6,1:2:0:0:
239,357,237142,2,0,P|147:338|0:329,1,232.500008869171,2|8,0:0|0:0,0:0:0:0:
388,239,237632,2,0,P|447:233|508:216,1,116.250004434586,2|0,3:2|0:0,0:0:0:0:
253,172,237958,5,8,3:2:0:0:
253,172,238121,1,2,0:0:0:0:
162,262,238284,5,8,3:2:0:0:
368,118,238447,1,8,0:0:0:0:
154,22,238610,6,0,P|73:41|1:106,1,170.500005203247,6|0,1:2|3:2,0:0:0:0:
215,75,239099,1,0,0:0:0:0:
288,200,239262,2,0,P|284:179|279:95,1,85.2500026016236,8|2,3:2|0:0,0:0:0:0:
394,256,239588,2,0,B|268:193|258:301|157:307,1,255.750007804871,6|0,3:2|0:0,0:0:0:0:
209,202,240240,5,2,0:0:0:0:
311,329,240403,1,0,0:0:0:0:
209,202,240566,2,0,P|211:182|217:104,1,85.2500026016236,8|0,1:2|0:0,0:0:0:0:
302,172,240892,1,0,1:2:0:0:
111,294,241055,1,2,0:0:0:0:
111,294,241137,1,2,0:0:0:0:
111,294,241218,6,0,P|184:301|228:386,2,170.500005203247,6|0|8,1:2|1:2|1:2,0:0:0:0:
308,153,242197,1,6,1:2:0:0:
141,147,242360,2,0,B|244:120|218:180|318:150,1,170.500005203247,2|0,0:0|0:0,0:0:0:0:
169,219,242849,2,0,L|137:315,1,85.2500026016236,2|0,3:2|0:0,0:0:0:0:
314,377,243175,5,8,1:2:0:0:
301,304,243338,1,2,0:0:0:0:
288,231,243501,1,2,1:2:0:0:
432,107,243664,1,2,0:0:0:0:
432,107,243746,1,2,0:0:0:0:
432,107,243827,6,0,P|428:130|412:286,2,170.500005203247,6|0|8,1:2|1:2|1:2,0:0:0:0:
348,182,244642,1,2,0:0:0:0:
203,85,244805,2,0,P|107:90|47:237,1,255.750007804871,2|0,1:2|0:0,0:0:0:0:
124,365,245458,6,0,B|131:321|131:321|122:270,1,85.2500026016236,2|0,3:2|0:0,0:0:0:0:
259,141,245784,1,8,3:2:0:0:
232,210,245947,1,0,0:0:0:0:
299,274,246110,1,0,3:2:0:0:
326,205,246273,1,0,0:0:0:0:
167,285,246436,6,0,B|72:265|91:312|-5:291,1,170.500005203247,2|0,1:2|1:2,0:0:0:0:
170,169,246925,1,0,0:0:0:0:
88,52,247088,2,0,L|105:147,1,85.2500026016236,8|0,1:2|0:0,0:0:0:0:
270,37,247414,1,2,1:2:0:0:
279,203,247577,2,0,B|247:101|309:136|266:29,1,170.500005203247,2|0,0:0|0:0,0:0:0:0:
416,154,248066,6,0,P|428:158|513:172,1,85.2500026016236,2|0,3:2|0:0,0:0:0:0:
405,229,248392,5,8,3:2:0:0:
284,300,248555,1,2,0:0:0:0:
300,373,248718,5,2,3:2:0:0:
99,299,248882,1,4,3:3:0:0:
228,354,249045,6,0,P|206:358|44:381,1,170.500005203247,6|0,1:2|3:2,0:0:0:0:
213,281,249534,1,0,0:0:0:0:
90,198,249697,2,0,P|104:202|190:219,1,85.2500026016236,8|2,3:2|0:0,0:0:0:0:
300,373,250023,1,2,3:2:0:0:
401,269,250186,6,0,P|337:282|300:376,1,170.500005203247,0|0,0:0|0:0,0:0:0:0:
443,205,250675,2,0,P|441:187|425:19,1,170.500005203247,2|8,3:2|3:2,0:0:0:0:
276,148,251164,1,0,0:0:0:0:
214,48,251327,2,0,B|201:93|201:93|205:138,1,85.2500026016236,0|0,1:2|0:0,0:0:0:0:
379,240,251653,6,0,P|443:253|480:347,2,170.500005203247,2|0|8,1:2|0:0|1:2,0:0:0:0:
162,375,252632,1,2,1:2:0:0:
329,368,252795,2,0,B|231:348|249:393|156:373,1,170.500005203247,2|0,0:0|0:0,0:0:0:0:
320,293,253284,2,0,L|340:211,1,85.2500026016236,2|0,3:2|0:0,0:0:0:0:
254,258,253610,5,8,3:2:0:0:
152,187,253773,1,2,0:0:0:0:
106,276,253936,5,2,3:2:0:0:
252,186,254099,1,0,0:0:0:0:
138,17,254262,6,0,P|140:31|152:198,1,170.500005203247,2|0,0:0|0:0,0:0:0:0:
307,12,254751,1,0,0:0:0:0:
343,80,254914,1,8,1:2:0:0:
275,112,255077,1,2,0:0:0:0:
404,233,255240,6,0,B|264:178|254:269|157:264,1,255.750007804871,2|0,1:2|0:0,0:0:0:0:
362,295,255892,2,0,L|383:378,1,85.2500026016236,2|0,3:2|0:0,0:0:0:0:
512,143,256218,1,8,3:2:0:0:
483,311,256382,2,0,L|514:134,1,170.500005203247,0|0,0:0|0:0,0:0:0:0:
387,227,256871,5,2,3:2:0:0:
280,118,257034,1,0,0:0:0:0:
148,180,257197,2,0,P|168:183|332:192,1,170.500005203247,0|8,3:2|3:2,0:0:0:0:
83,327,257849,5,2,3:2:0:0:
83,327,258012,1,2,0:0:0:0:
141,369,258175,5,8,3:2:0:0:
234,261,258338,1,8,0:0:0:0:
297,301,258501,5,8,3:2:0:0:
239,125,258664,1,8,0:0:0:0:
307,98,258827,5,8,3:2:0:0:
144,26,258990,1,8,0:0:0:0:
71,187,259153,1,8,3:2:0:0:
234,260,259316,1,8,0:0:0:0:
7,274,259479,6,0,P|23:270|169:260,1,155,6|2,1:2|0:1,0:0:0:0:
342,132,259968,1,2,0:0:0:0:
428,242,260132,2,0,L|409:164,1,77.5,8|2,0:0|1:1,0:0:0:0:
284,38,260458,2,0,L|255:193,1,155,2|0,1:1|0:0,0:0:0:0:
403,315,260947,5,0,1:1:0:0:
250,320,261110,2,0,B|339:292|326:340|412:311,1,155,2|10,1:1|0:0,0:0:0:0:
255,190,261599,1,2,1:1:0:0:
277,118,261762,1,2,1:1:0:0:
299,46,261925,1,2,0:0:0:0:
164,160,262088,6,0,P|108:169|66:255,1,155,2|2,1:2|0:1,0:0:0:0:
264,320,262577,1,2,0:0:0:0:
172,383,262740,2,0,L|191:303,1,77.5,8|2,0:0|0:1,0:0:0:0:
324,255,263066,2,0,L|341:330,1,77.5,2|0,1:1|1:2,0:0:0:0:
221,226,263392,5,0,0:0:0:0:
347,122,263555,1,2,1:1:0:0:
286,7,263718,2,0,P|282:29|274:171,1,155,2|10,1:1|0:0,0:0:0:0:
75,40,264208,1,2,1:1:0:0:
144,14,264371,1,2,1:1:0:0:
171,82,264534,1,2,0:0:0:0:
2,181,264697,6,0,B|89:158|76:205|165:180,1,155,2|0,1:2|0:0,0:0:0:0:
267,285,265186,1,2,0:0:0:0:
330,179,265349,2,0,B|338:221|338:221|335:261,1,77.5,8|2,0:0|1:1,0:0:0:0:
495,156,265675,2,0,L|513:-11,1,155,2|0,1:1|0:0,0:0:0:0:
421,145,266164,1,2,1:1:0:0:
508,258,266327,2,0,P|508:278|517:359,1,77.5,2|0,1:1|0:0,0:0:0:0:
327,369,266653,5,10,0:0:0:0:
372,309,266816,1,2,1:1:0:0:
314,249,266979,1,2,1:1:0:0:
269,309,267142,1,2,0:0:0:0:
70,235,267305,6,0,B|159:211|147:260|232:232,1,155,2|2,1:2|0:1,0:0:0:0:
84,132,267795,1,2,0:0:0:0:
148,99,267958,2,0,L|167:14,1,77.5,8|2,0:0|0:1,0:0:0:0:
296,154,268284,1,2,1:1:0:0:
282,0,268447,2,0,P|283:19|299:169,1,155,2|0,1:2|0:0,0:0:0:0:
435,39,268936,2,0,B|471:44|471:44|511:37,1,77.5,0|0,1:2|0:0,0:0:0:0:
412,106,269262,5,8,0:0:0:0:
479,247,269425,1,0,1:2:0:0:
506,181,269588,5,8,3:0:0:0:
386,269,269751,1,8,3:0:0:0:
245,192,269914,6,0,B|336:170|319:215|407:188,1,155,4|2,1:2|0:1,0:0:0:0:
252,119,270403,1,2,0:0:0:0:
365,40,270566,2,0,P|345:44|262:55,1,77.5,8|2,0:0|1:1,0:0:0:0:
133,164,270892,2,0,P|184:174|220:267,1,155,2|0,1:1|0:0,0:0:0:0:
56,374,271382,1,2,1:1:0:0:
124,268,271545,2,0,B|131:311|131:311|129:358,1,77.5,2|0,1:1|1:2,0:0:0:0:
129,344,271789,1,0,1:2:0:0:
129,344,271871,5,10,0:0:0:0:
260,282,272034,1,2,1:1:0:0:
248,372,272197,5,2,1:1:0:0:
124,268,272360,1,2,0:0:0:0:
216,154,272523,6,0,P|213:131|202:-9,1,155,2|2,1:2|0:1,0:0:0:0:
142,124,273012,1,2,0:0:0:0:
44,36,273175,2,0,P|43:50|33:127,1,77.5,8|2,0:0|0:1,0:0:0:0:
157,237,273501,1,2,1:1:0:0:
4,234,273664,2,0,B|92:213|75:259|160:236,1,155,0|2,1:2|0:1,0:0:0:0:
288,315,274153,2,0,L|381:328,1,77.5,2|0,1:1|1:2,0:0:0:0:
290,238,274479,5,8,0:0:0:0:
375,162,274642,1,2,1:1:0:0:
333,102,274805,5,2,1:1:0:0:
512,5,274968,1,0,1:2:0:0:
512,5,275050,1,0,1:2:0:0:
512,5,275132,6,0,P|451:18|420:115,1,155,4|2,1:2|0:1,0:0:0:0:
464,370,275784,2,0,L|481:288,1,77.5,8|2,0:0|1:1,0:0:0:0:
364,188,276110,2,0,L|393:352,1,155,2|0,1:1|0:0,0:0:0:0:
325,375,276599,5,2,1:1:0:0:
234,257,276762,2,0,P|230:275|206:373,1,116.25,2|0,1:1|0:0,0:0:0:0:
207,371,277088,1,8,0:0:0:0:
95,224,277251,2,0,P|71:221|1:207,1,77.5,2|2,0:1|0:1,0:0:0:0:
124,300,277577,1,0,0:0:0:0:
40,384,277740,6,0,B|41:344|41:344|53:300,1,77.5,2|2,1:2|0:1,0:0:0:0:
190,223,278066,2,0,B|199:259|199:259|200:299,1,77.5,2|0,0:1|0:0,0:0:0:0:
83,149,278392,2,0,B|67:74|97:105|76:26,1,116.25,8|0,0:0|0:0,0:0:0:0:
78,34,278718,1,2,1:1:0:0:
193,126,278882,1,0,1:2:0:0:
348,60,279045,2,0,P|329:57|184:53,1,155,8|8,0:0|3:0,0:0:0:0:
429,256,279697,5,10,0:0:0:0:
274,348,279860,1,10,0:0:0:0:
491,296,280023,6,0,B|408:281|419:319|333:305,1,155,10|0,0:0|1:0,0:0:0:0:
