osu file format v14

[General]
AudioFilename: audio.mp3
AudioLeadIn: 0
PreviewTime: 120187
Countdown: 0
SampleSet: None
StackLeniency: 0.2
Mode: 0
LetterboxInBreaks: 0
WidescreenStoryboard: 1

[Editor]
Bookmarks: 4715,9243,18300,27356,36413,45470,54526,63583,72639,81696,83960,93017,102073,111130,120187,129243,138300,147356,156413,158677,167734,176790,185847,194903,203960,213017,222073,231130,239054
DistanceSpacing: 2.3
BeatDivisor: 8
GridSize: 4
TimelineZoom: 2.4

[Metadata]
Title:sh0ut
TitleUnicode:sh0ut
Artist:SawanoHiroyuki[nZk]:Tielle & Gemie
ArtistUnicode:SawanoHiroyuki[nZk]:Tielle & Gemie
Creator:xLolicore-
Version:Entropy (CS4 edit)
Source:Re:CREATORS
Tags:レクリエイターズ 澤野弘之 sawano hiroyuki shout recreators opening op 2V-ALK altair elsa_valentine
BeatmapID:4010813
BeatmapSetID:795843

[Difficulty]
HPDrainRate:6
CircleSize:4
OverallDifficulty:8
ApproachRate:9
SliderMultiplier:3.49999990463257
SliderTickRate:1

[Events]
//Background and Video events
0,0,"elsa.jpg",0,0
//Break Periods
//Storyboard Layer 0 (Background)
//Storyboard Layer 1 (Fail)
//Storyboard Layer 2 (Pass)
//Storyboard Layer 3 (Foreground)
//Storyboard Layer 4 (Overlay)
//Storyboard Sound Samples

[TimingPoints]
187,566.037735849057,4,2,1,50,1,0
187,-125,4,2,1,50,0,0
753,-142.857142857143,4,2,1,50,0,0
1885,-125,4,2,1,50,0,0
3017,-142.857142857143,4,2,1,50,0,0
4149,-125,4,2,1,50,0,0
4715,-111.111111111111,4,2,1,50,0,0
4927,-111.111111111111,4,2,1,5,0,0
4998,-111.111111111111,4,2,1,50,0,0
7191,-111.111111111111,4,2,1,5,0,0
7262,-111.111111111111,4,2,1,50,0,0
8960,-166.666666666666,4,2,1,50,0,0
9172,-166.666666666666,4,2,1,5,0,0
9243,-125,4,2,1,50,0,0
10021,-125,4,2,1,5,0,0
10092,-125,4,2,1,50,0,0
10587,-125,4,2,1,5,0,0
10658,-125,4,2,1,50,0,0
12286,-125,4,2,1,5,0,0
12356,-125,4,2,1,50,0,0
12852,-125,4,2,1,5,0,0
12922,-125,4,2,1,50,0,0
13984,-125,4,2,1,5,0,0
14054,-125,4,2,1,50,0,0
14550,-125,4,2,1,5,0,0
14620,-125,4,2,1,50,0,0
16814,-125,4,2,1,5,0,0
16885,-125,4,2,1,50,0,0
17380,-125,4,2,1,5,0,0
17451,-125,4,2,1,50,0,0
19078,-125,4,2,1,5,0,0
19149,-125,4,2,1,50,0,0
19644,-125,4,2,1,5,0,0
19715,-125,4,2,1,50,0,0
21342,-125,4,2,1,5,0,0
21413,-125,4,2,1,50,0,0
21908,-125,4,2,1,5,0,0
21979,-125,4,2,1,50,0,0
23040,-125,4,2,1,5,0,0
23111,-125,4,2,1,50,0,0
23606,-125,4,2,1,5,0,0
23677,-125,4,2,1,50,0,0
25304,-125,4,2,1,5,0,0
25375,-125,4,2,1,50,0,0
25870,-125,4,2,1,5,0,0
25941,-125,4,2,1,50,0,0
26437,-125,4,2,1,5,0,0
26507,-125,4,2,1,50,0,0
27356,-111.111111111111,4,2,1,50,0,0
28418,-111.111111111111,4,2,1,5,0,0
28488,-111.111111111111,4,2,1,50,0,0
32946,-111.111111111111,4,2,1,5,0,0
33017,-111.111111111111,4,2,1,50,0,0
33795,-111.111111111111,4,2,1,5,0,0
33866,-111.111111111111,4,2,1,50,0,0
35210,-111.111111111111,4,2,1,5,0,0
35281,-111.111111111111,4,2,1,50,0,0
36413,-142.857142857143,4,2,1,50,0,0
40941,-200,4,2,1,50,0,0
44196,-200,4,2,1,5,0,0
44337,-200,4,2,1,30,0,0
45470,-100,4,2,1,80,0,1
46248,-100,4,2,1,5,0,1
46319,-100,4,2,1,80,0,1
46814,-100,4,2,1,5,0,1
46885,-100,4,2,1,80,0,1
47663,-100,4,2,1,5,0,1
47734,-100,4,2,1,80,0,1
48512,-100,4,2,1,5,0,1
48583,-100,4,2,1,80,0,1
49078,-100,4,2,1,5,0,1
49149,-100,4,2,1,80,0,1
49361,-100,4,2,1,5,0,1
49432,-100,4,2,1,80,0,1
50776,-100,4,2,1,5,0,1
50847,-100,4,2,1,80,0,1
52191,-100,4,2,1,5,0,1
52262,-100,4,2,1,80,0,1
53606,-100,4,2,1,5,0,1
53677,-100,4,2,1,80,0,1
53889,-100,4,2,1,5,0,1
53960,-100,4,2,1,80,0,1
55304,-100,4,2,1,5,0,1
55375,-100,4,2,1,80,0,1
55870,-100,4,2,1,5,0,1
55941,-100,4,2,1,80,0,1
56720,-100,4,2,1,5,0,1
56790,-90.9090909090909,4,2,1,80,0,1
57569,-90.9090909090909,4,2,1,5,0,1
57639,-90.9090909090909,4,2,1,80,0,1
57922,-100,4,2,1,80,0,1
58135,-100,4,2,1,5,0,1
58205,-100,4,2,1,80,0,1
58418,-100,4,2,1,5,0,1
58488,-100,4,2,1,80,0,1
58984,-100,4,2,1,5,0,1
59054,-100,4,2,1,80,0,1
59833,-100,4,2,1,5,0,1
59903,-100,4,2,1,80,0,1
60399,-100,4,2,1,5,0,1
60470,-100,4,2,1,80,0,1
61248,-100,4,2,1,5,0,1
61319,-100,4,2,1,80,0,1
62663,-100,4,2,1,5,0,1
62734,-100,4,2,1,80,0,1
63583,-90.9090909090909,4,2,1,80,0,1
63795,-90.9090909090909,4,2,1,5,0,1
63866,-90.9090909090909,4,2,1,80,0,1
64361,-90.9090909090909,4,2,1,5,0,1
64432,-111.111111111111,4,2,1,80,0,1
64644,-111.111111111111,4,2,1,5,0,1
64715,-99.9999999999999,4,2,1,80,0,1
65847,-90.9090909090909,4,2,1,80,0,1
66059,-90.9090909090909,4,2,1,5,0,1
66130,-90.9090909090909,4,2,1,80,0,1
66625,-90.9090909090909,4,2,1,5,0,1
66696,-111.111111111111,4,2,1,80,0,1
66908,-111.111111111111,4,2,1,5,0,1
66979,-111.111111111111,4,2,1,80,0,1
68111,-90.9090909090908,4,2,1,80,0,1
68323,-90.9090909090908,4,2,1,5,0,1
68394,-90.9090909090908,4,2,1,80,0,1
68889,-90.9090909090908,4,2,1,5,0,1
68960,-90.9090909090908,4,2,1,80,0,1
69243,-100,4,2,1,80,0,1
70375,-90.9090909090909,4,2,1,80,0,1
70587,-90.9090909090909,4,2,1,5,0,1
70658,-90.9090909090909,4,2,1,80,0,1
71295,-90.9090909090909,4,2,1,5,0,1
71366,-90.9090909090909,4,2,1,80,0,1
71507,-100,4,2,1,80,0,1
72639,-90.9090909090909,4,2,1,80,0,1
72852,-90.9090909090909,4,2,1,5,0,1
72922,-90.9090909090909,4,2,1,80,0,1
73418,-90.9090909090909,4,2,1,5,0,1
73488,-111.111111111111,4,2,1,80,0,1
73701,-111.111111111111,4,2,1,5,0,1
73771,-100,4,2,1,80,0,1
73984,-100,4,2,1,5,0,1
74054,-100,4,2,1,80,0,1
74125,-100,4,2,1,5,0,1
74196,-100,4,2,1,80,0,1
74408,-100,4,2,1,5,0,1
74479,-100,4,2,1,80,0,1
74550,-100,4,2,1,5,0,1
74620,-83.3333333333333,4,2,1,80,0,1
74903,-90.9090909090909,4,2,1,80,0,1
75116,-90.9090909090909,4,2,1,5,0,1
75187,-90.9090909090909,4,2,1,80,0,1
75682,-90.9090909090909,4,2,1,5,0,1
75753,-111.111111111111,4,2,1,80,0,1
75965,-111.111111111111,4,2,1,5,0,1
76036,-99.9999999999999,4,2,1,80,0,1
76248,-99.9999999999999,4,2,1,5,0,1
76319,-99.9999999999999,4,2,1,80,0,1
76389,-99.9999999999999,4,2,1,5,0,1
76460,-99.9999999999999,4,2,1,80,0,1
76672,-99.9999999999999,4,2,1,5,0,1
76743,-99.9999999999999,4,2,1,80,0,1
76814,-99.9999999999999,4,2,1,5,0,1
76885,-83.3333333333333,4,2,1,80,0,1
77168,-90.9090909090909,4,2,1,80,0,1
77380,-90.9090909090909,4,2,1,5,0,1
77451,-90.9090909090909,4,2,1,80,0,1
77946,-90.9090909090909,4,2,1,5,0,1
78017,-90.9090909090909,4,2,1,80,0,1
78300,-100,4,2,1,80,0,1
79432,-90.9090909090909,4,2,1,80,0,1
79644,-90.9090909090909,4,2,1,5,0,1
79715,-90.9090909090909,4,2,1,80,0,1
80352,-90.9090909090909,4,2,1,5,0,1
80422,-90.9090909090909,4,2,1,80,0,1
81696,-250,4,2,1,20,0,0
82757,-250,4,2,1,5,0,0
82828,-125,4,2,1,20,0,0
83323,-125,4,2,1,5,0,0
83394,-83.3333333333333,4,2,1,20,0,0
83960,-111.111111111111,4,2,1,50,0,0
84738,-111.111111111111,4,2,1,5,0,0
84809,-111.111111111111,4,2,1,50,0,0
85304,-111.111111111111,4,2,1,5,0,0
85375,-111.111111111111,4,2,1,50,0,0
87003,-111.111111111111,4,2,1,5,0,0
87073,-111.111111111111,4,2,1,50,0,0
87569,-111.111111111111,4,2,1,5,0,0
87639,-111.111111111111,4,2,1,50,0,0
88701,-111.111111111111,4,2,1,5,0,0
88771,-111.111111111111,4,2,1,50,0,0
89267,-111.111111111111,4,2,1,5,0,0
89337,-111.111111111111,4,2,1,50,0,0
90965,-111.111111111111,4,2,1,5,0,0
91036,-111.111111111111,4,2,1,50,0,0
91531,-111.111111111111,4,2,1,5,0,0
91602,-111.111111111111,4,2,1,50,0,0
92097,-111.111111111111,4,2,1,5,0,0
92168,-111.111111111111,4,2,1,50,0,0
93795,-111.111111111111,4,2,1,5,0,0
93866,-111.111111111111,4,2,1,50,0,0
96059,-111.111111111111,4,2,1,5,0,0
96130,-111.111111111111,4,2,1,50,0,0
98323,-111.111111111111,4,2,1,5,0,0
98394,-111.111111111111,4,2,1,50,0,0
99738,-111.111111111111,4,2,1,5,0,0
99809,-111.111111111111,4,2,1,50,0,0
100021,-111.111111111111,4,2,1,5,0,0
100092,-111.111111111111,4,2,1,50,0,0
100587,-111.111111111111,4,2,1,5,0,0
100658,-111.111111111111,4,2,1,50,0,0
101153,-111.111111111111,4,2,1,5,0,0
101224,-111.111111111111,4,2,1,50,0,0
102073,-142.857142857143,4,2,1,50,0,0
103701,-142.857142857143,4,2,1,5,0,0
103771,-142.857142857143,4,2,1,50,0,0
108229,-142.857142857143,4,2,1,5,0,0
108300,-142.857142857143,4,2,1,50,0,0
108795,-142.857142857143,4,2,1,5,0,0
108866,-142.857142857143,4,2,1,50,0,0
111059,-142.857142857143,4,2,1,5,0,0
111130,-166.666666666667,4,2,1,30,0,0
113040,-166.666666666667,4,2,1,5,0,0
113111,-111.111111111111,4,2,1,30,0,0
113323,-111.111111111111,4,2,1,5,0,0
113394,-142.857142857143,4,2,1,30,0,0
114172,-142.857142857143,4,2,1,5,0,0
114243,-142.857142857143,4,2,1,30,0,0
115304,-142.857142857143,4,2,1,5,0,0
115375,-100,4,2,1,30,0,0
115587,-100,4,2,1,5,0,0
115658,-166.666666666667,4,2,1,20,0,0
116437,-166.666666666667,4,2,1,5,0,0
116507,-166.666666666667,4,2,1,20,0,0
119337,-111.111111111111,4,2,1,50,0,0
120116,-111.111111111111,4,2,1,5,0,0
120187,-99.9999999999999,4,2,1,80,0,1
120965,-99.9999999999999,4,2,1,5,0,1
121036,-99.9999999999999,4,2,1,80,0,1
121531,-99.9999999999999,4,2,1,5,0,1
121602,-99.9999999999999,4,2,1,80,0,1
122380,-99.9999999999999,4,2,1,5,0,1
122451,-99.9999999999999,4,2,1,80,0,1
123229,-99.9999999999999,4,2,1,5,0,1
123300,-99.9999999999999,4,2,1,80,0,1
123795,-99.9999999999999,4,2,1,5,0,1
123866,-99.9999999999999,4,2,1,80,0,1
124078,-99.9999999999999,4,2,1,5,0,1
124149,-99.9999999999999,4,2,1,80,0,1
125493,-99.9999999999999,4,2,1,5,0,1
125564,-99.9999999999999,4,2,1,80,0,1
126908,-99.9999999999999,4,2,1,5,0,1
126979,-99.9999999999999,4,2,1,80,0,1
128323,-99.9999999999999,4,2,1,5,0,1
128394,-99.9999999999999,4,2,1,80,0,1
128606,-99.9999999999999,4,2,1,5,0,1
128677,-99.9999999999999,4,2,1,80,0,1
130021,-99.9999999999999,4,2,1,5,0,1
130092,-99.9999999999999,4,2,1,80,0,1
130587,-99.9999999999999,4,2,1,5,0,1
130658,-99.9999999999999,4,2,1,80,0,1
131507,-90.9090909090909,4,2,1,80,0,1
132286,-90.9090909090909,4,2,1,5,0,1
132356,-90.9090909090909,4,2,1,80,0,1
132639,-100,4,2,1,80,0,1
132852,-100,4,2,1,5,0,1
132922,-100,4,2,1,80,0,1
133135,-100,4,2,1,5,0,1
133205,-100,4,2,1,80,0,1
133701,-100,4,2,1,5,0,1
133771,-100,4,2,1,80,0,1
134550,-100,4,2,1,5,0,1
134620,-100,4,2,1,80,0,1
135116,-100,4,2,1,5,0,1
135187,-100,4,2,1,80,0,1
135965,-100,4,2,1,5,0,1
136036,-100,4,2,1,80,0,1
137380,-100,4,2,1,5,0,1
137451,-100,4,2,1,80,0,1
138300,-90.9090909090909,4,2,1,80,0,1
138512,-90.9090909090909,4,2,1,5,0,1
138583,-90.9090909090909,4,2,1,80,0,1
139078,-90.9090909090909,4,2,1,5,0,1
139149,-111.111111111111,4,2,1,80,0,1
139361,-111.111111111111,4,2,1,5,0,1
139432,-99.9999999999999,4,2,1,80,0,1
140564,-90.9090909090909,4,2,1,80,0,1
140776,-90.9090909090909,4,2,1,5,0,1
140847,-90.9090909090909,4,2,1,80,0,1
141342,-90.9090909090909,4,2,1,5,0,1
141413,-111.111111111111,4,2,1,80,0,1
141625,-111.111111111111,4,2,1,5,0,1
141696,-99.9999999999999,4,2,1,80,0,1
142828,-90.9090909090909,4,2,1,80,0,1
143040,-90.9090909090909,4,2,1,5,0,1
143111,-90.9090909090909,4,2,1,80,0,1
143606,-90.9090909090909,4,2,1,5,0,1
143677,-90.9090909090909,4,2,1,80,0,1
143960,-100,4,2,1,80,0,1
145092,-90.9090909090909,4,2,1,80,0,1
145304,-90.9090909090909,4,2,1,5,0,1
145375,-90.9090909090909,4,2,1,80,0,1
146012,-90.9090909090909,4,2,1,5,0,1
146083,-90.9090909090909,4,2,1,80,0,1
146224,-100,4,2,1,80,0,1
147356,-90.9090909090909,4,2,1,80,0,1
147569,-90.9090909090909,4,2,1,5,0,1
147639,-90.9090909090909,4,2,1,80,0,1
148135,-90.9090909090909,4,2,1,5,0,1
148205,-111.111111111111,4,2,1,80,0,1
148418,-111.111111111111,4,2,1,5,0,1
148488,-99.9999999999999,4,2,1,80,0,1
148701,-99.9999999999999,4,2,1,5,0,1
148771,-99.9999999999999,4,2,1,80,0,1
148842,-99.9999999999999,4,2,1,5,0,1
148913,-99.9999999999999,4,2,1,80,0,1
149125,-99.9999999999999,4,2,1,5,0,1
149196,-99.9999999999999,4,2,1,80,0,1
149267,-99.9999999999999,4,2,1,5,0,1
149337,-83.3333333333333,4,2,1,80,0,1
149620,-90.9090909090909,4,2,1,80,0,1
149833,-90.9090909090909,4,2,1,5,0,1
149903,-90.9090909090909,4,2,1,80,0,1
150399,-90.9090909090909,4,2,1,5,0,1
150470,-111.111111111111,4,2,1,80,0,1
150682,-111.111111111111,4,2,1,5,0,1
150753,-99.9999999999999,4,2,1,80,0,1
150965,-99.9999999999999,4,2,1,5,0,1
151036,-99.9999999999999,4,2,1,80,0,1
151106,-99.9999999999999,4,2,1,5,0,1
151177,-99.9999999999999,4,2,1,80,0,1
151389,-99.9999999999999,4,2,1,5,0,1
151460,-99.9999999999999,4,2,1,80,0,1
151531,-99.9999999999999,4,2,1,5,0,1
151602,-83.3333333333333,4,2,1,80,0,1
151885,-90.9090909090909,4,2,1,80,0,1
152097,-90.9090909090909,4,2,1,5,0,1
152168,-90.9090909090909,4,2,1,80,0,1
152663,-90.9090909090909,4,2,1,5,0,1
152734,-90.9090909090909,4,2,1,80,0,1
154361,-90.9090909090909,4,2,1,5,0,1
154432,-90.9090909090909,4,2,1,80,0,1
155069,-90.9090909090909,4,2,1,5,0,1
155139,-90.9090909090909,4,2,1,80,0,1
156413,-200,4,2,1,40,0,0
158111,-333.333333333333,4,2,1,40,0,0
158606,-333.333333333333,4,2,1,5,0,0
158677,-100,4,2,1,60,0,0
159455,-100,4,2,1,5,0,0
159526,-100,4,2,1,60,0,0
161720,-100,4,2,1,5,0,0
161790,-100,4,2,1,60,0,0
163842,-100,4,2,1,5,0,0
163913,-100,4,2,1,60,0,0
164267,-100,4,2,1,5,0,0
164337,-100,4,2,1,60,0,0
164833,-100,4,2,1,5,0,0
164903,-100,4,2,1,60,0,0
166248,-100,4,2,1,5,0,0
166319,-100,4,2,1,60,0,0
167380,-100,4,2,1,5,0,0
167451,-100,4,2,1,60,0,0
168512,-100,4,2,1,5,0,0
168583,-100,4,2,1,60,0,0
170776,-100,4,2,1,5,0,0
170847,-100,4,2,1,60,0,0
173323,-100,4,2,1,5,0,0
173394,-100,4,2,1,60,0,0
175304,-100,4,2,1,5,0,0
175375,-100,4,2,1,60,0,0
176790,-111.111111111111,4,2,1,50,0,0
177852,-111.111111111111,4,2,1,5,0,0
177922,-111.111111111111,4,2,1,50,0,0
182380,-111.111111111111,4,2,1,5,0,0
182451,-111.111111111111,4,2,1,50,0,0
183229,-111.111111111111,4,2,1,5,0,0
183300,-111.111111111111,4,2,1,50,0,0
184644,-111.111111111111,4,2,1,5,0,0
184715,-111.111111111111,4,2,1,50,0,0
185847,-200,4,2,1,50,0,0
190375,-250,4,2,1,50,0,0
193630,-250,4,2,1,5,0,0
193771,-250,4,2,1,20,0,0
194267,-250,4,2,1,5,0,0
194337,-111.111111111111,4,2,1,50,0,0
194833,-111.111111111111,4,2,1,5,0,0
194903,-100,4,2,1,80,0,1
195682,-100,4,2,1,5,0,1
195753,-100,4,2,1,80,0,1
196248,-100,4,2,1,5,0,1
196319,-100,4,2,1,80,0,1
197097,-100,4,2,1,5,0,1
197168,-100,4,2,1,80,0,1
197946,-100,4,2,1,5,0,1
198017,-100,4,2,1,80,0,1
198512,-100,4,2,1,5,0,1
198583,-100,4,2,1,80,0,1
198795,-100,4,2,1,5,0,1
198866,-100,4,2,1,80,0,1
200210,-100,4,2,1,5,0,1
200281,-100,4,2,1,80,0,1
201059,-100,4,2,1,5,0,1
201130,-100,4,2,1,80,0,1
201625,-100,4,2,1,5,0,1
201696,-100,4,2,1,80,0,1
203040,-100,4,2,1,5,0,1
203111,-100,4,2,1,80,0,1
203323,-100,4,2,1,5,0,1
203394,-100,4,2,1,80,0,1
204738,-100,4,2,1,5,0,1
204809,-100,4,2,1,80,0,1
205304,-100,4,2,1,5,0,1
205375,-100,4,2,1,80,0,1
206224,-90.9090909090909,4,2,1,80,0,1
207003,-90.9090909090909,4,2,1,5,0,1
207073,-90.9090909090909,4,2,1,80,0,1
207356,-100,4,2,1,80,0,1
207852,-100,4,2,1,5,0,1
207922,-100,4,2,1,80,0,1
208418,-100,4,2,1,5,0,1
208488,-100,4,2,1,80,0,1
209267,-100,4,2,1,5,0,1
209337,-100,4,2,1,80,0,1
209833,-100,4,2,1,5,0,1
209903,-100,4,2,1,80,0,1
210682,-100,4,2,1,5,0,1
210753,-100,4,2,1,80,0,1
213017,-90.9090909090909,4,2,1,80,0,1
213229,-90.9090909090909,4,2,1,5,0,1
213300,-90.9090909090909,4,2,1,80,0,1
213795,-90.9090909090909,4,2,1,5,0,1
213866,-111.111111111111,4,2,1,80,0,1
214078,-111.111111111111,4,2,1,5,0,1
214149,-99.9999999999999,4,2,1,80,0,1
215281,-90.9090909090909,4,2,1,80,0,1
215493,-90.9090909090909,4,2,1,5,0,1
215564,-90.9090909090909,4,2,1,80,0,1
216059,-90.9090909090909,4,2,1,5,0,1
216130,-111.111111111111,4,2,1,80,0,1
216342,-111.111111111111,4,2,1,5,0,1
216413,-99.9999999999999,4,2,1,80,0,1
217545,-90.9090909090909,4,2,1,80,0,1
217757,-90.9090909090909,4,2,1,5,0,1
217828,-90.9090909090909,4,2,1,80,0,1
218323,-90.9090909090909,4,2,1,5,0,1
218394,-90.9090909090909,4,2,1,80,0,1
218677,-100,4,2,1,80,0,1
220021,-100,4,2,1,5,0,1
220092,-100,4,2,1,80,0,1
220729,-100,4,2,1,5,0,1
220800,-100,4,2,1,80,0,1
222073,-90.9090909090909,4,2,1,80,0,1
222286,-90.9090909090909,4,2,1,5,0,1
222356,-90.9090909090909,4,2,1,80,0,1
222852,-90.9090909090909,4,2,1,5,0,1
222922,-111.111111111111,4,2,1,80,0,1
223135,-111.111111111111,4,2,1,5,0,1
223205,-100,4,2,1,80,0,1
223418,-100,4,2,1,5,0,1
223488,-100,4,2,1,80,0,1
223559,-100,4,2,1,5,0,1
223630,-100,4,2,1,80,0,1
223842,-100,4,2,1,5,0,1
223913,-100,4,2,1,80,0,1
223984,-100,4,2,1,5,0,1
224054,-83.3333333333333,4,2,1,80,0,1
224337,-90.9090909090909,4,2,1,80,0,1
224550,-90.9090909090909,4,2,1,5,0,1
224620,-90.9090909090909,4,2,1,80,0,1
225116,-90.9090909090909,4,2,1,5,0,1
225187,-111.111111111111,4,2,1,80,0,1
225399,-111.111111111111,4,2,1,5,0,1
225470,-100,4,2,1,80,0,1
225682,-100,4,2,1,5,0,1
225753,-100,4,2,1,80,0,1
225823,-100,4,2,1,5,0,1
225894,-100,4,2,1,80,0,1
226106,-100,4,2,1,5,0,1
226177,-100,4,2,1,80,0,1
226248,-100,4,2,1,5,0,1
226319,-83.3333333333333,4,2,1,80,0,1
226602,-90.9090909090909,4,2,1,80,0,1
226814,-90.9090909090909,4,2,1,5,0,1
226885,-90.9090909090909,4,2,1,80,0,1
227380,-90.9090909090909,4,2,1,5,0,1
227451,-90.9090909090909,4,2,1,80,0,1
227734,-100,4,2,1,80,0,1
228866,-90.9090909090909,4,2,1,80,0,1
229078,-90.9090909090909,4,2,1,5,0,1
229149,-90.9090909090909,4,2,1,80,0,1
229786,-90.9090909090909,4,2,1,5,0,1
229856,-90.9090909090909,4,2,1,80,0,1
231130,-142.857142857143,4,2,1,30,0,0
231342,-142.857142857143,4,2,1,5,0,0
231413,-142.857142857143,4,2,1,30,0,0
231767,-142.857142857143,4,2,1,5,0,0
231837,-142.857142857143,4,2,1,30,0,0
235163,-142.857142857143,4,2,1,5,0,0
235234,-100,4,2,1,30,0,0
235658,-370.37037037037,4,2,1,30,0,0
235729,-370.37037037037,4,2,1,5,0,0

[Colours]
Combo1 : 253,170,172
Combo2 : 156,228,250
Combo3 : 243,222,190
Combo4 : 192,192,192

[HitObjects]
466,345,187,6,0,P|437:326|402:320,1,69.9999980926514,0|0,0:0|0:0,0:0:0:0:
410,247,470,2,0,P|382:250|341:278,1,69.9999980926514,0|0,0:0|0:0,0:0:0:0:
183,364,753,6,0,P|213:339|229:312,1,61.2499964618684,0|0,0:0|0:0,0:0:0:0:
251,249,1036,2,0,P|258:210|253:180,1,61.2499964618684,0|0,0:0|0:0,0:0:0:0:
227,118,1319,5,0,0:0:0:0:
187,211,1460,2,0,L|168:213,4,15.3124991154671
337,162,1743,5,0,0:0:0:0:
227,118,1885,2,0,P|255:112|290:85,1,69.9999980926514,0|0,0:0|0:0,0:0:0:0:
333,24,2168,1,0,0:0:0:0:
223,36,2309,2,0,L|226:18,2,17.4999995231628
165,80,2451,6,0,P|135:98|101:102,1,69.9999980926514
111,30,2734,2,0,P|76:23|47:4,1,69.9999980926514,0|0,0:0|0:0,0:0:0:0:
7,163,3017,6,0,P|44:168|77:186,1,61.2499964618684,0|0,0:0|0:0,0:0:0:0:
107,243,3300,2,0,P|132:270|145:305,1,61.2499964618684,0|0,0:0|0:0,0:0:0:0:
120,366,3583,5,0,0:0:0:0:
70,308,3724,2,0,L|50:305,4,15.3124991154671
193,348,4007,5,0,0:0:0:0:
193,348,4149,2,0,P|228:356|268:346,1,69.9999980926514,0|0,0:0|0:0,0:0:0:0:
320,302,4432,1,0,0:0:0:0:
408,340,4573,2,0,L|402:366,2,17.4999995231628
480,344,4715,6,0,P|461:290|408:266,1,118.124993176461,2|0,0:2|0:0,0:0:0:0:
397,259,4998,1,2,0:2:0:0:
489,130,5139,2,0,P|481:168|456:199,1,78.7499954509737,2|0,0:2|0:2,0:0:0:0:
373,84,5422,1,2,0:2:0:0:
342,153,5564,2,0,P|349:114|374:84,1,78.7499954509737,0|2,0:2|0:2,0:0:0:0:
495,53,5847,6,0,B|411:66|445:-2|339:13,1,157.499990901947,0|2,0:0|0:2,0:0:0:0:
374,84,6271,1,0,0:2:0:0:
242,1,6413,2,0,P|270:28|284:65,1,78.7499954509737,2|0,0:2|0:2,0:0:0:0:
224,111,6696,2,0,P|221:149|201:183,1,78.7499954509737,2|0,0:2|0:2,0:0:0:0:
18,168,6979,6,0,P|74:181|127:158,1,118.124993176461,2|0,0:2|0:0,0:0:0:0:
137,146,7262,1,2,0:2:0:0:
80,286,7403,2,0,P|49:262|11:257,1,78.7499954509737,2|0,0:2|0:2,0:0:0:0:
130,364,7687,2,0,P|160:340|199:334,1,78.7499954509737,2|0,0:2|0:2,0:0:0:0:
270,366,7970,1,2,0:2:0:0:
408,358,8111,6,0,P|369:354|338:330,1,78.7499954509737,0|2,0:2|0:2,0:0:0:0:
270,366,8394,1,0,0:2:0:0:
396,287,8536,6,0,B|410:251|465:251|465:251|492:296|452:351,1,157.499990901947,2|0,0:2|0:2,0:0:0:0:
338,330,8960,2,0,P|304:298|268:289,1,78.7499954509737,2|0,0:2|0:0,0:0:0:0:
260,292,9243,5,4,3:2:0:0:
84,306,9385,1,0,0:0:0:0:
129,246,9526,1,0,0:2:0:0:
156,316,9668,1,0,0:2:0:0:
11,295,9809,6,0,B|26:260|26:260|17:185,1,104.999997138977,0|0,0:2|0:0,0:0:0:0:
15,179,10092,1,0,3:2:0:0:
3,104,10234,1,0,0:2:0:0:
140,32,10375,6,0,B|125:67|125:67|134:142,1,104.999997138977,0|0,3:2|0:0,0:0:0:0:
137,146,10658,1,0,0:2:0:0:
216,6,10800,2,0,P|246:20|290:21,1,69.9999980926514,0|0,0:2|0:2,0:0:0:0:
307,100,11083,2,0,P|337:86|381:85,1,69.9999980926514,0|0,0:2|0:2,0:0:0:0:
442,120,11366,1,0,0:2:0:0:
373,6,11507,5,0,3:2:0:0:
499,166,11649,1,0,0:2:0:0:
511,92,11791,1,0,0:2:0:0:
442,120,11932,1,0,0:2:0:0:
483,327,12073,6,0,P|444:289|375:296,1,104.999997138977,0|0,0:2|0:0,0:0:0:0:
383,293,12356,1,0,0:2:0:0:
417,356,12498,1,0,0:2:0:0:
219,379,12639,6,0,P|257:340|250:271,1,104.999997138977,0|0,3:2|0:0,0:0:0:0:
253,279,12922,1,0,3:2:0:0:
123,307,13064,2,0,P|157:301|190:313,1,69.9999980926514,0|0,0:2|0:2,0:0:0:0:
9,370,13347,2,0,P|35:347|46:314,1,69.9999980926514,0|0,0:2|0:2,0:0:0:0:
24,240,13630,1,0,0:2:0:0:
137,146,13771,6,0,L|7:136,1,104.999997138977,2|0,3:2|0:0,0:0:0:0:
23,127,14054,2,0,P|17:91|30:53,1,69.9999980926514,2|0,0:2|0:0,0:0:0:0:
183,89,14337,2,0,P|208:132|184:202,1,104.999997138977,2|0,0:2|0:0,0:0:0:0:
178,195,14620,2,0,P|139:161|138:137,1,69.9999980926514,0|0,3:2|0:0,0:0:0:0:
226,30,14903,5,2,3:2:0:0:
300,112,15045,2,0,L|310:42,1,69.9999980926514,2|0,0:2|0:2,0:0:0:0:
456,11,15328,2,0,B|439:49|439:49|452:159,1,139.999996185303,2|0,0:2|0:2,0:0:0:0:
460,222,15753,1,0,0:2:0:0:
391,193,15894,1,2,0:2:0:0:
483,327,16036,6,0,B|401:332|445:270|329:286,1,139.999996185303,0|2,3:2|0:2,0:0:0:0:
372,357,16460,1,0,0:2:0:0:
253,279,16602,2,0,P|249:324|197:359,1,104.999997138977,2|0,0:2|0:0,0:0:0:0:
191,351,16885,2,0,L|118:355,1,69.9999980926514,2|0,0:2|0:2,0:0:0:0:
2,288,17168,6,0,P|6:243|58:208,1,104.999997138977,2|0,3:2|0:0,0:0:0:0:
65,209,17451,1,0,3:2:0:0:
183,89,17592,2,0,P|135:98|78:25,1,139.999996185303,2|0,0:2|0:2,0:0:0:0:
222,29,18017,2,0,P|249:60|255:100,1,69.9999980926514,0|0,0:2|0:2,0:0:0:0:
183,89,18300,5,0,3:2:0:0:
385,37,18441,1,0,0:2:0:0:
397,111,18583,1,0,0:2:0:0:
328,83,18724,1,0,0:2:0:0:
478,12,18866,6,0,L|469:130,1,104.999997138977,0|0,0:2|0:0,0:0:0:0:
473,130,19149,2,0,P|452:169|425:186,1,69.9999980926514,0|0,3:2|0:0,0:0:0:0:
282,233,19432,2,0,P|306:188|356:175,1,104.999997138977,0|0,3:2|0:0,0:0:0:0:
358,188,19715,1,0,0:2:0:0:
465,284,19856,2,0,P|435:267|401:264,1,69.9999980926514,0|0,0:2|0:2,0:0:0:0:
372,357,20139,2,0,P|342:374|308:377,1,69.9999980926514,0|0,0:2|0:2,0:0:0:0:
241,342,20422,1,0,0:2:0:0:
94,370,20564,5,0,3:2:0:0:
241,342,20705,1,0,0:2:0:0:
268,271,20847,1,0,0:2:0:0:
193,283,20988,1,0,0:2:0:0:
372,357,21130,6,0,P|393:307|461:286,1,104.999997138977,0|0,0:2|0:0,0:0:0:0:
465,284,21413,1,0,0:2:0:0:
444,358,21554,1,0,0:2:0:0:
355,174,21696,6,0,L|477:186,1,104.999997138977,0|0,3:2|0:0,0:0:0:0:
483,187,21979,1,0,3:2:0:0:
397,43,22120,2,0,P|404:78|386:127,1,69.9999980926514,0|0,0:2|0:2,0:0:0:0:
291,209,22403,2,0,P|283:175|290:141,1,69.9999980926514,0|0,0:2|0:0,0:0:0:0:
332,77,22687,1,0,0:2:0:0:
206,7,22828,6,0,P|219:56|171:89,1,104.999997138977,0|0,3:2|0:0,0:0:0:0:
157,87,23111,2,0,P|132:63|132:13,1,69.9999980926514,0|0,0:2|0:2,0:0:0:0:
51,208,23394,2,0,P|87:169|150:170,1,104.999997138977,0|0,0:2|0:0,0:0:0:0:
157,182,23677,2,0,P|144:214|116:235,1,69.9999980926514,0|0,3:2|0:0,0:0:0:0:
2,288,23960,5,0,3:2:0:0:
80,367,24102,2,0,P|71:333|77:299,1,69.9999980926514,0|0,0:2|0:2,0:0:0:0:
193,283,24385,6,0,B|237:245|300:268|300:268|276:306,1,139.999996185303,0|0,0:2|0:2,0:0:0:0:
308,363,24809,1,0,0:2:0:0:
235,345,24951,1,0,0:2:0:0:
371,216,25092,6,0,P|386:260|453:286,1,104.999997138977,0|0,3:2|0:0,0:0:0:0:
457,277,25375,2,0,P|461:243|443:215,1,69.9999980926514,0|0,0:2|0:2,0:0:0:0:
289,141,25658,2,0,P|342:125|357:79,1,104.999997138977,0|0,0:2|0:0,0:0:0:0:
375,65,25941,2,0,L|463:74,1,69.9999980926514,0|0,0:2|0:2,0:0:0:0:
256,77,26224,6,0,P|222:114|232:185,1,104.999997138977,0|0,3:2|0:0,0:0:0:0:
234,187,26507,1,0,3:2:0:0:
270,316,26649,2,0,B|298:283|286:237|286:237|259:265|219:257,1,139.999996185303,0|0,0:2|0:2,0:0:0:0:
130,357,27073,1,0,0:2:0:0:
158,287,27215,1,0,0:0:0:0:
62,106,27356,1,4,3:2:0:0:
32,277,27639,6,0,B|121:276|75:209|180:213,1,157.499990901947,0|0,0:2|3:2,0:0:0:0:
158,287,28064,1,0,0:0:0:0:
41,204,28205,2,0,P|24:158|72:104,1,118.124993176461,0|0,0:2|0:0,0:0:0:0:
88,98,28488,6,0,P|113:64|23:29,1,157.499990901947,0|0,3:2|0:2,0:0:0:0:
38,13,28913,1,0,0:0:0:0:
146,140,29054,2,0,B|182:108|183:51|183:51|195:86|234:94,1,157.499990901947,0|0,3:2|0:0,0:0:0:0:
222,90,29620,6,0,B|279:126|327:103|327:103|283:69,1,157.499990901947,0|0,3:2|0:2,0:0:0:0:
289,74,30045,1,0,0:0:0:0:
462,12,30187,2,0,B|367:38|367:38|415:72,1,157.499990901947,0|0,3:2|0:0,0:0:0:0:
509,238,30753,6,0,B|468:234|445:200|445:200|401:184|355:230,1,157.499990901947,0|0,3:2|0:2,0:0:0:0:
507,163,31177,1,0,0:0:0:0:
500,329,31319,5,2,3:2:0:0:
435,291,31460,1,2,0:2:0:0:
370,327,31602,1,2,0:0:0:0:
434,365,31743,1,2,0:2:0:0:
317,377,31885,1,2,3:2:0:0:
317,377,32168,6,0,B|287:341|305:293|305:293|281:320|245:318,1,157.499990901947,0|0,0:2|3:2,0:0:0:0:
251,245,32592,1,0,0:0:0:0:
183,356,32734,2,0,P|148:317|79:326,1,118.124993176461,0|0,0:2|0:0,0:0:0:0:
66,333,33017,6,0,B|92:284|79:245|79:245|52:277|-2:271,1,157.499990901947,0|0,3:2|0:2,0:0:0:0:
24,198,33441,1,0,0:0:0:0:
166,239,33583,2,0,P|138:178|161:126,1,118.124993176461,0|0,3:2|0:0,0:0:0:0:
177,118,33866,2,0,P|207:142|209:181,1,78.7499954509737,0|0,0:2|0:0,0:0:0:0:
166,239,34149,1,0,3:2:0:0:
0,101,34432,6,0,B|89:109|44:33|155:52,1,157.499990901947,0|0,0:2|3:2,0:0:0:0:
177,118,34856,1,0,0:0:0:0:
201,4,34998,2,0,P|234:44|306:44,1,118.124993176461,0|0,0:2|0:0,0:0:0:0:
317,30,35281,1,0,3:2:0:0:
317,30,35564,6,0,L|395:35,1,78.7499954509737,0|0,0:2|0:0,0:0:0:0:
488,143,35847,2,0,B|510:74|467:52|467:52|455:97|404:113,1,157.499990901947,0|0,3:2|0:2,0:0:0:0:
395,35,36271,1,0,0:0:0:0:
488,143,36413,6,0,P|451:190|458:249,1,122.499992923737,0|0,3:2|0:0,0:0:0:0:
360,338,36979,2,0,B|443:319|443:319|421:313|403:295,1,122.499992923737,0|0,3:2|0:0,0:0:0:0:
253,352,37545,6,0,B|149:367|195:285|86:304,1,183.749989385605,0|0,3:2|0:0,0:0:0:0:
205,199,38111,2,0,P|251:230|227:281,1,122.499992923737,0|0,3:2|0:0,0:0:0:0:
253,352,38536,1,0,0:0:0:0:
205,199,38677,6,0,P|150:177|141:119,1,122.499992923737,0|0,3:2|0:0,0:0:0:0:
168,52,39102,1,0,0:0:0:0:
51,57,39243,2,0,B|93:65|93:65|130:34|182:57,1,122.499992923737,0|0,3:2|0:0,0:0:0:0:
216,111,39668,1,0,0:0:0:0:
317,30,39809,6,0,P|313:89|377:137,1,122.499992923737,0|0,3:2|0:0,0:0:0:0:
381,64,40234,1,0,0:0:0:0:
510,220,40375,2,0,P|470:175|411:176,1,122.499992923737,0|0,3:2|0:0,0:0:0:0:
441,242,40800,1,0,0:0:0:0:
510,220,40941,1,0,3:2:0:0:
405,305,41507,5,0,0:0:0:0:
350,357,41790,1,0,0:0:0:0:
300,265,42073,6,0,P|256:223|214:267,1,131.249996423721,0|0,0:0|0:0,0:0:0:0:
256,326,42639,5,0,0:0:0:0:
256,156,42922,2,0,L|256:55,1,87.4999976158143,0|0,0:0|0:0,0:0:0:0:
256,192,43347,12,0,44196,0:0:0:0:
256,156,44337,6,0,B|290:145|294:95|294:95|235:57|156:111|170:189|223:222,1,306.24999165535,0|0,0:0|0:2,0:0:0:0:
300,265,45470,6,0,B|398:279|347:190|465:208,1,174.999995231629,6|0,3:2|0:2,0:0:0:0:
433,278,45894,1,0,3:2:0:0:
488,24,46036,2,0,P|443:69|380:63,1,131.249996423721,8|0,0:2|0:0,0:0:0:0:
349,37,46319,2,0,P|377:4|420:1,1,87.4999976158143,0|0,3:2|0:2,0:0:0:0:
256,156,46602,6,0,P|259:98|202:59,1,131.249996423721,0|0,3:2|0:0,0:0:0:0:
174,69,46885,2,0,L|83:77,1,87.4999976158143,2|0,0:2|0:2,0:0:0:0:
6,226,47168,2,0,P|34:192|76:185,1,87.4999976158143,10|0,0:2|0:2,0:0:0:0:
131,327,47451,6,0,B|162:266|116:246|116:246|102:257|73:259,1,131.249996423721,2|0,0:2|0:0,0:0:0:0:
55,327,47734,6,0,B|119:332|119:332|150:365|150:365|229:375,1,174.999995231629,2|2,3:2|0:2,0:0:0:0:
274,324,48158,1,0,3:2:0:0:
463,372,48300,2,0,P|483:316|423:278,1,131.249996423721,10|0,0:2|0:0,0:0:0:0:
434,246,48583,2,0,P|398:270|351:264,1,87.4999976158143,0|0,3:2|0:2,0:0:0:0:
379,62,48866,6,0,P|410:109|500:95,1,131.249996423721,0|0,3:2|0:0,0:0:0:0:
446,51,49149,2,0,L|290:42,1,131.249996423721,2|0,0:2|0:0,0:0:0:0:
286,54,49432,1,8,0:2:0:0:
85,75,49573,6,0,B|146:57|146:57|189:99|159:159,1,174.999995231629,2|0,0:2|0:2,0:0:0:0:
21,242,49998,6,0,B|139:228|139:228|111:219|94:189,1,174.999995231629,2|2,3:2|0:2,0:0:0:0:
159,160,50422,1,0,3:2:0:0:
215,373,50564,2,0,P|208:324|279:278,1,131.249996423721,10|0,0:2|0:0,0:0:0:0:
291,293,50847,2,0,L|386:302,1,87.4999976158143,0|0,3:2|0:2,0:0:0:0:
479,111,51130,6,0,B|526:166|484:220|484:220|399:211,1,174.999995231629,0|0,3:2|0:2,0:0:0:0:
409,141,51554,1,0,0:2:0:0:
454,330,51696,2,0,P|420:302|362:309,1,87.4999976158143,10|0,0:2|0:2,0:0:0:0:
192,363,51979,6,0,P|250:338|266:277,1,131.249996423721,2|0,0:2|0:0,0:0:0:0:
196,291,52262,6,0,B|138:246|77:278|77:278|103:333,1,174.999995231629,2|0,3:2|0:2,0:0:0:0:
192,363,52687,1,2,3:2:0:0:
26,145,52828,6,0,B|123:143|67:67|187:68,1,174.999995231629,10|0,0:2|3:2,0:0:0:0:
34,72,53253,1,2,0:2:0:0:
180,141,53394,6,0,B|224:136|242:91|242:91|249:118|288:140,1,131.249996423721,2|0,3:2|0:0,0:0:0:0:
309,66,53677,2,0,P|346:97|431:75,1,131.249996423721,2|0,0:2|0:0,0:0:0:0:
373,30,53960,1,8,0:2:0:0:
508,235,54102,1,0,0:0:0:0:
429,213,54243,1,8,0:2:0:0:
489,57,54385,1,8,0:2:0:0:
386,272,54526,6,0,B|342:232|365:178|365:178|339:206|295:198,1,174.999995231629,6|0,3:2|0:2,0:0:0:0:
429,213,54951,1,0,3:2:0:0:
222,361,55092,2,0,P|255:306|318:297,1,131.249996423721,8|0,0:2|0:0,0:0:0:0:
383,373,55375,2,0,L|295:366,1,87.4999976158143,0|0,3:2|0:2,0:0:0:0:
108,204,55658,6,0,P|154:246|150:310,1,131.249996423721,0|0,3:2|0:0,0:0:0:0:
94,355,55941,2,0,P|77:315|88:274,1,87.4999976158143,2|0,0:2|0:2,0:0:0:0:
248,96,56224,2,0,P|220:129|179:140,1,87.4999976158143,10|0,0:2|0:2,0:0:0:0:
101,60,56507,6,0,B|199:41|199:41|188:51|180:66,1,131.249996423721,2|0,0:2|0:0,0:0:0:0:
248,96,56790,6,0,B|281:68|270:17|270:17|392:48,1,192.500000629425,2|2,3:2|0:2,0:0:0:0:
509,19,57215,1,0,3:2:0:0:
354,190,57356,2,0,B|328:149|341:108|341:108|370:124|414:107,1,144.375000472069,10|0,0:2|0:0,0:0:0:0:
457,70,57639,2,0,P|419:41|372:42,1,96.2500003147126,0|0,3:2|0:2,0:0:0:0:
223,159,57922,6,0,P|237:112|172:66,1,131.249996423721,0|0,3:2|0:0,0:0:0:0:
184,34,58205,2,0,L|32:52,1,131.249996423721,2|0,0:2|0:0,0:0:0:0:
25,36,58488,1,8,0:2:0:0:
109,130,58630,1,0,0:2:0:0:
6,313,58771,6,0,B|46:294|49:246|49:246|64:269|108:278,1,131.249996423721,2|0,0:2|0:0,0:0:0:0:
106,202,59054,6,0,B|99:258|99:258|88:272|88:272|95:292|95:292|85:373,1,174.999995231629,2|2,3:2|0:2,0:0:0:0:
46,164,59479,1,0,3:2:0:0:
85,370,59620,2,0,P|137:318|197:331,1,131.249996423721,10|0,0:2|0:0,0:0:0:0:
249,371,59903,2,0,L|356:362,1,87.4999976158143,0|0,3:2|0:2,0:0:0:0:
506,221,60187,6,0,B|410:235|410:235|420:222|425:204,1,131.249996423721,0|0,3:2|0:0,0:0:0:0:
354,190,60470,2,0,P|313:217|274:214,1,87.4999976158143,0|0,0:2|0:2,0:0:0:0:
419,56,60753,2,0,P|397:93|402:136,1,87.4999976158143,10|0,0:2|0:2,0:0:0:0:
455,349,61036,6,0,B|419:329|394:334|394:334|372:364|326:364,1,131.249996423721,2|0,0:2|0:0,0:0:0:0:
337,290,61319,6,0,B|276:297|276:297|246:337|246:337|166:348,1,174.999995231629,2|0,3:2|0:2,0:0:0:0:
336,363,61743,1,2,3:2:0:0:
104,285,61885,6,0,B|96:257|78:238|78:238|214:260,1,174.999995231629,10|0,0:2|3:2,0:0:0:0:
21,300,62309,1,2,0:2:0:0:
214,128,62451,6,0,P|233:69|163:37,1,131.249996423721,2|0,3:2|0:0,0:0:0:0:
158,16,62734,2,0,P|126:46|75:45,1,87.4999976158143,2|0,0:2|0:2,0:0:0:0:
17,13,63017,5,8,0:2:0:0:
214,128,63158,1,8,0:2:0:0:
21,300,63300,1,4,0:3:0:0:
11,227,63441,1,4,0:3:0:0:
182,345,63583,6,0,B|279:325|279:325|261:346|257:367,1,144.375000472069,4|0,3:2|0:0,0:0:0:0:
329,378,63866,5,0,0:2:0:0:
182,345,64007,1,0,3:2:0:0:
329,378,64149,2,0,B|357:344|346:302|346:302|367:333|420:337,1,144.375000472069,8|0,0:2|0:0,0:0:0:0:
504,225,64432,6,0,P|462:263|405:259,1,118.124993176461,0|0,3:2|0:0,0:0:0:0:
439,195,64715,5,2,3:2:0:0:
459,377,64856,1,0,0:2:0:0:
405,259,64998,1,0,0:2:0:0:
458,13,65139,5,2,0:2:0:0:
439,195,65280,1,8,0:2:0:0:
493,77,65422,1,0,0:2:0:0:
405,259,65564,5,2,0:2:0:0:
354,12,65705,1,0,0:2:0:0:
439,195,65847,6,0,B|357:195|399:135|283:144,1,144.375000472069,0|0,3:2|0:0,0:0:0:0:
252,185,66130,1,0,0:2:0:0:
432,123,66271,1,0,3:2:0:0:
252,185,66413,6,0,B|227:151|245:111|245:111|221:133|183:128,1,144.375000472069,8|0,0:2|0:0,0:0:0:0:
121,59,66696,6,0,B|214:40|214:40|198:57,1,118.124993176461,0|0,3:2|0:0,0:0:0:0:
183,128,66979,5,2,3:2:0:0:
23,28,67120,1,0,0:2:0:0:
198,56,67262,1,0,0:2:0:0:
149,243,67403,5,2,0:2:0:0:
309,143,67544,1,8,0:2:0:0:
120,162,67686,1,0,0:2:0:0:
322,217,67828,5,2,0:2:0:0:
354,12,67970,1,0,0:2:0:0:
251,227,68111,6,0,P|278:274|366:274,1,144.375000472069,0|0,3:2|0:0,0:0:0:0:
386,255,68394,2,0,L|490:260,1,96.2500003147126,0|0,0:2|3:2,0:0:0:0:
309,143,68677,6,0,B|410:126|410:126|394:146|390:174,1,144.375000472069,8|0,0:2|0:0,0:0:0:0:
465,172,68960,2,0,P|448:114|465:79,1,96.2500003147126,0|0,3:2|0:2,0:0:0:0:
235,112,69243,6,0,B|283:67|250:18|250:18|196:21|195:76,1,174.999995231629,0|0,3:2|0:2,0:0:0:0:
198,55,69668,1,0,0:2:0:0:
361,277,69809,6,0,B|313:322|346:371|346:371|400:368|401:313,1,174.999995231629,8|0,0:2|0:2,0:0:0:0:
398,334,70234,1,0,0:2:0:0:
251,227,70375,6,0,P|249:286|173:318,1,144.375000472069,0|0,3:2|0:0,0:0:0:0:
126,266,70658,1,0,0:2:0:0:
168,204,70800,1,0,3:2:0:0:
178,319,70941,5,8,0:2:0:0:
322,230,71083,2,0,P|292:168|223:160,1,144.375000472069,0|0,0:2|0:0,0:0:0:0:
168,204,71366,1,0,0:2:0:0:
51,298,71507,6,0,P|89:267|148:276,1,87.4999976158143,0|0,3:2|0:0,0:0:0:0:
317,318,71790,2,0,L|323:210,1,87.4999976158143,0|0,0:2|0:2,0:0:0:0:
361,0,72073,5,10,0:2:0:0:
504,48,72215,1,2,0:0:0:0:
454,193,72356,1,2,0:2:0:0:
309,143,72498,1,10,0:2:0:0:
130,330,72639,6,0,B|217:313|183:383|290:360,1,144.375000472069,4|0,3:2|0:0,0:0:0:0:
317,318,72922,1,0,0:2:0:0:
67,368,73064,1,0,3:2:0:0:
249,293,73205,6,0,P|266:236|203:186,1,144.375000472069,8|0,0:2|0:0,0:0:0:0:
113,164,73488,6,0,P|175:155|208:90,1,118.124993176461,0|0,3:2|0:0,0:0:0:0:
101,98,73771,6,0,L|92:245,1,131.249996423721,2|0,3:2|0:0,0:0:0:0:
125,293,74054,2,0,L|176:286,1,43.7499988079071,0|0,0:2|0:0,0:0:0:0:
304,378,74196,6,0,P|300:309|236:297,1,131.249996423721,2|0,0:2|0:0,0:0:0:0:
165,371,74479,2,0,P|186:366|204:353,1,43.7499988079071,0|0,0:2|0:0,0:0:0:0:
321,230,74620,6,0,L|435:238,1,104.999993934632,2|0,0:2|0:2,0:0:0:0:
504,48,74903,6,0,B|447:60|447:60|427:86|427:86|361:99,1,144.375000472069,0|0,3:2|0:0,0:0:0:0:
381,19,75187,1,0,0:2:0:0:
459,166,75328,1,0,3:2:0:0:
381,19,75470,6,0,B|330:28|330:28|296:17|296:17|217:31,1,144.375000472069,8|0,0:2|0:0,0:0:0:0:
160,79,75753,6,0,B|108:49|108:49|180:36,1,118.124993176461,0|0,3:2|0:0,0:0:0:0:
240,26,76036,6,0,P|265:79|196:129,1,131.249996423721,2|0,3:2|0:0,0:0:0:0:
151,154,76319,2,0,P|155:181|150:205,1,43.7499988079071,0|0,0:2|0:0,0:0:0:0:
4,252,76460,6,0,P|23:192|84:177,1,131.249996423721,2|0,0:2|0:0,0:0:0:0:
152,197,76743,2,0,L|209:199,1,43.7499988079071,0|0,0:2|0:0,0:0:0:0:
330,215,76885,6,0,P|344:264|321:310,1,104.999993934632,2|0,0:2|0:2,0:0:0:0:
197,374,77168,6,0,P|188:308|252:291,1,144.375000472069,0|0,3:2|0:0,0:0:0:0:
321,310,77451,2,0,L|435:302,1,96.2500003147126,0|0,0:2|3:2,0:0:0:0:
442,57,77734,6,0,P|450:122|386:140,1,144.375000472069,8|0,0:2|0:0,0:0:0:0:
317,120,78017,2,0,L|220:126,1,96.2500003147126,0|0,3:2|0:2,0:0:0:0:
50,106,78300,6,0,B|109:55|171:77|171:77|146:103|150:146,1,174.999995231629,0|0,3:2|0:2,0:0:0:0:
221,127,78724,1,0,0:2:0:0:
252,291,78866,6,0,B|193:240|131:262|131:262|156:288|152:331,1,174.999995231629,8|0,0:2|0:2,0:0:0:0:
81,312,79290,1,0,0:2:0:0:
283,224,79432,6,0,P|323:282|294:349,1,144.375000472069,0|0,3:2|0:0,0:0:0:0:
227,360,79715,1,0,0:2:0:0:
252,291,79856,1,0,3:2:0:0:
435,239,79998,5,8,0:2:0:0:
450,360,80139,2,0,P|410:303|435:239,1,144.375000472069,0|0,0:2|0:0,0:0:0:0:
498,197,80422,1,0,0:2:0:0:
316,119,80564,5,0,3:2:0:0:
481,43,80705,2,0,B|373:42|442:133|293:118,1,192.500000629425,8|0,0:2|0:2,0:0:0:0:
31,43,81130,2,0,B|139:42|70:133|219:118,1,192.500000629425,8|8,0:2|0:2,0:0:0:0:
256,72,81554,1,0,0:2:0:0:
256,72,81696,1,0,3:2:0:0:
256,72,82262,6,0,L|256:208,1,122.49999666214,0|0,3:2|0:0,0:0:0:0:
256,272,82828,6,0,B|117:255|197:381|40:364,1,244.99999332428,0|0,3:2|0:0,0:0:0:0:
14,247,83394,6,0,B|0:225|3:200|3:200|50:157|105:212|78:288,1,209.999987869263,0|0,3:2|0:0,0:0:0:0:
230,353,83960,5,0,3:2:0:0:
421,293,84102,1,0,0:2:0:0:
457,357,84243,1,0,0:2:0:0:
487,261,84385,1,0,0:2:0:0:
385,139,84526,6,0,P|362:87|394:26,1,118.124993176461,0|0,0:2|0:0,0:0:0:0:
410,19,84809,2,0,P|437:47|434:85,1,78.7499954509737,0|0,3:2|0:2,0:0:0:0:
352,203,85092,6,0,P|409:207|451:168,1,118.124993176461,0|0,3:2|0:0,0:0:0:0:
455,152,85375,1,0,0:2:0:0:
297,156,85517,2,0,P|280:193|291:242,1,78.7499954509737,0|0,0:2|0:2,0:0:0:0:
381,354,85800,2,0,P|418:364|456:356,1,78.7499954509737,0|0,0:2|0:2,0:0:0:0:
421,293,86083,1,0,0:2:0:0:
230,353,86224,5,0,3:2:0:0:
32,293,86366,1,0,0:2:0:0:
48,364,86507,1,0,0:2:0:0:
101,270,86649,1,0,0:2:0:0:
272,172,86790,6,0,P|289:118|238:66,1,118.124993176461,0|0,0:2|0:0,0:0:0:0:
227,77,87073,2,0,L|133:86,1,78.7499954509737,0|0,0:2|0:2,0:0:0:0:
81,201,87356,6,0,P|139:209|174:269,1,118.124993176461,0|0,3:2|0:0,0:0:0:0:
172,282,87639,1,0,3:2:0:0:
19,166,87781,2,0,P|56:157|91:114,1,78.7499954509737,0|0,0:2|0:0,0:0:0:0:
15,20,88064,5,0,0:2:0:0:
83,51,88206,1,0,0:2:0:0:
149,85,88347,1,0,0:2:0:0:
43,300,88488,6,0,B|73:277|78:235|78:235|84:263|111:275,1,118.124993176461,0|0,3:2|0:0,0:0:0:0:
146,215,88771,2,0,P|181:234|243:220,1,78.7499954509737,0|0,0:2|0:0,0:0:0:0:
381,354,89054,2,0,P|397:305|336:272,1,118.124993176461,0|0,0:2|0:0,0:0:0:0:
290,312,89337,2,0,L|200:320,1,78.7499954509737,0|0,3:2|0:0,0:0:0:0:
146,215,89620,5,0,3:2:0:0:
149,366,89762,2,0,B|131:330|131:330|145:274,1,78.7499954509737,0|0,0:2|0:2,0:0:0:0:
212,319,90045,6,0,L|36:334,1,157.499990901947,0|0,0:2|0:2,0:0:0:0:
74,253,90470,1,0,0:2:0:0:
146,215,90611,1,0,0:2:0:0:
260,373,90753,6,0,P|284:320|250:258,1,118.124993176461,0|0,3:2|0:0,0:0:0:0:
231,249,91036,2,0,P|208:280|212:319,1,78.7499954509737,0|0,0:2|0:2,0:0:0:0:
393,179,91319,2,0,P|353:146|284:157,1,118.124993176461,0|0,0:2|0:0,0:0:0:0:
272,172,91602,2,0,P|291:204|329:213,1,78.7499954509737,0|0,0:2|0:2,0:0:0:0:
410,19,91885,6,0,L|268:33,1,118.124993176461,0|0,3:2|0:0,0:0:0:0:
261,35,92168,1,0,3:2:0:0:
93,59,92309,1,0,0:2:0:0:
162,30,92450,1,0,0:0:0:0:
209,89,92592,1,0,0:2:0:0:
89,131,92734,2,0,P|52:118|27:88,1,78.7499954509737,0|0,0:2|0:0,0:0:0:0:
93,59,93017,5,0,3:2:0:0:
29,279,93158,1,0,0:2:0:0:
85,231,93300,1,0,0:2:0:0:
49,350,93441,1,0,0:2:0:0:
260,373,93583,6,0,P|315:361|345:297,1,118.124993176461,0|0,0:2|0:0,0:0:0:0:
368,331,93866,2,0,P|406:334|471:333,1,78.7499954509737,0|0,3:2|0:2,0:0:0:0:
265,223,94149,6,0,L|274:302,1,78.7499954509737,0|0,3:2|0:2,0:0:0:0:
260,373,94432,1,0,0:2:0:0:
348,239,94573,2,0,L|356:160,1,78.7499954509737,0|0,0:2|0:2,0:0:0:0:
342,89,94856,1,0,0:2:0:0:
395,40,94998,1,0,0:2:0:0:
451,167,95139,1,0,0:2:0:0:
348,239,95281,5,0,3:2:0:0:
504,113,95422,1,0,0:2:0:0:
451,167,95564,1,0,0:2:0:0:
478,43,95705,1,0,0:2:0:0:
477,238,95847,6,0,L|463:368,1,118.124993176461,0|0,0:2|0:0,0:0:0:0:
433,362,96130,2,0,P|405:334|367:331,1,78.7499954509737,0|0,0:2|0:2,0:0:0:0:
273,301,96413,6,0,P|245:329|207:332,1,78.7499954509737,0|0,3:2|0:2,0:0:0:0:
139,302,96696,1,0,3:2:0:0:
5,365,96837,2,0,P|33:337|71:334,1,78.7499954509737,0|0,0:2|0:2,0:0:0:0:
139,302,97120,1,0,0:2:0:0:
78,259,97262,1,0,0:0:0:0:
207,332,97403,1,0,0:2:0:0:
11,226,97545,6,0,P|5:184|20:144,1,78.7499954509737,0|0,3:2|0:0,0:0:0:0:
36,58,97828,2,0,P|68:35|107:33,1,78.7499954509737,0|0,0:2|0:0,0:0:0:0:
220,151,98111,6,0,P|185:114|118:103,1,118.124993176461,0|0,0:2|0:0,0:0:0:0:
94,104,98394,1,0,3:2:0:0:
16,150,98536,1,0,0:2:0:0:
142,184,98677,5,0,3:2:0:0:
271,101,98819,2,0,P|290:134|287:177,1,78.7499954509737,0|0,0:2|0:2,0:0:0:0:
234,225,99102,1,0,0:2:0:0:
306,247,99243,1,0,0:0:0:0:
324,320,99385,1,0,0:2:0:0:
207,332,99526,6,0,L|335:320,1,118.124993176461,0|0,0:2|0:0,0:0:0:0:
369,378,99809,6,0,P|396:322|362:260,1,118.124993176461,0|0,3:2|0:0,0:0:0:0:
401,252,100092,2,0,P|437:274|483:271,1,78.7499954509737,0|0,0:2|0:2,0:0:0:0:
466,94,100375,6,0,B|443:125|443:125|455:204,1,118.124993176461,0|0,0:2|0:0,0:0:0:0:
383,179,100658,2,0,L|371:93,1,78.7499954509737,0|0,0:2|0:2,0:0:0:0:
280,38,100941,6,0,P|252:77|175:80,1,118.124993176461,0|0,3:2|0:0,0:0:0:0:
211,18,101224,1,0,3:2:0:0:
231,196,101366,2,0,P|180:175|142:184,1,78.7499954509737,0|0,0:2|0:0,0:0:0:0:
69,316,101649,5,0,0:2:0:0:
109,257,101790,1,0,0:2:0:0:
180,247,101932,1,0,0:2:0:0:
91,384,102073,1,4,3:2:0:0:
236,292,102356,6,0,L|306:297,1,61.2499964618684,0|0,0:2|0:2,0:0:0:0:
369,302,102639,1,0,0:2:0:0:
233,364,102922,1,0,0:2:0:0:
440,307,103205,6,0,P|433:269|417:247,1,61.2499964618684,0|0,0:2|0:0,0:0:0:0:
330,171,103488,2,0,P|367:143|367:88,1,91.8749946928026,0|0,0:2|0:0,0:0:0:0:
361,81,103771,2,0,L|495:88,1,122.499992923737,0|0,0:2|0:2,0:0:0:0:
447,15,104196,1,0,0:0:0:0:
313,29,104337,5,0,0:2:0:0:
292,97,104479,1,0,0:0:0:0:
211,18,104620,2,0,L|150:24,1,61.2499964618684,0|0,0:2|0:0,0:0:0:0:
34,162,104903,5,0,0:2:0:0:
23,94,105045,1,0,0:0:0:0:
89,84,105187,1,0,0:2:0:0:
100,151,105328,1,0,0:0:0:0:
56,312,105470,5,0,0:2:0:0:
44,230,105611,1,0,0:0:0:0:
112,371,105753,2,0,L|172:364,1,61.2499964618684,0|0,0:2|0:0,0:0:0:0:
313,299,106036,5,2,0:2:0:0:
252,257,106177,1,2,0:0:0:0:
184,290,106319,1,2,0:2:0:0:
173,364,106460,1,2,0:0:0:0:
313,299,106602,1,2,0:2:0:0:
448,367,106885,6,0,L|439:299,1,61.2499964618684,0|0,0:2|0:0,0:0:0:0:
401,242,107168,1,0,0:2:0:0:
293,371,107451,1,0,0:2:0:0:
476,240,107734,6,0,L|485:172,1,61.2499964618684,0|0,0:2|0:0,0:0:0:0:
452,93,108017,2,0,P|470:53|449:14,1,91.8749946928026,0|0,0:2|0:0,0:0:0:0:
413,6,108300,2,0,L|344:13,1,61.2499964618684,0|0,0:2|0:0,0:0:0:0:
292,97,108583,2,0,P|256:65|193:74,1,91.8749946928026,0|0,0:2|0:0,0:0:0:0:
148,98,108866,1,0,0:2:0:0:
14,106,109149,6,0,P|45:108|83:90,1,61.2499964618684,0|0,0:2|0:0,0:0:0:0:
141,37,109432,2,0,L|148:107,1,61.2499964618684,0|0,0:2|0:0,0:0:0:0:
186,217,109715,2,0,P|147:172|88:172,1,122.499992923737,0|0,0:2|0:0,0:0:0:0:
57,246,110281,6,0,L|118:238,1,61.2499964618684,0|0,0:2|0:0,0:0:0:0:
172,291,110564,1,0,0:2:0:0:
136,358,110705,1,0,0:2:0:0:
273,300,110847,6,0,L|365:308,1,91.8749946928026,0|0,0:2|0:0,0:0:0:0:
439,307,111130,6,0,P|450:265|396:248,1,104.999993934632,0|0,0:2|0:0,0:0:0:0:
365,308,111696,2,0,L|258:300,1,104.999993934632,0|0,0:2|0:0,0:0:0:0:
228,232,112120,1,0,0:0:0:0:
167,277,112262,1,0,0:2:0:0:
135,357,112403,6,0,P|169:336|164:273,1,104.999993934632,0|0,0:0|0:0,0:0:0:0:
54,362,112828,2,0,L|44:273,1,78.7499954509737,0|0,0:2|0:0,0:0:0:0:
105,236,113111,6,0,B|89:196|102:169|102:169|76:187|44:183,1,118.124993176461,0|0,0:0|0:0,0:0:0:0:
61,110,113394,6,0,P|109:147|175:135,1,122.499992923737,0|0,0:2|0:0,0:0:0:0:
220,90,113819,1,0,0:0:0:0:
177,6,113960,6,0,P|143:18|165:68,1,91.8749946928026,0|0,0:2|0:0,0:0:0:0:
220,90,114243,2,0,L|292:82,1,61.2499964618684,0|0,0:0|0:0,0:0:0:0:
341,38,114526,1,0,0:2:0:0:
455,67,114668,6,0,B|389:78|411:24|327:40,1,122.499992923737,0|0,0:0|0:0,0:0:0:0:
355,109,115092,2,0,P|383:142|371:184,1,91.8749946928026,0|0,0:2|0:0,0:0:0:0:
362,260,115375,6,0,B|460:250|460:250|437:239|426:220,1,131.249996423721,0|0,0:2|0:0,0:0:0:0:
370,185,115658,6,0,L|259:197,1,104.999993934632,0|0,0:2|0:0,0:0:0:0:
179,306,116224,2,0,P|188:257|221:234,1,78.7499954509737,0|0,0:0|0:0,0:0:0:0:
265,196,116507,1,0,0:0:0:0:
492,366,116790,6,0,P|508:342|453:301,1,104.999993934632,0|0,0:0|0:0,0:0:0:0:
433,230,117356,2,0,P|417:254|472:295,1,104.999993934632,0|0,0:0|0:0,0:0:0:0:
507,236,117781,5,0,0:0:0:0:
418,359,117922,1,0,0:0:0:0:
256,192,117993,12,0,119196,0:0:0:0:
232,259,119337,6,0,P|213:253|197:255,6,19.6874988627434,0|0|0|0|0|0|0,3:2|3:2|3:2|3:2|3:2|3:2|3:2,0:0:0:0:
256,327,119620,6,0,B|319:299|313:217|263:195|263:195|220:184|199:146|207:96,1,275.624984078408,0|0,3:2|0:2,0:0:0:0:
277,124,120187,6,0,B|321:108|327:63|327:63|375:45|443:78,1,174.999995231629,6|0,3:2|0:2,0:0:0:0:
254,55,120611,1,0,3:2:0:0:
462,241,120753,2,0,P|459:177|407:138,1,131.249996423721,8|0,0:2|0:0,0:0:0:0:
378,131,121036,2,0,P|371:173|394:209,1,87.4999976158143,0|0,3:2|0:2,0:0:0:0:
492,366,121319,6,0,P|463:320|380:329,1,131.249996423721,0|0,3:2|0:0,0:0:0:0:
339,367,121602,2,0,L|245:359,1,87.4999976158143,2|0,0:2|0:2,0:0:0:0:
103,263,121885,2,0,L|197:255,1,87.4999976158143,10|0,0:2|0:2,0:0:0:0:
378,131,122168,6,0,B|329:139|294:119|294:119|301:142|292:180,1,131.249996423721,2|0,0:2|0:0,0:0:0:0:
226,140,122451,6,0,B|175:126|175:126|137:66|201:-2,1,174.999995231629,2|2,3:2|0:2,0:0:0:0:
263,17,122875,1,0,3:2:0:0:
2,88,123017,2,0,B|84:59|84:59|65:124,1,131.249996423721,10|0,0:2|0:0,0:0:0:0:
59,129,123300,2,0,L|53:237,1,87.4999976158143,0|0,3:2|0:2,0:0:0:0:
170,331,123583,6,0,B|252:360|252:360|238:340|239:297,1,131.249996423721,0|0,3:2|0:0,0:0:0:0:
312,320,123866,2,0,P|372:363|438:337,1,131.249996423721,2|0,0:2|0:0,0:0:0:0:
444,328,124149,1,8,0:2:0:0:
484,170,124290,6,0,B|520:223|496:278|496:278|465:247|416:258,1,174.999995231629,2|0,0:2|0:2,0:0:0:0:
419,139,124715,6,0,B|441:94|496:97|496:97|473:65|486:18,1,174.999995231629,2|2,3:2|0:2,0:0:0:0:
484,170,125139,1,0,3:2:0:0:
380,292,125281,2,0,P|341:249|266:252,1,131.249996423721,10|0,0:2|0:0,0:0:0:0:
239,318,125564,2,0,L|151:325,1,87.4999976158143,0|0,3:2|0:2,0:0:0:0:
6,246,125847,6,0,B|124:259|124:259|87:277|79:315,1,174.999995231629,0|0,3:2|0:2,0:0:0:0:
8,374,126271,1,0,0:2:0:0:
151,325,126413,2,0,L|239:318,1,87.4999976158143,10|0,0:2|0:2,0:0:0:0:
512,337,126696,6,0,P|452:334|414:278,1,131.249996423721,2|0,0:2|0:0,0:0:0:0:
485,270,126979,6,0,B|418:278|418:278|389:311|389:311|314:320,1,174.999995231629,2|0,3:2|0:2,0:0:0:0:
484,170,127403,1,2,3:2:0:0:
339,16,127545,6,0,B|312:72|353:120|353:120|437:92,1,174.999995231629,10|0,0:2|3:2,0:0:0:0:
263,17,127970,1,2,0:2:0:0:
484,170,128111,6,0,B|394:200|394:200|451:216,1,131.249996423721,2|0,3:2|0:0,0:0:0:0:
414,279,128394,2,0,B|362:265|362:265|277:286,1,131.249996423721,2|0,0:2|0:0,0:0:0:0:
239,338,128677,1,8,0:2:0:0:
311,353,128819,1,2,3:0:0:0:
47,384,128960,1,8,0:2:0:0:
215,267,129102,1,8,0:2:0:0:
59,129,129243,6,0,B|167:119|102:203|238:190,1,174.999995231629,6|0,3:2|0:2,0:0:0:0:
78,200,129668,1,0,3:2:0:0:
218,4,129809,2,0,P|180:55|195:118,1,131.249996423721,8|0,0:2|0:0,0:0:0:0:
225,121,130092,2,0,P|263:140|281:201,1,87.4999976158143,0|0,3:2|0:2,0:0:0:0:
316,336,130375,2,0,P|340:291|434:290,1,131.249996423721,0|0,3:2|0:0,0:0:0:0:
475,352,130658,2,0,L|388:345,1,87.4999976158143,2|0,0:2|0:2,0:0:0:0:
215,267,130941,5,10,0:2:0:0:
243,340,131083,1,0,0:2:0:0:
483,259,131224,1,2,0:2:0:0:
487,227,131366,1,0,0:2:0:0:
263,17,131507,6,0,B|319:2|319:2|383:50|328:132,1,192.500000629425,2|2,3:2|0:2,0:0:0:0:
215,267,131932,1,0,3:2:0:0:
453,160,132073,2,0,P|403:111|334:121,1,144.375000472069,10|0,0:2|0:0,0:0:0:0:
281,179,132356,2,0,L|185:170,1,96.2500003147126,0|0,3:2|0:2,0:0:0:0:
24,162,132639,6,0,B|121:139|121:139|109:164|115:196,1,131.249996423721,0|0,3:2|0:0,0:0:0:0:
185,170,132922,2,0,P|188:113|105:71,1,131.249996423721,2|0,0:2|0:0,0:0:0:0:
56,77,133205,1,8,0:2:0:0:
263,17,133347,1,2,0:2:0:0:
113,169,133488,6,0,P|79:212|135:257,1,131.249996423721,0|0,0:0|0:0,0:0:0:0:
161,317,133771,6,0,P|76:316|18:255,1,174.999995231629,2|2,3:2|0:2,0:0:0:0:
185,170,134196,1,0,3:2:0:0:
219,361,134337,6,0,B|235:331|231:308|231:308|266:284|330:320,1,131.249996423721,10|0,0:2|0:0,0:0:0:0:
355,362,134620,2,0,L|455:351,1,87.4999976158143,0|0,3:2|0:2,0:0:0:0:
499,173,134903,6,0,B|409:156|409:156|426:172|431:210,1,131.249996423721,0|0,3:2|0:0,0:0:0:0:
356,204,135187,2,0,P|319:175|277:180,1,87.4999976158143,0|0,0:2|0:2,0:0:0:0:
441,352,135470,2,0,P|417:315|425:273,1,87.4999976158143,10|0,0:2|0:2,0:0:0:0:
509,23,135753,6,0,P|473:75|410:80,1,131.249996423721,2|0,0:2|0:0,0:0:0:0:
350,36,136036,6,0,B|301:93|230:71|230:71|268:-3,1,174.999995231629,2|0,3:2|0:2,0:0:0:0:
438,14,136460,1,2,3:2:0:0:
370,228,136602,6,0,B|396:189|373:141|373:141|411:165|461:136,1,174.999995231629,10|0,0:2|3:2,0:0:0:0:
312,182,137026,1,2,0:2:0:0:
466,354,137168,6,0,P|440:316|347:325,1,131.249996423721,2|0,3:2|0:0,0:0:0:0:
306,365,137451,2,0,L|215:360,1,87.4999976158143,2|0,0:2|0:2,0:0:0:0:
113,169,137734,5,8,0:2:0:0:
399,375,137875,1,8,0:2:0:0:
148,357,138017,1,4,0:3:0:0:
185,297,138158,1,4,0:3:0:0:
97,97,138300,6,0,B|184:91|146:153|250:140,1,144.375000472069,4|0,3:2|0:0,0:0:0:0:
217,70,138583,1,0,0:2:0:0:
113,169,138724,1,0,3:2:0:0:
217,70,138866,6,0,B|316:48|316:48|297:66|296:88,1,144.375000472069,8|0,0:2|0:0,0:0:0:0:
366,100,139149,6,0,B|388:71|386:40|386:40|397:68|430:78,1,118.124993176461,0|0,3:2|0:0,0:0:0:0:
451,10,139432,5,2,3:2:0:0:
318,153,139573,1,0,0:2:0:0:
458,218,139715,1,0,0:2:0:0:
296,85,139856,5,2,0:2:0:0:
112,168,139998,1,8,0:2:0:0:
175,0,140139,1,0,0:2:0:0:
340,222,140281,5,2,0:2:0:0:
273,17,140422,1,0,0:2:0:0:
112,168,140564,6,0,P|180:153|230:202,1,144.375000472069,0|0,3:2|0:0,0:0:0:0:
162,223,140847,1,0,0:2:0:0:
33,63,140988,1,0,3:2:0:0:
162,223,141130,6,0,P|107:290|132:353,1,144.375000472069,8|0,0:2|0:0,0:0:0:0:
199,338,141413,6,0,B|241:305|241:305|178:295,1,118.124993176461,0|0,3:2|0:0,0:0:0:0:
120,339,141696,5,2,3:2:0:0:
310,288,141837,1,0,0:2:0:0:
162,223,141979,1,0,0:2:0:0:
38,338,142120,5,2,0:2:0:0:
230,202,142262,1,8,0:2:0:0:
46,134,142403,1,0,0:2:0:0:
177,294,142545,5,2,0:2:0:0:
217,70,142687,1,0,0:2:0:0:
35,62,142828,6,0,B|113:57|89:120|177:115,1,144.375000472069,0|0,3:2|0:0,0:0:0:0:
217,70,143111,2,0,P|201:29|160:44,1,96.2500003147126,0|0,0:2|3:2,0:0:0:0:
230,202,143394,6,0,B|277:162|335:186|335:186|322:206|321:234,1,144.375000472069,8|0,0:2|0:0,0:0:0:0:
393,229,143677,2,0,P|429:195|477:198,1,96.2500003147126,0|0,3:2|0:2,0:0:0:0:
292,376,143960,6,0,B|269:262|269:262|289:288|337:290,1,174.999995231629,0|0,3:2|0:2,0:0:0:0:
323,215,144385,1,0,0:2:0:0:
511,103,144526,6,0,B|397:126|397:126|423:106|425:58,1,174.999995231629,8|0,0:2|0:2,0:0:0:0:
350,72,144951,1,0,0:2:0:0:
431,278,145092,6,0,P|392:220|323:215,1,144.375000472069,0|0,3:2|0:0,0:0:0:0:
319,288,145375,1,0,0:2:0:0:
473,196,145517,1,0,3:2:0:0:
379,344,145658,5,8,0:2:0:0:
230,202,145800,2,0,P|190:259|121:265,1,144.375000472069,0|0,0:2|0:0,0:0:0:0:
66,221,146083,1,0,0:2:0:0:
100,28,146224,6,0,B|109:95|109:95|142:127|142:127|149:188,1,174.999995231629,0|0,3:2|0:2,0:0:0:0:
55,292,146649,1,0,0:0:0:0:
66,221,146790,5,10,0:2:0:0:
111,337,146932,1,2,3:2:0:0:
300,368,147073,1,10,0:2:0:0:
397,126,147215,1,10,0:2:0:0:
100,28,147356,6,0,B|204:14|204:14|191:33|186:65,1,144.375000472069,4|0,3:2|0:0,0:0:0:0:
263,55,147639,1,0,0:2:0:0:
437,3,147781,1,0,3:2:0:0:
263,55,147922,6,0,P|221:118|150:116,1,144.375000472069,8|0,0:2|0:0,0:0:0:0:
100,28,148205,6,0,P|145:63|157:119,1,118.124993176461,0|0,3:2|0:0,0:0:0:0:
100,225,148488,6,0,B|68:191|68:191|77:108,1,131.249996423721,2|0,3:2|0:0,0:0:0:0:
156,120,148771,2,0,L|152:164,1,43.7499988079071,0|0,0:2|0:0,0:0:0:0:
97,297,148913,6,0,B|147:296|168:248|168:248|174:272|194:288,1,131.249996423721,2|0,0:2|0:0,0:0:0:0:
238,231,149196,2,0,P|257:242|292:243,1,43.7499988079071,0|0,0:2|0:0,0:0:0:0:
300,368,149337,6,0,P|336:330|405:329,1,104.999993934632,2|0,0:2|0:2,0:0:0:0:
473,196,149620,6,0,B|394:199|427:137|335:144,1,144.375000472069,0|0,3:2|0:0,0:0:0:0:
281,174,149903,1,0,0:2:0:0:
466,125,150045,1,0,3:2:0:0:
281,174,150187,6,0,P|328:135|305:46,1,144.375000472069,8|0,0:2|0:0,0:0:0:0:
227,125,150470,6,0,P|210:180|238:231,1,118.124993176461,0|0,3:2|0:0,0:0:0:0:
317,293,150753,6,0,L|180:281,1,131.249996423721,2|0,3:2|0:0,0:0:0:0:
118,314,151036,2,0,L|128:367,1,43.7499988079071,0|0,0:2|0:0,0:0:0:0:
29,240,151177,6,0,B|58:153|58:153|38:165|9:171,1,131.249996423721,2|0,0:2|0:0,0:0:0:0:
17,94,151460,2,0,P|44:78|56:53,1,43.7499988079071,0|0,0:2|0:0,0:0:0:0:
157,15,151602,6,0,P|192:52|243:52,1,104.999993934632,2|0,0:2|0:2,0:0:0:0:
437,97,151885,6,0,P|386:50|317:58,1,144.375000472069,0|0,3:2|0:0,0:0:0:0:
274,119,152168,2,0,L|282:231,1,96.2500003147126,0|0,0:2|3:2,0:0:0:0:
187,355,152451,6,0,B|87:345|87:345|110:330|123:302,1,144.375000472069,8|0,0:2|0:0,0:0:0:0:
53,282,152734,2,0,P|28:245|46:183,1,96.2500003147126,0|0,3:2|0:2,0:0:0:0:
183,273,153017,6,0,B|247:283|247:283|287:329|287:329|359:338,1,192.500000629425,0|0,3:2|0:2,0:0:0:0:
427,343,153441,1,0,0:2:0:0:
444,54,153583,6,0,B|380:64|380:64|340:110|340:110|268:119,1,192.500000629425,8|0,0:2|0:2,0:0:0:0:
200,124,154007,1,0,0:2:0:0:
461,274,154149,6,0,P|436:225|339:228,1,144.375000472069,0|0,3:2|0:0,0:0:0:0:
280,222,154432,1,0,0:2:0:0:
129,118,154573,1,0,3:2:0:0:
300,29,154715,5,8,0:2:0:0:
92,181,154856,2,0,P|161:181|200:124,1,144.375000472069,0|0,0:2|0:0,0:0:0:0:
170,59,155139,1,0,0:2:0:0:
55,242,155281,5,0,3:2:0:0:
195,371,155422,2,0,B|131:359|131:359|100:324|100:324|8:303,1,192.500000629425,8|0,0:2|0:0,0:0:0:0:
200,124,155847,5,8,0:2:0:0:
317,371,155988,1,8,0:2:0:0:
312,124,156130,5,8,0:2:0:0:
195,371,156271,1,8,0:2:0:0:
256,74,156413,5,0,3:2:0:0:
429,248,156979,6,0,P|395:220|353:217,1,87.4999976158143,0|0,3:2|0:0,0:0:0:0:
82,248,157545,6,0,P|116:220|159:217,1,87.4999976158143,0|0,3:2|0:0,0:0:0:0:
256,371,158111,6,0,L|256:270,1,91.8749946928026,0|0,3:2|0:2,0:0:0:0:
316,218,158677,6,0,B|416:204|370:293|489:272,1,174.999995231629,6|0,3:2|0:2,0:0:0:0:
337,289,159102,1,0,3:2:0:0:
506,102,159243,2,0,P|502:166|451:202,1,131.249996423721,10|0,0:2|0:0,0:0:0:0:
471,274,159526,2,0,L|478:362,1,87.4999976158143,0|0,3:2|0:2,0:0:0:0:
441,131,159809,6,0,B|386:95|411:31|411:31|446:24|475:44,1,174.999995231629,2|0,3:2|0:2,0:0:0:0:
451,202,160234,1,2,0:2:0:0:
506,102,160375,1,10,0:2:0:0:
339,25,160517,5,0,0:0:0:0:
506,102,160658,1,0,0:2:0:0:
441,131,160800,1,0,0:0:0:0:
324,305,160941,6,0,B|388:312|388:312|419:354|419:354|506:363,1,174.999995231629,2|0,3:2|0:2,0:0:0:0:
316,218,161366,1,2,3:2:0:0:
183,337,161507,2,0,P|125:337|83:265,1,131.249996423721,10|0,0:2|0:0,0:0:0:0:
154,271,161790,2,0,L|256:263,1,87.4999976158143,0|0,3:2|0:2,0:0:0:0:
108,214,162073,5,2,3:2:0:0:
83,282,162215,1,2,0:2:0:0:
131,145,162356,1,2,0:2:0:0:
106,77,162498,1,0,0:2:0:0:
154,271,162639,1,10,0:2:0:0:
13,264,162781,5,2,0:2:0:0:
201,125,162922,1,0,0:0:0:0:
131,145,163064,1,0,0:2:0:0:
251,18,163205,6,0,L|353:26,1,87.4999976158143,2|0,3:2|0:0,0:0:0:0:
412,31,163488,1,0,0:2:0:0:
507,143,163630,2,0,P|505:100|477:68,1,87.4999976158143,2|0,3:2|0:0,0:0:0:0:
412,31,163913,1,2,0:2:0:0:
406,190,164054,2,0,P|468:206|493:265,1,131.249996423721,2|0,3:2|0:0,0:0:0:0:
455,326,164337,5,2,3:2:0:0:
422,262,164479,1,2,0:2:0:0:
422,120,164620,2,0,P|360:135|335:194,1,131.249996423721,2|0,0:2|0:0,0:0:0:0:
406,190,164903,5,10,0:2:0:0:
394,365,165045,1,2,0:2:0:0:
320,349,165187,2,0,L|232:355,1,87.4999976158143,0|0,0:0|0:2,0:0:0:0:
28,194,165470,6,0,P|75:192|115:223,1,87.4999976158143,2|0,3:2|0:2,0:0:0:0:
154,271,165753,1,2,0:2:0:0:
90,309,165894,1,2,3:2:0:0:
102,77,166036,6,0,P|128:135|190:150,1,131.249996423721,10|0,0:2|0:0,0:0:0:0:
238,95,166319,2,0,P|211:63|174:80,1,87.4999976158143,2|0,3:2|0:2,0:0:0:0:
154,271,166602,6,0,P|163:312|145:360,1,87.4999976158143,0|0,3:2|0:0,0:0:0:0:
25,347,166885,2,0,P|16:306|34:258,1,87.4999976158143,2|0,0:2|0:2,0:0:0:0:
13,60,167168,6,0,B|58:70|110:47|110:47|99:68|100:92,1,131.249996423721,10|0,0:2|0:0,0:0:0:0:
173,80,167451,1,0,0:2:0:0:
173,80,167592,1,0,0:2:0:0:
325,96,167734,6,0,B|278:77|243:95|243:95|230:149|163:154,1,174.999995231629,6|0,3:2|0:2,0:0:0:0:
335,194,168158,1,2,3:2:0:0:
173,80,168300,2,0,P|123:110|126:198,1,131.249996423721,8|0,0:2|0:0,0:0:0:0:
116,251,168583,2,0,L|28:263,1,87.4999976158143,2|0,3:2|0:2,0:0:0:0:
180,151,168866,6,0,P|233:116|212:18,1,174.999995231629,2|2,3:2|0:2,0:0:0:0:
114,177,169290,1,2,0:2:0:0:
173,80,169432,1,10,0:2:0:0:
20,20,169573,5,0,0:0:0:0:
173,80,169715,1,0,0:2:0:0:
212,18,169856,1,0,0:0:0:0:
377,159,169998,6,0,P|329:90|245:86,1,174.999995231629,2|0,3:2|0:2,0:0:0:0:
413,44,170422,1,2,3:2:0:0:
361,229,170564,2,0,P|410:224|447:144,1,131.249996423721,10|0,0:2|0:0,0:0:0:0:
377,159,170847,2,0,L|290:152,1,87.4999976158143,2|0,3:2|0:2,0:0:0:0:
294,264,171130,5,2,3:2:0:0:
361,229,171271,1,2,0:2:0:0:
293,340,171413,1,0,0:2:0:0:
226,305,171554,1,2,0:2:0:0:
359,304,171696,1,8,0:2:0:0:
157,336,171837,5,2,0:2:0:0:
377,159,171979,1,0,0:0:0:0:
294,264,172120,1,0,0:2:0:0:
500,349,172262,6,0,L|491:253,1,87.4999976158143,2|0,3:2|0:2,0:0:0:0:
479,188,172545,1,2,0:2:0:0:
453,41,172687,2,0,P|434:79|443:122,1,87.4999976158143,2|0,3:2|0:0,0:0:0:0:
479,188,172970,1,2,0:2:0:0:
394,317,173111,2,0,P|357:266|294:263,1,131.249996423721,0|0,3:2|0:0,0:0:0:0:
254,324,173394,5,2,3:2:0:0:
325,330,173536,1,2,0:2:0:0:
146,249,173677,2,0,L|157:336,1,87.4999976158143,2|0,0:2|0:0,0:0:0:0:
279,192,173960,5,8,0:2:0:0:
82,302,174102,1,2,0:2:0:0:
10,173,174243,2,0,L|21:260,1,87.4999976158143,0|0,0:0|0:2,0:0:0:0:
157,336,174526,6,0,L|146:249,1,87.4999976158143,2|0,3:2|0:0,0:0:0:0:
105,187,174809,1,2,0:2:0:0:
166,144,174951,1,2,3:2:0:0:
7,44,175092,6,0,P|36:100|99:112,1,131.249996423721,8|0,0:2|0:0,0:0:0:0:
79,43,175375,2,0,L|191:35,1,87.4999976158143,0|0,3:2|0:2,0:0:0:0:
242,31,175658,5,2,3:2:0:0:
468,105,175800,2,0,B|362:103|427:31|303:34,1,174.999995231629,10|0,0:2|0:2,0:0:0:0:
454,32,176224,5,10,0:2:0:0:
468,105,176366,1,0,0:2:0:0:
394,317,176507,5,10,0:2:0:0:
279,192,176649,1,10,0:2:0:0:
454,32,176790,1,4,3:2:0:0:
498,206,177073,6,0,B|388:195|388:195|422:163,1,157.499990901947,0|0,0:2|3:2,0:0:0:0:
468,105,177498,1,0,0:0:0:0:
317,2,177639,2,0,B|345:31|345:31|333:108,1,118.124993176461,0|0,0:2|0:0,0:0:0:0:
329,135,177922,6,0,B|275:127|275:127|248:109|248:109|171:98,1,157.499990901947,0|0,3:2|0:2,0:0:0:0:
178,99,178347,1,0,0:0:0:0:
216,263,178488,2,0,B|145:230|145:230|218:198,1,157.499990901947,0|0,3:2|0:0,0:0:0:0:
294,198,179054,6,0,B|367:230|367:230|296:263,1,157.499990901947,0|0,3:2|0:2,0:0:0:0:
296,262,179479,1,0,0:0:0:0:
192,361,179620,2,0,P|160:336|226:266,1,157.499990901947,0|0,3:2|0:0,0:0:0:0:
320,361,180187,6,0,P|352:336|286:266,1,157.499990901947,0|0,3:2|0:2,0:0:0:0:
296,262,180611,1,0,0:0:0:0:
192,361,180753,5,2,3:2:0:0:
215,262,180894,1,2,0:0:0:0:
297,262,181036,1,2,0:2:0:0:
320,361,181177,1,2,0:2:0:0:
256,197,181319,1,2,3:2:0:0:
402,364,181602,6,0,P|440:302|519:308,1,157.499990901947,0|0,0:2|3:2,0:0:0:0:
474,365,182026,1,0,0:0:0:0:
372,244,182168,2,0,B|393:208|393:208|381:116,1,118.124993176461,0|0,0:2|0:0,0:0:0:0:
392,102,182451,6,0,P|430:164|509:158,1,157.499990901947,0|0,3:2|0:2,0:0:0:0:
464,101,182875,1,0,0:0:0:0:
319,99,183017,2,0,P|321:45|269:8,1,118.124993176461,0|0,3:2|0:0,0:0:0:0:
246,24,183300,2,0,L|155:33,1,78.7499954509737,0|0,0:2|0:0,0:0:0:0:
95,39,183583,1,0,3:2:0:0:
40,158,183866,6,0,B|81:155|100:111|100:111|57:114|27:69,1,157.499990901947,0|0,0:2|3:2,0:0:0:0:
95,39,184290,1,0,0:0:0:0:
194,158,184432,2,0,P|164:118|84:121,1,118.124993176461,0|0,0:2|0:0,0:0:0:0:
40,158,184715,1,0,3:2:0:0:
33,164,184998,6,0,L|44:243,1,78.7499954509737,0|0,0:2|0:0,0:0:0:0:
140,353,185281,2,0,B|87:356|49:315|49:315|77:315|112:278,1,157.499990901947,0|0,3:2|0:2,0:0:0:0:
44,243,185705,1,0,0:0:0:0:
140,353,185847,6,0,L|240:360,1,87.4999976158143,0|0,3:2|0:0,0:0:0:0:
401,311,186413,2,0,B|364:332|364:332|373:232,1,131.249996423721,0|0,3:2|0:0,0:0:0:0:
497,210,186979,6,0,P|454:163|469:94,1,131.249996423721,0|0,3:2|0:0,0:0:0:0:
473,83,187545,2,0,L|386:90,1,87.4999976158143,0|0,3:2|0:0,0:0:0:0:
330,40,187970,1,0,0:0:0:0:
368,164,188111,5,0,3:2:0:0:
386,90,188253,1,0,0:0:0:0:
257,22,188394,1,0,0:0:0:0:
275,96,188536,1,0,0:0:0:0:
194,158,188677,5,0,3:2:0:0:
116,143,188819,1,0,0:0:0:0:
44,243,188960,1,0,0:0:0:0:
119,233,189102,1,0,0:0:0:0:
284,206,189243,5,0,3:2:0:0:
361,226,189385,1,0,0:0:0:0:
404,362,189526,1,0,0:0:0:0:
290,333,189668,1,0,0:0:0:0:
140,353,189809,5,0,3:2:0:0:
186,270,189951,1,0,0:2:0:0:
44,243,190092,1,2,0:2:0:0:
2,0,190234,1,2,0:2:0:0:
73,6,190375,6,0,P|83:38|75:72,1,69.9999980926514,0|0,0:2|0:0,0:0:0:0:
44,136,190941,1,0,0:0:0:0:
73,6,191224,5,0,0:0:0:0:
45,209,191507,2,0,P|87:194|117:135,1,104.999997138977,0|0,0:0|0:0,0:0:0:0:
44,136,192073,1,0,0:0:0:0:
104,239,192356,6,0,P|78:216|45:209,1,69.9999980926514
256,192,192781,12,0,193630,0:0:0:0:
256,362,193771,6,0,L|256:237,1,122.49999666214,0|0,0:0|0:0,0:0:0:0:
222,158,194337,6,0,B|222:76|222:76|256:32|256:32|289:75|289:75|290:174,1,275.624984078408,0|0,0:2|0:2,0:0:0:0:
328,237,194903,6,0,B|281:235|255:279|255:279|230:234|177:235,1,174.999995231629,6|0,3:2|0:2,0:0:0:0:
322,309,195328,1,0,3:2:0:0:
512,288,195470,2,0,P|504:347|421:377,1,131.249996423721,8|0,0:2|0:0,0:0:0:0:
409,317,195753,2,0,L|322:309,1,87.4999976158143,0|0,3:2|0:2,0:0:0:0:
0,288,196036,6,0,P|8:347|91:377,1,131.249996423721,0|0,3:2|0:0,0:0:0:0:
102,317,196319,2,0,L|190:309,1,87.4999976158143,2|0,0:2|0:2,0:0:0:0:
50,121,196602,2,0,L|43:220,1,87.4999976158143,10|0,0:2|0:2,0:0:0:0:
235,367,196885,6,0,P|262:311|233:250,1,131.249996423721,2|0,0:2|0:0,0:0:0:0:
222,158,197168,6,0,B|281:149|281:149|308:109|308:109|386:96,1,174.999995231629,2|2,3:2|0:2,0:0:0:0:
436,142,197592,1,0,3:2:0:0:
402,362,197734,2,0,P|361:318|291:329,1,131.249996423721,10|0,0:2|0:0,0:0:0:0:
235,367,198017,2,0,L|137:360,1,87.4999976158143,0|0,3:2|0:2,0:0:0:0:
42,209,198300,6,0,P|105:217|149:171,1,131.249996423721,0|0,3:2|0:0,0:0:0:0:
215,204,198583,2,0,L|345:183,1,131.249996423721,2|0,0:2|0:0,0:0:0:0:
413,214,198866,1,8,0:2:0:0:
292,27,199007,6,0,B|300:92|300:92|335:117|335:117|346:193,1,174.999995231629,2|0,0:2|0:2,0:0:0:0:
183,273,199432,5,2,3:2:0:0:
209,128,199573,1,0,0:2:0:0:
66,62,199715,2,0,L|82:149,1,87.4999976158143,2|0,0:2|3:2,0:0:0:0:
245,315,199998,2,0,P|255:252|214:203,1,131.249996423721,10|0,0:2|0:0,0:0:0:0:
209,128,200281,2,0,L|224:41,1,87.4999976158143,0|0,3:2|0:2,0:0:0:0:
120,232,200564,5,0,3:2:0:0:
117,308,200706,1,0,0:2:0:0:
183,273,200847,2,0,L|330:280,1,131.249996423721,0|0,0:2|0:0,0:0:0:0:
375,318,201130,2,0,P|385:273|363:225,1,87.4999976158143,10|0,0:2|0:2,0:0:0:0:
380,85,201413,6,0,P|418:136|482:137,1,131.249996423721,2|0,0:2|0:0,0:0:0:0:
452,72,201696,6,0,B|347:87|394:8|276:31,1,174.999995231629,2|0,3:2|0:2,0:0:0:0:
425,2,202120,1,2,3:2:0:0:
462,307,202262,6,0,B|469:242|469:242|463:217|463:217|475:196|475:196|481:137,1,174.999995231629,10|0,0:2|3:2,0:0:0:0:
375,318,202687,1,2,0:2:0:0:
183,273,202828,6,0,P|165:336|91:356,1,131.249996423721,2|0,3:2|0:0,0:0:0:0:
33,306,203111,2,0,B|17:276|17:276|113:287,1,131.249996423721,2|0,0:2|0:0,0:0:0:0:
183,273,203394,2,0,P|211:311|270:315,1,87.4999976158143,8|0,0:2|3:0,0:0:0:0:
390,243,203677,1,8,0:2:0:0:
492,379,203819,1,8,0:2:0:0:
379,84,203960,6,0,B|315:91|315:91|278:71|278:71|210:77,1,174.999995231629,6|0,3:2|0:2,0:0:0:0:
57,15,204385,1,0,3:2:0:0:
63,182,204526,2,0,P|117:177|150:104,1,131.249996423721,8|0,0:2|0:0,0:0:0:0:
210,78,204809,2,0,L|297:71,1,87.4999976158143,0|0,3:2|0:2,0:0:0:0:
497,220,205092,6,0,B|426:220|463:163|363:171,1,131.249996423721,0|0,3:2|0:0,0:0:0:0:
390,243,205375,2,0,L|398:331,1,87.4999976158143,2|0,0:2|0:2,0:0:0:0:
492,379,205658,1,10,0:2:0:0:
497,220,205800,1,0,0:2:0:0:
321,216,205941,1,2,0:2:0:0:
390,243,206083,1,0,0:2:0:0:
205,365,206224,6,0,B|92:376|150:285|21:306,1,192.500000629425,2|2,3:2|0:2,0:0:0:0:
255,252,206649,1,0,3:2:0:0:
33,230,206790,2,0,P|98:205|112:133,1,144.375000472069,10|0,0:2|0:0,0:0:0:0:
44,158,207073,2,0,L|33:55,1,96.2500003147126,0|0,3:2|0:2,0:0:0:0:
154,78,207356,5,0,3:2:0:0:
33,304,207498,1,8,0:2:0:0:
74,378,207639,2,0,L|205:365,1,131.249996423721,2|0,0:2|0:0,0:0:0:0:
275,356,207922,1,8,0:2:0:0:
390,243,208064,1,2,3:2:0:0:
501,384,208205,6,0,P|439:372|409:316,1,131.249996423721,0|0,0:0|0:0,0:0:0:0:
481,315,208488,6,0,L|495:126,1,174.999995231629,2|2,3:2|0:2,0:0:0:0:
349,12,208913,1,0,3:2:0:0:
512,71,209054,2,0,P|457:78|424:159,1,131.249996423721,10|0,0:2|0:0,0:0:0:0:
352,120,209337,2,0,P|316:90|266:95,1,87.4999976158143,0|0,3:2|0:2,0:0:0:0:
156,178,209620,6,0,B|249:157|249:157|227:146|210:123,1,131.249996423721,0|0,3:2|0:0,0:0:0:0:
277,90,209903,2,0,P|314:66|326:18,1,87.4999976158143,0|0,0:2|0:2,0:0:0:0:
92,128,210187,2,0,P|132:141|156:178,1,87.4999976158143,10|0,0:2|0:2,0:0:0:0:
74,378,210470,6,0,P|73:314|125:279,1,131.249996423721,2|0,0:2|0:0,0:0:0:0:
189,312,210753,6,0,P|110:281|90:200,1,174.999995231629,2|0,3:2|0:2,0:0:0:0:
220,135,211177,1,2,3:2:0:0:
351,379,211319,6,0,B|342:324|342:324|309:293|309:293|296:213,1,174.999995231629,10|0,0:2|3:2,0:0:0:0:
501,384,211743,1,2,0:2:0:0:
256,354,211885,5,10,0:2:0:0:
390,243,212026,1,8,0:2:0:0:
361,76,212168,1,10,0:2:0:0:
199,29,212309,1,8,0:2:0:0:
71,126,212451,5,8,0:2:0:0:
287,29,212592,1,10,0:2:0:0:
118,54,212734,1,4,0:3:0:0:
199,29,212875,1,4,0:3:0:0:
361,76,213017,6,0,B|405:80|446:58|446:58|426:87|432:120,1,144.375000472069,4|0,3:2|0:0,0:0:0:0:
503,102,213300,1,0,0:2:0:0:
287,29,213441,1,0,3:2:0:0:
503,102,213583,6,0,P|483:162|404:181,1,144.375000472069,8|0,0:2|0:0,0:0:0:0:
406,256,213866,6,0,P|464:277|483:344,1,118.124993176461,0|0,3:2|0:0,0:0:0:0:
414,328,214149,5,2,3:2:0:0:
430,110,214290,1,0,0:2:0:0:
335,248,214432,1,0,0:2:0:0:
484,325,214573,5,2,0:2:0:0:
295,307,214715,1,8,0:2:0:0:
410,182,214856,1,0,0:2:0:0:
324,372,214998,5,2,0:2:0:0:
176,168,215139,1,0,0:2:0:0:
95,357,215281,6,0,B|177:363|140:301|237:307,1,144.375000472069,0|0,3:2|0:0,0:0:0:0:
295,307,215564,1,0,0:2:0:0:
106,286,215705,1,0,3:2:0:0:
295,307,215847,6,0,P|268:250|185:244,1,144.375000472069,8|0,0:2|0:0,0:0:0:0:
127,208,216130,6,0,B|143:178|176:168|176:168|149:164|128:134,1,118.124993176461,0|0,3:2|0:0,0:0:0:0:
190,97,216413,5,2,3:2:0:0:
106,286,216554,1,0,0:2:0:0:
252,160,216696,1,0,0:2:0:0:
221,18,216837,5,2,0:2:0:0:
15,75,216979,1,8,0:2:0:0:
127,208,217120,1,0,0:2:0:0:
80,5,217262,5,2,0:2:0:0:
33,251,217403,1,0,0:2:0:0:
170,70,217545,6,0,P|186:137|252:160,1,144.375000472069,0|0,3:2|0:0,0:0:0:0:
239,89,217828,2,0,L|335:80,1,96.2500003147126,0|0,0:2|3:2,0:0:0:0:
418,249,218111,6,0,P|461:229|394:198,1,144.375000472069,8|0,0:2|0:0,0:0:0:0:
348,224,218394,2,0,P|346:268|391:320,1,96.2500003147126,0|0,3:2|0:2,0:0:0:0:
463,56,218677,6,0,P|478:137|409:181,1,174.999995231629,0|0,3:2|0:2,0:0:0:0:
414,108,219102,1,0,0:2:0:0:
247,364,219243,6,0,P|262:283|192:239,1,174.999995231629,8|0,0:2|0:2,0:0:0:0:
197,312,219668,1,0,0:2:0:0:
34,142,219809,6,0,B|107:129|88:186|165:180,1,131.249996423721,0|0,3:2|0:0,0:0:0:0:
149,108,220092,1,0,0:2:0:0:
30,23,220234,1,0,3:2:0:0:
51,212,220375,5,8,0:2:0:0:
210,63,220517,2,0,B|283:76|264:19|341:25,1,131.249996423721,0|0,0:2|0:0,0:0:0:0:
402,14,220800,1,0,0:2:0:0:
347,185,220941,5,0,3:2:0:0:
329,108,221083,1,0,0:0:0:0:
418,249,221224,1,0,0:2:0:0:
400,326,221366,1,0,3:2:0:0:
247,364,221507,5,10,0:2:0:0:
51,212,221649,1,10,0:2:0:0:
170,344,221790,1,6,0:3:0:0:
127,236,221932,1,6,0:3:0:0:
7,146,222073,6,0,B|7:45|7:45|46:17,1,144.375000472069,4|0,3:2|0:0,0:0:0:0:
114,21,222356,1,0,0:2:0:0:
51,212,222498,1,0,3:2:0:0:
114,21,222639,6,0,L|268:32,1,144.375000472069,8|0,0:2|0:0,0:0:0:0:
325,80,222922,6,0,B|383:60|383:60|331:38,1,118.124993176461,0|0,3:2|0:0,0:0:0:0:
257,103,223205,6,0,P|289:143|374:133,1,131.249996423721,2|0,3:2|0:0,0:0:0:0:
435,151,223488,2,0,P|430:175|434:199,1,43.7499988079071,0|0,0:2|0:0,0:0:0:0:
509,351,223630,6,0,B|478:310|478:310|400:326,1,131.249996423721,2|0,0:2|0:0,0:0:0:0:
334,359,223913,2,0,L|279:355,1,43.7499988079071,0|0,0:2|0:0,0:0:0:0:
79,378,224054,6,0,P|131:377|170:344,1,104.999993934632,2|0,0:2|0:2,0:0:0:0:
224,183,224337,6,0,P|239:233|339:249,1,144.375000472069,0|0,3:2|0:0,0:0:0:0:
296,190,224620,1,0,0:2:0:0:
170,344,224762,1,0,3:2:0:0:
296,190,224903,6,0,P|275:131|192:117,1,144.375000472069,8|0,0:2|0:0,0:0:0:0:
155,177,225187,6,0,P|186:219|224:183,1,118.124993176461,0|0,3:2|0:0,0:0:0:0:
201,113,225470,6,0,P|137:99|81:148,1,131.249996423721,2|0,3:2|0:0,0:0:0:0:
19,168,225753,2,0,L|11:124,1,43.7499988079071,0|0,0:2|0:0,0:0:0:0:
238,56,225894,6,0,B|220:201|223:183,1,131.249996423721,2|0,0:2|0:0,0:0:0:0:
277,236,226177,2,0,P|297:226|325:226,1,43.7499988079071,0|0,0:2|0:0,0:0:0:0:
424,55,226319,6,0,P|374:64|331:37,1,104.999993934632,2|0,0:2|0:2,0:0:0:0:
154,175,226602,6,0,P|172:247|109:298,1,144.375000472069,0|0,3:2|0:0,0:0:0:0:
157,357,226885,2,0,L|253:363,1,96.2500003147126,0|0,0:2|3:2,0:0:0:0:
472,287,227168,6,0,B|372:265|372:265|382:284|381:312,1,144.375000472069,8|0,0:2|0:0,0:0:0:0:
309,298,227451,2,0,P|295:342|253:363,1,96.2500003147126,0|0,3:2|0:2,0:0:0:0:
322,147,227734,6,0,B|374:140|374:140|402:112|402:112|491:101,1,174.999995231629,0|0,3:2|0:2,0:0:0:0:
501,174,228158,1,0,0:2:0:0:
238,56,228300,6,0,B|186:49|186:49|158:21|158:21|69:10,1,174.999995231629,8|0,0:2|0:2,0:0:0:0:
59,83,228724,1,0,0:2:0:0:
283,0,228866,6,0,P|309:50|258:125,1,144.375000472069,0|0,3:2|0:0,0:0:0:0:
198,123,229149,1,0,0:2:0:0:
426,13,229290,1,0,3:2:0:0:
368,215,229432,5,8,0:2:0:0:
238,56,229573,2,0,L|85:47,1,144.375000472069,0|0,0:2|0:0,0:0:0:0:
22,44,229856,1,0,0:2:0:0:
157,357,229998,5,8,0:2:0:0:
60,224,230139,1,8,0:2:0:0:
216,275,230281,1,8,0:2:0:0:
60,325,230422,1,8,0:2:0:0:
157,193,230564,5,8,0:2:0:0:
312,305,230705,1,8,0:2:0:0:
473,199,230847,1,8,0:2:0:0:
426,13,230988,1,8,0:2:0:0:
350,52,231130,6,0,L|361:162,1,91.8749946928026,6|0,3:2|0:0,0:0:0:0:
368,215,231413,1,2,0:2:0:0:
458,328,231554,2,0,P|429:294|385:288,1,91.8749946928026,2|0,0:2|0:0,0:0:0:0:
312,305,231837,1,2,0:2:0:0:
252,352,231979,2,0,L|191:349,1,61.2499964618684,0|2,0:2|0:2,0:0:0:0:
60,325,232262,6,0,P|45:288|117:268,1,122.499992923737,0|2,0:0|0:2,0:0:0:0:
106,258,232687,1,0,0:2:0:0:
46,125,232828,2,0,P|45:163|63:197,1,61.2499964618684,2|0,0:2|0:2,0:0:0:0:
83,58,233111,2,0,P|111:48|142:50,1,61.2499964618684,2|0,0:2|0:2,0:0:0:0:
157,193,233394,5,2,0:2:0:0:
209,10,233677,1,2,0:2:0:0:
243,81,233819,1,2,0:2:0:0:
142,50,234102,5,2,0:2:0:0:
209,10,234243,1,0,0:2:0:0:
243,81,234385,1,2,0:2:0:0:
357,247,234668,5,2,0:2:0:0:
375,124,234809,1,0,0:2:0:0:
256,157,234951,2,0,L|257:268,1,91.8749946928026,2|0,0:2|0:0,0:0:0:0:
261,329,235234,6,0,B|252:289|252:289|261:240|261:240|252:200|252:200|256:158,1,174.999995231629,0|0,0:2|0:2,0:0:0:0:
142,50,235658,6,0,B|106:84|97:123|109:165|109:165|93:169|60:157|60:157|77:200|74:272|64:312|37:366|37:366|64:321|93:260|97:198,1,566.99999839325,4|0,3:2|0:0,0:0:0:0:
