osu file format v14

[General]
AudioFilename: audio.mp3
AudioLeadIn: 0
PreviewTime: 45646
Countdown: 0
SampleSet: Normal
StackLeniency: 0.7
Mode: 1
LetterboxInBreaks: 0
WidescreenStoryboard: 1

[Editor]
Bookmarks: 9561,27674,45788,63901,82014
DistanceSpacing: 1.5
BeatDivisor: 8
GridSize: 4
TimelineZoom: 2.7

[Metadata]
Title:sh0ut (TV Size)
TitleUnicode:sh0ut (TV Size)
Artist:SawanoHiroyuki[nZk]:Tielle & Gemie
ArtistUnicode:SawanoHiroyuki[nZk]:Tielle & Gemie
Creator:radar
Version:Oni
Source:Re:CREATORS
Tags:heavenly moon ginjani shout Opening 2 Anime Japanese jpop j-pop I Love Egg Motorjam
BeatmapID:3776670
BeatmapSetID:1838944

[Difficulty]
HPDrainRate:5
CircleSize:5
OverallDifficulty:5
ApproachRate:5
SliderMultiplier:2.8
SliderTickRate:1

[Events]
//Background and Video events
0,0,"64524720_p0.jpg",0,90
//Break Periods
//Storyboard Layer 0 (Background)
//Storyboard Layer 1 (Fail)
//Storyboard Layer 2 (Pass)
//Storyboard Layer 3 (Foreground)
//Storyboard Layer 4 (Overlay)
//Storyboard Sound Samples

[TimingPoints]
505,566.037735849057,4,1,0,45,1,0
9420,-100,4,1,0,75,0,0
27533,-100,4,1,0,65,0,0
36589,-100,4,1,0,55,0,0
45788,-86.9565217391304,4,1,0,90,0,1
63335,-86.9565217391304,4,1,0,90,0,0
63476,-86.9565217391304,4,1,0,90,0,0
63618,-86.9565217391304,4,1,0,90,0,0
63901,-86.9565217391304,4,1,0,90,0,1
72391,-86.9565217391304,4,1,0,90,0,1
72533,-86.9565217391304,4,1,0,90,0,1
72674,-86.9565217391304,4,1,0,90,0,1
72816,-86.9565217391304,4,1,0,90,0,1
72957,-86.9565217391304,4,1,0,90,0,1
73240,-86.9565217391304,4,1,0,90,0,1
80882,-86.9565217391304,4,1,0,90,0,1
81023,-86.9565217391304,4,1,0,90,0,1
81165,-86.9565217391304,4,1,0,90,0,1
81306,-86.9565217391304,4,1,0,90,0,1
81448,-86.9565217391304,4,1,0,90,0,1
81589,-86.9565217391304,4,1,0,90,0,1
81731,-86.9565217391304,4,1,0,90,0,1
81872,-86.9565217391304,4,1,0,90,0,1
82014,-86.9565217391304,4,1,0,90,0,0
82438,-88.4955752212389,4,1,0,75,0,0
83005,-90.0900900900901,4,1,0,65,0,0
83571,-91.743119266055,4,1,0,55,0,0
84137,-93.4579439252336,4,1,0,45,0,0
84703,-95.2380952380952,4,1,0,20,0,0
86401,-95.2380952380952,4,1,0,70,0,0

[HitObjects]
107,264,5033,5,0,0:0:0:0:
107,264,5882,1,0,0:0:0:0:
107,264,6165,1,0,0:0:0:0:
107,264,7297,1,0,0:0:0:0:
107,264,8429,1,0,0:0:0:0:
134,242,8712,1,0,0:0:0:0:
102,96,9561,1,12,0:0:0:0:
135,248,9844,1,0,0:0:0:0:
135,248,9986,1,0,0:0:0:0:
142,242,10127,1,8,0:0:0:0:
137,257,10410,1,0,0:0:0:0:
137,257,10693,1,8,0:0:0:0:
139,252,10976,1,0,0:0:0:0:
139,252,11118,1,8,0:0:0:0:
139,252,11401,1,8,0:0:0:0:
139,252,11684,1,8,0:0:0:0:
133,265,11825,1,0,0:0:0:0:
130,261,12108,1,8,0:0:0:0:
130,261,12250,1,0,0:0:0:0:
130,261,12391,1,8,0:0:0:0:
127,249,12674,1,0,0:0:0:0:
127,249,12816,1,8,0:0:0:0:
127,249,12957,1,0,0:0:0:0:
127,247,13240,1,0,0:0:0:0:
127,247,13382,1,8,0:0:0:0:
127,249,13665,1,8,0:0:0:0:
127,249,13948,1,8,0:0:0:0:
127,247,14089,1,0,0:0:0:0:
127,247,14372,1,8,0:0:0:0:
127,249,14655,1,8,0:0:0:0:
132,270,14938,1,0,0:0:0:0:
132,270,15221,1,0,0:0:0:0:
132,270,15363,1,8,0:0:0:0:
132,270,15646,1,8,0:0:0:0:
132,270,16212,1,8,0:0:0:0:
138,264,16354,1,0,0:0:0:0:
138,264,16637,1,8,0:0:0:0:
138,264,16920,1,0,0:0:0:0:
138,264,17203,1,8,0:0:0:0:
137,244,17486,1,0,0:0:0:0:
148,268,17769,1,0,0:0:0:0:
148,257,17910,1,8,0:0:0:0:
148,257,18335,1,8,0:0:0:0:
114,284,18618,1,0,0:0:0:0:
141,270,18901,1,0,0:0:0:0:
141,270,19042,1,8,0:0:0:0:
141,270,19184,1,8,0:0:0:0:
153,271,19467,1,0,0:0:0:0:
153,271,19750,1,8,0:0:0:0:
162,283,20033,1,0,0:0:0:0:
162,283,20174,1,8,0:0:0:0:
162,283,20457,1,8,0:0:0:0:
162,283,20740,1,8,0:0:0:0:
162,283,20882,1,0,0:0:0:0:
162,283,21165,1,8,0:0:0:0:
162,283,21306,1,0,0:0:0:0:
162,283,21448,1,8,0:0:0:0:
162,283,21731,1,0,0:0:0:0:
162,283,21872,1,8,0:0:0:0:
162,283,22014,1,0,0:0:0:0:
147,272,22297,1,0,0:0:0:0:
147,272,22438,1,8,0:0:0:0:
147,272,22721,1,8,0:0:0:0:
147,272,23005,1,8,0:0:0:0:
147,272,23146,1,0,0:0:0:0:
152,271,23429,1,0,0:0:0:0:
152,271,23712,1,8,0:0:0:0:
149,253,23995,1,0,0:0:0:0:
149,253,24278,1,0,0:0:0:0:
149,253,24420,1,8,0:0:0:0:
149,253,24703,1,8,0:0:0:0:
143,250,25269,1,8,0:0:0:0:
144,219,25410,1,0,0:0:0:0:
135,273,25693,1,8,0:0:0:0:
135,273,25976,1,8,0:0:0:0:
135,273,26259,1,0,0:0:0:0:
135,273,26542,1,8,0:0:0:0:
146,251,26967,1,8,0:0:0:0:
121,273,27391,1,0,0:0:0:0:
116,15,27674,1,12,0:0:0:0:
139,272,27957,1,0,0:0:0:0:
139,272,28099,1,8,0:0:0:0:
139,272,28240,1,8,0:0:0:0:
139,272,28523,1,0,0:0:0:0:
139,272,28806,1,0,0:0:0:0:
139,272,29089,1,8,0:0:0:0:
139,272,29231,1,8,0:0:0:0:
139,272,29372,1,0,0:0:0:0:
139,272,29655,1,0,0:0:0:0:
130,281,29938,1,8,0:0:0:0:
130,281,30221,1,8,0:0:0:0:
130,281,30363,1,0,0:0:0:0:
130,281,30505,1,8,0:0:0:0:
130,281,30788,1,8,0:0:0:0:
141,275,31071,1,0,0:0:0:0:
141,275,31354,1,0,0:0:0:0:
141,275,31495,1,8,0:0:0:0:
141,275,31637,1,0,0:0:0:0:
141,275,31920,1,0,0:0:0:0:
142,268,32203,1,8,0:0:0:0:
141,275,32486,1,0,0:0:0:0:
141,275,32627,1,8,0:0:0:0:
142,276,32769,1,8,0:0:0:0:
142,268,33052,1,0,0:0:0:0:
141,275,33335,1,0,0:0:0:0:
141,275,33618,1,8,0:0:0:0:
142,276,33759,1,8,0:0:0:0:
142,268,33901,1,0,0:0:0:0:
142,268,34184,1,0,0:0:0:0:
141,275,34467,1,8,0:0:0:0:
142,276,34750,1,0,0:0:0:0:
142,268,34891,1,8,0:0:0:0:
142,268,35033,1,0,0:0:0:0:
141,275,35316,1,8,0:0:0:0:
141,275,35599,1,0,0:0:0:0:
154,258,35882,1,8,0:0:0:0:
154,258,36023,1,0,0:0:0:0:
154,258,36165,1,8,0:0:0:0:
154,258,36448,1,0,0:0:0:0:
123,282,36731,1,8,0:0:0:0:
123,282,37297,1,0,0:0:0:0:
123,282,37863,1,8,0:0:0:0:
123,282,38429,1,0,0:0:0:0:
123,282,38712,1,8,0:0:0:0:
123,282,38995,1,0,0:0:0:0:
123,282,39561,1,0,0:0:0:0:
123,282,40127,1,8,0:0:0:0:
123,282,40693,1,0,0:0:0:0:
123,282,40976,1,8,0:0:0:0:
123,282,41118,1,8,0:0:0:0:
123,282,41259,1,0,0:0:0:0:
144,257,41825,1,0,0:0:0:0:
144,257,42391,1,0,0:0:0:0:
144,257,42957,1,0,0:0:0:0:
131,247,43240,1,0,0:0:0:0:
144,257,43523,1,0,0:0:0:0:
144,257,44089,1,0,0:0:0:0:
132,247,44372,1,0,0:0:0:0:
88,58,45788,1,12,0:0:0:0:
165,301,46071,1,8,0:0:0:0:
165,301,46212,1,0,0:0:0:0:
107,252,46354,1,8,0:0:0:0:
129,287,46495,1,8,0:0:0:0:
139,274,46637,1,8,0:0:0:0:
129,287,46920,1,0,0:0:0:0:
137,275,47203,1,8,0:0:0:0:
137,275,47486,1,0,0:0:0:0:
139,274,47627,1,8,0:0:0:0:
147,252,47769,1,8,0:0:0:0:
147,254,47910,1,0,0:0:0:0:
147,253,48052,1,8,0:0:0:0:
149,256,48335,1,0,0:0:0:0:
140,255,48618,1,8,0:0:0:0:
140,255,48759,1,8,0:0:0:0:
140,255,48901,1,0,0:0:0:0:
140,255,49042,1,8,0:0:0:0:
140,255,49184,1,0,0:0:0:0:
154,252,49467,1,0,0:0:0:0:
149,247,49608,1,0,0:0:0:0:
154,239,49750,1,8,0:0:0:0:
155,249,49891,1,0,0:0:0:0:
161,234,50174,1,0,0:0:0:0:
161,232,50316,1,8,0:0:0:0:
170,236,50599,1,8,0:0:0:0:
170,236,50882,1,8,0:0:0:0:
148,258,51023,1,0,0:0:0:0:
148,258,51165,1,0,0:0:0:0:
148,258,51306,1,0,0:0:0:0:
148,258,51448,1,0,0:0:0:0:
140,270,51731,1,8,0:0:0:0:
142,268,52014,1,0,0:0:0:0:
142,268,52155,1,8,0:0:0:0:
142,268,52297,1,0,0:0:0:0:
95,271,52580,1,8,0:0:0:0:
90,281,52721,1,8,0:0:0:0:
126,287,52863,1,8,0:0:0:0:
126,287,53005,1,0,0:0:0:0:
126,287,53146,1,8,0:0:0:0:
126,287,53288,1,8,0:0:0:0:
137,296,53429,1,8,0:0:0:0:
137,296,53571,1,0,0:0:0:0:
137,296,53712,1,8,0:0:0:0:
137,296,53854,1,8,0:0:0:0:
144,298,53995,1,0,0:0:0:0:
137,296,54278,1,8,0:0:0:0:
137,296,54420,1,0,0:0:0:0:
137,296,54561,1,8,0:0:0:0:
104,42,54844,1,12,0:0:0:0:
154,281,55127,1,8,0:0:0:0:
154,281,55269,1,8,0:0:0:0:
154,281,55410,1,0,0:0:0:0:
154,281,55552,1,0,0:0:0:0:
154,281,55693,1,8,0:0:0:0:
158,267,55976,1,0,0:0:0:0:
154,274,56259,1,8,0:0:0:0:
159,274,56542,1,0,0:0:0:0:
159,274,56684,1,8,0:0:0:0:
159,274,56825,1,8,0:0:0:0:
159,274,56967,1,0,0:0:0:0:
159,274,57108,1,8,0:0:0:0:
159,274,57391,1,0,0:0:0:0:
159,274,57674,1,8,0:0:0:0:
159,274,57816,1,0,0:0:0:0:
159,274,57957,1,8,0:0:0:0:
163,261,58099,1,8,0:0:0:0:
163,261,58240,1,0,0:0:0:0:
172,271,58523,1,0,0:0:0:0:
172,271,58665,1,0,0:0:0:0:
160,262,58806,1,8,0:0:0:0:
171,258,58948,1,0,0:0:0:0:
168,261,59231,1,8,0:0:0:0:
168,261,59372,1,0,0:0:0:0:
168,261,59655,1,8,0:0:0:0:
168,261,59938,1,0,0:0:0:0:
167,246,60080,1,8,0:0:0:0:
167,246,60221,1,8,0:0:0:0:
171,242,60363,1,8,0:0:0:0:
171,242,60505,1,8,0:0:0:0:
165,253,60788,1,0,0:0:0:0:
162,263,61071,1,8,0:0:0:0:
162,263,61212,1,8,0:0:0:0:
162,263,61354,1,0,0:0:0:0:
174,259,61637,1,8,0:0:0:0:
174,259,61778,1,8,0:0:0:0:
176,252,61920,1,8,0:0:0:0:
176,252,62061,1,0,0:0:0:0:
176,252,62203,1,8,0:0:0:0:
176,252,62344,1,8,0:0:0:0:
176,252,62486,1,8,0:0:0:0:
176,252,62627,1,0,0:0:0:0:
176,244,62769,1,8,0:0:0:0:
176,244,62910,1,8,0:0:0:0:
176,252,63052,1,0,0:0:0:0:
86,46,63335,1,12,0:0:0:0:
86,46,63476,1,12,0:0:0:0:
56,53,63618,1,4,0:0:0:0:
111,137,63759,1,4,0:0:0:0:
114,61,63901,1,12,0:0:0:0:
114,296,64184,1,8,0:0:0:0:
114,296,64325,1,0,0:0:0:0:
123,305,64467,1,8,0:0:0:0:
132,300,64750,1,0,0:0:0:0:
138,294,65033,1,8,0:0:0:0:
138,294,65174,1,8,0:0:0:0:
138,294,65316,1,0,0:0:0:0:
138,294,65457,1,8,0:0:0:0:
138,294,65599,1,8,0:0:0:0:
138,294,65740,1,0,0:0:0:0:
138,294,65882,1,8,0:0:0:0:
138,294,66023,1,8,0:0:0:0:
151,242,66165,1,0,0:0:0:0:
151,275,66448,1,0,0:0:0:0:
151,275,66589,1,8,0:0:0:0:
151,275,66731,1,0,0:0:0:0:
151,275,67014,1,8,0:0:0:0:
151,275,67297,1,0,0:0:0:0:
151,275,67438,1,0,0:0:0:0:
151,275,67580,1,8,0:0:0:0:
151,275,67721,1,0,0:0:0:0:
151,275,67863,1,0,0:0:0:0:
151,275,68005,1,8,0:0:0:0:
151,275,68146,1,0,0:0:0:0:
151,275,68288,1,0,0:0:0:0:
151,275,68429,1,8,0:0:0:0:
148,282,68712,1,8,0:0:0:0:
148,282,68854,1,0,0:0:0:0:
148,282,68995,1,8,0:0:0:0:
148,282,69137,1,8,0:0:0:0:
144,275,69278,1,8,0:0:0:0:
156,262,69561,1,0,0:0:0:0:
156,262,69703,1,8,0:0:0:0:
156,262,69844,1,8,0:0:0:0:
146,261,70127,1,0,0:0:0:0:
134,258,70269,1,0,0:0:0:0:
146,261,70410,1,8,0:0:0:0:
127,257,70693,1,0,0:0:0:0:
127,257,70976,1,8,0:0:0:0:
127,257,71118,1,0,0:0:0:0:
123,250,71401,1,8,0:0:0:0:
123,250,71542,1,8,0:0:0:0:
123,250,71825,1,0,0:0:0:0:
123,250,72108,1,8,0:0:0:0:
108,92,72391,1,12,0:0:0:0:
108,92,72533,1,12,0:0:0:0:
108,92,72674,1,4,0:0:0:0:
108,92,72816,1,4,0:0:0:0:
114,61,72957,1,12,0:0:0:0:
114,296,73240,1,8,0:0:0:0:
114,296,73381,1,0,0:0:0:0:
123,305,73523,1,8,0:0:0:0:
132,300,73806,1,8,0:0:0:0:
138,294,74089,1,0,0:0:0:0:
138,294,74230,1,0,0:0:0:0:
138,294,74372,1,8,0:0:0:0:
138,294,74513,1,0,0:0:0:0:
138,294,74655,1,0,0:0:0:0:
138,294,74796,1,8,0:0:0:0:
138,294,74938,1,0,0:0:0:0:
138,294,75079,1,0,0:0:0:0:
151,242,75221,1,8,0:0:0:0:
151,275,75504,1,0,0:0:0:0:
151,275,75645,1,8,0:0:0:0:
151,275,75787,1,8,0:0:0:0:
151,275,76070,1,0,0:0:0:0:
151,275,76353,1,8,0:0:0:0:
151,275,76494,1,8,0:0:0:0:
151,275,76637,1,0,0:0:0:0:
151,275,76777,1,8,0:0:0:0:
151,275,76919,1,8,0:0:0:0:
151,275,77061,1,0,0:0:0:0:
151,275,77202,1,8,0:0:0:0:
151,275,77344,1,8,0:0:0:0:
151,275,77486,1,0,0:0:0:0:
148,282,77768,1,0,0:0:0:0:
148,282,77910,1,8,0:0:0:0:
148,282,78051,1,0,0:0:0:0:
148,282,78193,1,0,0:0:0:0:
144,275,78334,1,0,0:0:0:0:
156,262,78617,1,8,0:0:0:0:
156,262,78759,1,8,0:0:0:0:
156,262,78900,1,0,0:0:0:0:
146,261,79183,1,8,0:0:0:0:
134,258,79325,1,0,0:0:0:0:
146,261,79466,1,0,0:0:0:0:
127,257,79749,1,8,0:0:0:0:
127,257,80032,1,0,0:0:0:0:
127,257,80174,1,8,0:0:0:0:
123,250,80457,1,0,0:0:0:0:
123,250,80598,1,0,0:0:0:0:
92,100,80882,1,12,0:0:0:0:
92,100,81023,1,12,0:0:0:0:
92,100,81165,1,12,0:0:0:0:
92,100,81306,1,12,0:0:0:0:
92,100,81448,1,12,0:0:0:0:
92,100,81589,1,12,0:0:0:0:
92,100,81731,1,12,0:0:0:0:
92,100,81872,1,12,0:0:0:0:
92,100,82014,1,12,0:0:0:0:
140,256,82580,1,0,0:0:0:0:
140,256,83146,1,0,0:0:0:0:
140,256,83712,1,0,0:0:0:0:
140,256,84278,1,0,0:0:0:0:
256,192,84844,12,0,86401,0:0:0:0:
108,60,86542,5,4,0:0:0:0:
