osu file format v14

[General]
AudioFilename: audio.mp3
AudioLeadIn: 0
PreviewTime: 45646
Countdown: 0
SampleSet: Normal
StackLeniency: 0.7
Mode: 1
LetterboxInBreaks: 0
WidescreenStoryboard: 1

[Editor]
Bookmarks: 9561,27674,45788,63901,82014
DistanceSpacing: 1.5
BeatDivisor: 4
GridSize: 32
TimelineZoom: 2.4

[Metadata]
Title:sh0ut (TV Size)
TitleUnicode:sh0ut (TV Size)
Artist:SawanoHiroyuki[nZk]:Tielle & Gemie
ArtistUnicode:SawanoHiroyuki[nZk]:Tielle & Gemie
Creator:radar
Version:Futsuu
Source:Re:CREATORS
Tags:heavenly moon ginjani shout Opening 2 Anime Japanese jpop j-pop I Love Egg Motorjam
BeatmapID:3776668
BeatmapSetID:1838944

[Difficulty]
HPDrainRate:7
CircleSize:5
OverallDifficulty:3
ApproachRate:5
SliderMultiplier:2.8
SliderTickRate:1

[Events]
//Background and Video events
0,0,"64524720_p0.jpg",0,90
//Break Periods
//Storyboard Layer 0 (Background)
//Storyboard Layer 1 (Fail)
//Storyboard Layer 2 (Pass)
//Storyboard Layer 3 (Foreground)
//Storyboard Layer 4 (Overlay)
//Storyboard Sound Samples

[TimingPoints]
505,566.037735849057,4,1,0,45,1,0
505,-125,4,1,0,45,0,0
9420,-125,4,1,0,75,0,0
27533,-125,4,1,0,65,0,0
36589,-125,4,1,0,55,0,0
45788,-111.111111111111,4,1,0,90,0,1
63335,-111.111111111111,4,1,0,90,0,0
63476,-111.111111111111,4,1,0,90,0,0
63618,-111.111111111111,4,1,0,90,0,0
63901,-111.111111111111,4,1,0,90,0,1
72391,-111.111111111111,4,1,0,90,0,1
72533,-111.111111111111,4,1,0,90,0,1
72674,-111.111111111111,4,1,0,90,0,1
72816,-111.111111111111,4,1,0,90,0,1
72957,-111.111111111111,4,1,0,90,0,1
73240,-111.111111111111,4,1,0,90,0,1
80882,-111.111111111111,4,1,0,90,0,1
81023,-111.111111111111,4,1,0,90,0,1
81165,-111.111111111111,4,1,0,90,0,1
81306,-111.111111111111,4,1,0,90,0,1
81448,-111.111111111111,4,1,0,90,0,1
81589,-111.111111111111,4,1,0,90,0,1
81731,-111.111111111111,4,1,0,90,0,1
81872,-111.111111111111,4,1,0,90,0,1
82014,-111.111111111111,4,1,0,90,0,0
82438,-111.111111111111,4,1,0,75,0,0
83004,-111.111111111111,4,1,0,65,0,0
83570,-111.111111111111,4,1,0,55,0,0
84136,-111.111111111111,4,1,0,45,0,0
84702,-111.111111111111,4,1,0,20,0,0
86401,-111.111111111111,4,1,0,70,0,0

[HitObjects]
91,318,5033,5,0,0:0:0:0:
116,293,5882,1,0,0:0:0:0:
116,293,6165,1,0,0:0:0:0:
116,293,7297,1,0,0:0:0:0:
116,293,8429,1,0,0:0:0:0:
116,293,8712,1,0,0:0:0:0:
97,88,9561,1,12,0:0:0:0:
117,294,9844,1,0,0:0:0:0:
136,291,9986,1,0,0:0:0:0:
117,294,10127,1,8,0:0:0:0:
109,286,10410,1,0,0:0:0:0:
117,294,10693,1,8,0:0:0:0:
117,294,11118,1,8,0:0:0:0:
117,294,11401,1,8,0:0:0:0:
117,294,11684,1,0,0:0:0:0:
133,288,11825,1,8,0:0:0:0:
123,291,12108,1,0,0:0:0:0:
138,281,12250,1,0,0:0:0:0:
123,291,12391,1,8,0:0:0:0:
126,283,12674,1,8,0:0:0:0:
126,283,12957,1,0,0:0:0:0:
138,281,13382,1,8,0:0:0:0:
138,281,13665,1,0,0:0:0:0:
138,281,14089,1,8,0:0:0:0:
138,281,14655,1,8,0:0:0:0:
138,281,15221,1,0,0:0:0:0:
138,281,15363,1,8,0:0:0:0:
138,281,15646,1,0,0:0:0:0:
151,280,16071,1,0,0:0:0:0:
151,280,16212,1,8,0:0:0:0:
157,270,16354,1,0,0:0:0:0:
157,270,16637,1,0,0:0:0:0:
157,270,16920,1,8,0:0:0:0:
157,270,17203,1,8,0:0:0:0:
157,270,17486,1,0,0:0:0:0:
157,270,17769,1,0,0:0:0:0:
157,270,17910,1,8,0:0:0:0:
103,287,18618,1,0,0:0:0:0:
103,287,18901,1,8,0:0:0:0:
103,287,19042,1,8,0:0:0:0:
103,287,19184,1,0,0:0:0:0:
103,287,19467,1,8,0:0:0:0:
103,287,19750,1,0,0:0:0:0:
103,287,20174,1,8,0:0:0:0:
103,287,20457,1,8,0:0:0:0:
103,287,20740,1,0,0:0:0:0:
128,296,20882,1,8,0:0:0:0:
127,291,21165,1,0,0:0:0:0:
127,291,21306,1,0,0:0:0:0:
127,291,21448,1,8,0:0:0:0:
127,291,21731,1,0,0:0:0:0:
127,291,22014,1,8,0:0:0:0:
127,291,22438,1,8,0:0:0:0:
127,291,22721,1,0,0:0:0:0:
126,287,23146,1,8,0:0:0:0:
126,287,23712,1,8,0:0:0:0:
126,287,24278,1,0,0:0:0:0:
126,287,24420,1,0,0:0:0:0:
128,285,24703,1,8,0:0:0:0:
128,285,25127,1,0,0:0:0:0:
128,285,25269,1,0,0:0:0:0:
128,285,25410,1,8,0:0:0:0:
128,285,25693,1,0,0:0:0:0:
128,285,25976,1,8,0:0:0:0:
128,285,26259,1,8,0:0:0:0:
128,285,26542,1,0,0:0:0:0:
128,285,26967,1,8,0:0:0:0:
63,99,27674,1,4,0:0:0:0:
135,280,27957,1,8,0:0:0:0:
96,276,28240,1,8,0:0:0:0:
135,280,28523,1,8,0:0:0:0:
96,276,28806,1,0,0:0:0:0:
96,276,29089,1,0,0:0:0:0:
96,276,29372,1,8,0:0:0:0:
96,276,29938,1,0,0:0:0:0:
93,293,30221,1,0,0:0:0:0:
96,276,30505,1,8,0:0:0:0:
96,276,31071,1,0,0:0:0:0:
96,276,31354,1,0,0:0:0:0:
96,276,31637,1,8,0:0:0:0:
96,276,32203,1,0,0:0:0:0:
126,271,32486,1,8,0:0:0:0:
126,271,32769,1,8,0:0:0:0:
126,271,33052,1,8,0:0:0:0:
96,276,33335,1,0,0:0:0:0:
113,271,33618,1,8,0:0:0:0:
96,276,33901,1,0,0:0:0:0:
96,276,34184,1,8,0:0:0:0:
96,276,34750,1,8,0:0:0:0:
96,276,35033,1,8,0:0:0:0:
96,276,35316,1,0,0:0:0:0:
96,276,35882,1,0,0:0:0:0:
96,276,36165,1,8,0:0:0:0:
96,276,36731,1,0,0:0:0:0:
96,276,37297,1,0,0:0:0:0:
96,276,37863,1,0,0:0:0:0:
96,276,38429,1,0,0:0:0:0:
96,276,38712,1,8,0:0:0:0:
96,276,38995,1,0,0:0:0:0:
96,276,39561,1,0,0:0:0:0:
96,276,40127,1,0,0:0:0:0:
96,276,40693,1,0,0:0:0:0:
96,276,40976,1,8,0:0:0:0:
96,276,41118,1,8,0:0:0:0:
96,276,41259,1,0,0:0:0:0:
95,83,45788,1,12,0:0:0:0:
167,279,46212,1,0,0:0:0:0:
167,279,46354,1,8,0:0:0:0:
167,279,46637,1,0,0:0:0:0:
167,279,47203,1,8,0:0:0:0:
180,278,47486,1,8,0:0:0:0:
180,278,47769,1,0,0:0:0:0:
180,278,47910,1,0,0:0:0:0:
180,278,48052,1,8,0:0:0:0:
180,278,48335,1,8,0:0:0:0:
180,278,48618,1,0,0:0:0:0:
158,280,49184,1,0,0:0:0:0:
161,279,49467,1,8,0:0:0:0:
174,278,49750,1,0,0:0:0:0:
161,279,49891,1,0,0:0:0:0:
161,279,50033,1,8,0:0:0:0:
132,302,50316,1,0,0:0:0:0:
148,298,50599,1,8,0:0:0:0:
148,298,50740,1,0,0:0:0:0:
148,298,50882,1,8,0:0:0:0:
157,268,51165,1,0,0:0:0:0:
154,270,51448,1,8,0:0:0:0:
154,270,52014,1,0,0:0:0:0:
154,270,52297,1,0,0:0:0:0:
154,270,52580,1,8,0:0:0:0:
154,270,53005,1,8,0:0:0:0:
154,270,53146,1,0,0:0:0:0:
154,270,53571,1,0,0:0:0:0:
154,270,53712,1,8,0:0:0:0:
154,270,53995,1,0,0:0:0:0:
154,270,54278,1,8,0:0:0:0:
154,270,54561,1,0,0:0:0:0:
87,84,54844,1,12,0:0:0:0:
139,271,55269,1,0,0:0:0:0:
139,271,55410,1,8,0:0:0:0:
167,272,55693,1,0,0:0:0:0:
167,272,56259,1,8,0:0:0:0:
167,272,56542,1,0,0:0:0:0:
167,272,56825,1,0,0:0:0:0:
167,272,56967,1,0,0:0:0:0:
167,272,57108,1,8,0:0:0:0:
167,272,57391,1,8,0:0:0:0:
167,272,57674,1,0,0:0:0:0:
167,272,58240,1,8,0:0:0:0:
167,272,58523,1,0,0:0:0:0:
167,272,58806,1,8,0:0:0:0:
163,267,58948,1,8,0:0:0:0:
163,267,59089,1,0,0:0:0:0:
156,262,59372,1,8,0:0:0:0:
156,262,59655,1,0,0:0:0:0:
112,250,59797,1,8,0:0:0:0:
156,262,59938,1,8,0:0:0:0:
163,291,60221,1,0,0:0:0:0:
163,291,60505,1,8,0:0:0:0:
152,291,61071,1,8,0:0:0:0:
152,291,61354,1,0,0:0:0:0:
152,291,61637,1,8,0:0:0:0:
152,291,62061,1,0,0:0:0:0:
152,291,62203,1,8,0:0:0:0:
152,291,62627,1,8,0:0:0:0:
152,291,62769,1,0,0:0:0:0:
152,291,63052,1,8,0:0:0:0:
36,262,63335,1,0,0:0:0:0:
86,256,63618,1,0,0:0:0:0:
121,108,63901,1,12,0:0:0:0:
105,304,64467,1,0,0:0:0:0:
123,273,65033,1,8,0:0:0:0:
123,273,65316,1,0,0:0:0:0:
123,273,65457,1,0,0:0:0:0:
123,273,65740,1,0,0:0:0:0:
123,273,65882,1,8,0:0:0:0:
123,288,66165,1,0,0:0:0:0:
133,283,66731,1,8,0:0:0:0:
138,276,67297,1,0,0:0:0:0:
138,276,67580,1,8,0:0:0:0:
138,276,67721,1,8,0:0:0:0:
138,276,68005,1,8,0:0:0:0:
138,276,68146,1,0,0:0:0:0:
138,276,68429,1,8,0:0:0:0:
135,277,68712,1,0,0:0:0:0:
136,274,68995,1,8,0:0:0:0:
125,270,69420,1,8,0:0:0:0:
125,270,69561,1,0,0:0:0:0:
125,270,69844,1,8,0:0:0:0:
142,305,70127,1,0,0:0:0:0:
142,305,70269,1,0,0:0:0:0:
142,305,70410,1,8,0:0:0:0:
135,296,70693,1,0,0:0:0:0:
135,296,70976,1,8,0:0:0:0:
135,296,71118,1,0,0:0:0:0:
135,296,71401,1,0,0:0:0:0:
135,296,71542,1,8,0:0:0:0:
135,296,71825,1,8,0:0:0:0:
83,274,72391,1,8,0:0:0:0:
83,274,72674,1,0,0:0:0:0:
106,74,72957,1,12,0:0:0:0:
96,294,73523,1,0,0:0:0:0:
96,294,74089,1,8,0:0:0:0:
97,298,74372,1,0,0:0:0:0:
101,297,74514,1,0,0:0:0:0:
101,297,74655,1,8,0:0:0:0:
101,297,74797,1,0,0:0:0:0:
101,297,74938,1,8,0:0:0:0:
100,303,75221,1,0,0:0:0:0:
97,296,75788,1,8,0:0:0:0:
93,295,76354,1,0,0:0:0:0:
93,295,76637,1,8,0:0:0:0:
93,295,76778,1,8,0:0:0:0:
93,295,76920,1,0,0:0:0:0:
93,295,77061,1,8,0:0:0:0:
93,295,77203,1,0,0:0:0:0:
83,288,77486,1,8,0:0:0:0:
83,288,77769,1,0,0:0:0:0:
99,300,78052,1,8,0:0:0:0:
112,296,78476,1,0,0:0:0:0:
112,296,78618,1,8,0:0:0:0:
112,296,78901,1,0,0:0:0:0:
112,296,79184,1,8,0:0:0:0:
112,296,79325,1,8,0:0:0:0:
112,296,79467,1,0,0:0:0:0:
123,293,79750,1,8,0:0:0:0:
123,293,80033,1,0,0:0:0:0:
123,293,80174,1,8,0:0:0:0:
123,293,80457,1,8,0:0:0:0:
123,293,80599,1,0,0:0:0:0:
126,272,80882,1,8,0:0:0:0:
126,272,81023,1,8,0:0:0:0:
126,272,81165,1,8,0:0:0:0:
126,272,81448,1,8,0:0:0:0:
126,272,81589,1,8,0:0:0:0:
126,272,81731,1,8,0:0:0:0:
126,272,81872,1,8,0:0:0:0:
118,270,82014,1,8,0:0:0:0:
148,268,82580,1,0,0:0:0:0:
148,268,83146,1,0,0:0:0:0:
148,268,83712,1,0,0:0:0:0:
148,268,84278,1,0,0:0:0:0:
256,192,84844,12,0,86259,0:0:0:0:
119,105,86542,5,4,0:0:0:0:
