osu file format v14

[General]
AudioFilename: audio.mp3
AudioLeadIn: 0
PreviewTime: 45646
Countdown: 0
SampleSet: Soft
StackLeniency: 0.2
Mode: 0
LetterboxInBreaks: 0
WidescreenStoryboard: 1

[Editor]
Bookmarks: 27674,41259,82014
DistanceSpacing: 1.5
BeatDivisor: 4
GridSize: 4
TimelineZoom: 1

[Metadata]
Title:sh0ut (TV Size)
TitleUnicode:sh0ut (TV Size)
Artist:SawanoHiroyuki[nZk]:Tielle & Gemie
ArtistUnicode:SawanoHiroyuki[nZk]:Tielle & Gemie
Creator:Teky
Version:Extra
Source:Re:CREATORS
Tags:re:creators shout Mohab500 Opening 2 Anime Japanese
BeatmapID:2079152
BeatmapSetID:994389

[Difficulty]
HPDrainRate:6
CircleSize:4.5
OverallDifficulty:9
ApproachRate:9.4
SliderMultiplier:2.8
SliderTickRate:1

[Events]
//Background and Video events
0,0,"844593.jpg",0,0
Video,-98,"Sh0ut+Opening.mp4"
//Break Periods
2,41459,45248
//Storyboard Layer 0 (Background)
//Storyboard Layer 1 (Fail)
//Storyboard Layer 2 (Pass)
//Storyboard Layer 3 (Foreground)
//Storyboard Layer 4 (Overlay)
//Storyboard Sound Samples

[TimingPoints]
505,566.037735849057,4,2,1,45,1,0
5033,-125,4,2,1,50,0,0
9561,-153.846153846154,4,2,1,50,0,0
27674,-125,4,2,1,50,0,0
45788,-83.3333333333333,4,2,2,80,0,1
82014,-83.3333333333333,4,2,2,80,0,0

[Colours]
Combo1 : 185,185,240
Combo2 : 106,64,21
Combo3 : 35,35,177
Combo4 : 213,213,43
Combo5 : 213,43,213
SliderBorder : 200,228,2

[HitObjects]
24,93,5033,6,0,B|60:76|60:76|152:84,1,112,2|0,0:0|0:0,0:0:0:0:
182,131,5457,2,0,L|244:123,1,56
333,12,5740,1,0,0:0:0:0:
304,8,5882,1,8,0:0:0:0:
274,6,6023,2,0,L|279:67,1,56,2|8,0:0|0:0,0:0:0:0:
272,313,6448,1,0,0:0:0:0:
364,243,6731,1,0,0:0:0:0:
475,294,7014,1,0,0:0:0:0:
191,331,7297,6,0,L|106:318,1,56,2|0,0:0|0:0,0:0:0:0:
78,275,7580,1,0,0:0:0:0:
21,321,7721,2,0,L|30:384,1,56
103,384,8005,1,0,0:0:0:0:
11,250,8288,2,0,L|19:192,1,56,2|8,0:0|0:0,0:0:0:0:
119,156,8571,1,0,0:0:0:0:
92,170,8712,1,8,0:0:0:0:
144,222,8854,2,0,P|192:237|291:172,1,168
92,54,9561,5,12,0:0:0:0:
96,66,9703,2,0,L|91:116,2,45.4999979171754,0|0|0,0:0|0:0|0:0,0:0:0:0:
163,39,10127,2,0,L|269:52,1,90.9999958343508,0|10,0:0|0:0,0:0:0:0:
315,95,10552,1,0,0:0:0:0:
387,80,10693,1,8,0:0:0:0:
387,80,10976,1,2,0:0:0:0:
456,113,11118,2,0,L|469:188,1,45.4999979171754
406,209,11401,2,0,L|393:284,1,45.4999979171754,0|2,0:0|0:0,0:0:0:0:
347,302,11684,1,0,0:0:0:0:
472,327,11825,5,8,0:0:0:0:
477,313,11967,2,0,L|421:317,2,45.4999979171754
419,382,12391,2,0,L|293:378,1,90.9999958343508,0|2,0:0|0:0,0:0:0:0:
277,325,12816,1,0,0:0:0:0:
213,364,12957,1,8,0:0:0:0:
213,364,13240,1,10,0:0:0:0:
157,312,13382,2,0,L|100:321,1,45.4999979171754,0|0,0:0|0:0,0:0:0:0:
117,235,13665,2,0,L|174:244,1,45.4999979171754,0|2,0:0|0:0,0:0:0:0:
30,333,14089,6,0,L|16:208,2,90.9999958343508,8|0|0,0:0|0:0|0:0,0:0:0:0:
117,235,14938,1,10,0:0:0:0:
43,176,15221,2,0,L|50:113,1,45.4999979171754,8|0,0:0|0:0,0:0:0:0:
48,130,15646,2,0,L|41:67,1,45.4999979171754,0|0,0:0|0:0,0:0:0:0:
124,128,16071,1,0,0:0:0:0:
141,136,16212,1,0,0:0:0:0:
247,141,16354,6,0,L|141:144,2,90.9999958343508,8|0|0,0:0|0:0|0:0,0:0:0:0:
338,85,17203,1,2,0:0:0:0:
426,145,17486,2,0,L|442:251,1,90.9999958343508,8|10,0:0|0:0,0:0:0:0:
374,269,17910,2,0,L|360:358,1,90.9999958343508,0|0,0:0|0:0,0:0:0:0:
287,384,18335,1,2,0:0:0:0:
255,244,18618,5,8,0:0:0:0:
242,231,18759,2,0,L|249:161,2,45.4999979171754,0|0|0,0:0|0:0|0:0,0:0:0:0:
178,272,19184,2,0,L|77:278,1,90.9999958343508,0|10,0:0|0:0,0:0:0:0:
175,161,19750,1,8,0:0:0:0:
175,161,20033,1,2,0:0:0:0:
112,121,20174,2,0,L|106:67,1,45.4999979171754,0|0,0:0|0:0,0:0:0:0:
169,50,20457,2,0,L|175:-4,1,45.4999979171754,0|0,0:0|0:0,0:0:0:0:
230,87,20740,1,0,0:0:0:0:
299,65,20882,5,8,0:0:0:0:
308,50,21023,2,0,L|366:58,2,45.4999979171754,0|0|0,0:0|0:0|0:0,0:0:0:0:
361,126,21448,2,0,L|478:109,1,90.9999958343508,0|2,0:0|0:0,0:0:0:0:
502,162,21872,1,0,0:0:0:0:
450,212,22014,1,8,0:0:0:0:
450,212,22297,1,10,0:0:0:0:
467,282,22438,2,0,L|460:335,1,45.4999979171754,0|0,0:0|0:0,0:0:0:0:
393,383,22721,2,0,L|386:330,1,45.4999979171754,0|2,0:0|0:0,0:0:0:0:
333,221,23146,6,0,L|319:337,2,90.9999958343508,8|0|0,0:0|0:0|0:0,0:0:0:0:
248,260,23995,1,10,0:0:0:0:
177,157,24278,2,0,L|184:215,1,45.4999979171754,8|0,0:0|0:0,0:0:0:0:
182,202,24703,2,0,L|175:260,1,45.4999979171754,0|0,0:0|0:0,0:0:0:0:
79,323,25127,1,0,0:0:0:0:
63,255,25269,1,0,0:0:0:0:
35,156,25410,6,0,L|53:60,2,90.9999958343508,8|0|0,0:0|0:0|0:0,0:0:0:0:
63,255,26259,1,2,0:0:0:0:
151,192,26542,2,0,P|200:183|253:197,1,90.9999958343508,8|10,0:0|0:0,0:0:0:0:
301,231,26967,2,0,P|350:240|403:226,1,90.9999958343508,0|0,0:0|0:0,0:0:0:0:
436,178,27391,1,2,0:0:0:0:
312,47,27674,5,12,0:0:0:0:
312,47,27957,2,0,L|301:169,2,112,0|4|0,0:0|0:3|0:0,0:0:0:0:
333,358,28806,1,4,0:3:0:0:
316,258,29089,1,2,0:0:0:0:
301,158,29372,1,4,0:3:0:0:
232,331,29938,6,0,L|242:219,2,112,4|0|4,0:3|0:0|0:3,0:0:0:0:
160,181,31071,2,0,L|149:69,2,112,4|2|4,0:3|0:0|0:3,0:0:0:0:
104,238,31920,1,2,0:0:0:0:
136,348,32203,5,4,0:3:0:0:
284,278,32486,2,0,P|240:264|163:282,2,112,0|4|2,0:0|0:3|0:0,0:0:0:0:
61,362,33335,1,4,0:3:0:0:
79,286,33618,1,2,0:0:0:0:
44,133,33901,1,4,0:3:0:0:
62,209,34184,1,0,0:0:0:0:
25,60,34467,5,4,0:3:0:0:
138,203,34750,2,0,L|159:74,2,112,0|4|2,0:0|0:3|0:0,0:0:0:0:
155,92,35599,1,4,0:3:0:0:
254,98,35882,1,2,0:0:0:0:
342,148,36165,2,0,L|458:144,1,112,4|2,0:3|0:0,0:0:0:0:
254,98,36731,5,4,0:3:0:0:
342,148,37297,1,4,0:3:0:0:
430,198,37863,1,4,0:3:0:0:
380,343,38429,2,0,L|361:194,1,112,4|2,0:3|0:0,0:0:0:0:
309,359,38995,5,4,0:3:0:0:
206,336,39561,2,0,L|78:329,1,112,4|2,0:3|0:0,0:0:0:0:
58,217,40127,1,4,0:3:0:0:
143,148,40693,2,0,L|146:286,1,112,4|2,0:3|0:0,0:0:0:0:
58,217,41259,1,4,0:0:0:0:
111,134,45788,6,0,L|128:255,1,83.9999974365235,6|0,0:0|0:0,0:0:0:0:
225,115,46071,1,2,0:0:0:0:
162,85,46212,1,8,0:3:0:0:
122,217,46354,2,0,L|139:338,1,83.9999974365235,10|0,0:0|0:0,0:0:0:0:
225,115,46637,2,0,L|213:198,1,83.9999974365235,2|0,0:0|0:0,0:0:0:0:
133,300,46920,1,2,0:0:0:0:
133,300,47203,2,0,P|175:292|235:347,1,83.9999974365235,2|0,0:0|0:0,0:0:0:0:
416,217,47486,2,0,P|348:204|251:292,1,167.999994873047,10|0,0:0|0:0,0:0:0:0:
309,351,47910,1,0,0:0:0:0:
416,217,48052,6,0,L|400:79,1,83.9999974365235,2|0,0:0|0:0,0:0:0:0:
316,51,48335,1,2,0:0:0:0:
306,134,48476,1,8,0:3:0:0:
486,205,48618,2,0,L|470:67,1,83.9999974365235,10|0,0:0|0:0,0:0:0:0:
350,196,48901,2,0,L|340:279,1,83.9999974365235,2|0,0:0|0:0,0:0:0:0:
384,12,49184,1,2,0:0:0:0:
316,51,49325,1,0,0:0:0:0:
249,95,49467,2,0,B|182:73|180:142|52:102,1,167.999994873047,2|8,0:0|0:0,0:0:0:0:
4,20,49891,2,0,L|13:103,1,83.9999974365235,2|0,0:0|0:0,0:0:0:0:
42,173,50174,1,0,0:0:0:0:
5,320,50316,6,0,B|-5:291|-5:291|11:203,1,83.9999974365235,2|0,0:0|0:0,0:0:0:0:
146,324,50599,1,2,0:0:0:0:
76,357,50740,1,8,0:3:0:0:
122,243,50882,2,0,B|177:233|177:233|235:247|235:247|289:238,1,167.999994873047,10|2,0:0|0:0,0:0:0:0:
512,200,51448,2,0,B|457:190|457:190|399:204|399:204|345:195,1,167.999994873047,2|2,0:0|0:0,0:0:0:0:
317,54,51872,1,0,0:0:0:0:
246,70,52014,2,0,L|253:199,1,83.9999974365235,10|0,0:0|0:0,0:0:0:0:
342,279,52297,2,0,L|349:150,1,83.9999974365235,2|0,0:0|0:0,0:0:0:0:
107,264,52580,6,0,B|237:252|237:252|294:213,1,167.999994873047,2|0,0:0|0:0,0:0:0:0:
162,120,53005,1,8,0:3:0:0:
107,264,53146,2,0,L|124:398,1,83.9999974365235,10|0,0:0|0:0,0:0:0:0:
129,190,53429,1,0,0:0:0:0:
214,310,53571,1,2,0:0:0:0:
267,230,53712,2,0,L|176:242,1,83.9999974365235,2|0,0:0|0:0,0:0:0:0:
322,282,53995,2,0,L|504:306,1,167.999994873047,2|8,0:0|0:0,0:0:0:0:
452,149,54420,2,0,B|433:173|433:173|429:242,1,83.9999974365235,2|0,0:0|0:0,0:0:0:0:
512,106,54703,1,0,0:0:0:0:
388,112,54844,6,0,L|250:88,1,83.9999974365235,6|0,0:0|0:0,0:0:0:0:
452,149,55127,1,2,0:0:0:0:
444,66,55269,1,8,0:3:0:0:
305,97,55410,2,0,L|167:73,1,83.9999974365235,10|0,0:0|0:0,0:0:0:0:
396,9,55693,2,0,L|313:23,1,83.9999974365235,2|0,0:0|0:0,0:0:0:0:
222,82,55976,1,2,0:0:0:0:
222,82,56259,2,0,B|234:109|234:109|225:187,1,83.9999974365235,2|0,0:0|0:0,0:0:0:0:
161,373,56542,2,0,B|137:319|137:319|155:163,1,167.999994873047,10|0,0:0|0:0,0:0:0:0:
284,225,56967,1,0,0:0:0:0:
149,210,57108,6,0,L|54:218,1,83.9999974365235,2|0,0:0|0:0,0:0:0:0:
226,338,57391,1,2,0:0:0:0:
213,266,57533,1,8,0:3:0:0:
357,252,57674,2,0,L|463:266,1,83.9999974365235,10|0,0:0|0:0,0:0:0:0:
309,327,57957,2,0,L|203:341,1,83.9999974365235,2|0,0:0|0:0,0:0:0:0:
284,225,58240,1,2,0:0:0:0:
357,252,58382,1,0,0:0:0:0:
390,144,58523,2,0,B|325:117|317:173|213:145,1,167.999994873047,2|8,0:0|0:0,0:0:0:0:
164,25,58948,1,0,0:0:0:0:
174,98,59089,2,0,P|155:148|177:199,1,83.9999974365235,2|0,0:0|0:0,0:0:0:0:
206,300,59372,6,0,P|225:250|203:199,1,83.9999974365235,2|0,0:0|0:0,0:0:0:0:
157,354,59655,1,2,0:0:0:0:
224,370,59797,1,8,0:3:0:0:
388,365,59938,2,0,B|330:358|330:358|288:374|288:374|199:367,1,167.999994873047,10|2,0:0|0:0,0:0:0:0:
0,276,60505,2,0,B|57:269|57:269|99:285|99:285|188:278,1,167.999994873047,2|2,0:0|0:0,0:0:0:0:
454,231,61071,2,0,L|464:376,1,83.9999974365235,10|0,0:0|0:0,0:0:0:0:
383,191,61354,2,0,L|393:46,1,83.9999974365235,2|0,0:0|0:0,0:0:0:0:
270,46,61637,6,0,B|393:31|393:31|495:79,1,167.999994873047,2|0,0:0|0:0,0:0:0:0:
388,107,62061,1,8,0:3:0:0:
208,94,62203,2,0,B|85:109|85:109|-17:61,1,167.999994873047,10|0,0:0|0:0,0:0:0:0:
87,30,62627,1,2,0:0:0:0:
208,94,62769,2,0,P|225:137|187:226,1,83.9999974365235,2|0,0:0|0:0,0:0:0:0:
166,231,63052,2,0,P|149:274|187:363,1,83.9999974365235,2|0,0:0|0:0,0:0:0:0:
322,224,63335,5,10,0:1:0:0:
222,173,63476,1,8,0:1:0:0:
151,310,63618,1,8,0:1:0:0:
262,360,63759,1,8,0:1:0:0:
425,338,63901,5,4,0:0:0:0:
425,338,64184,1,2,0:0:0:0:
415,262,64325,1,8,0:3:0:0:
390,108,64467,2,0,L|380:208,1,83.9999974365235,10|0,0:0|0:0,0:0:0:0:
299,8,64750,2,0,L|309:108,1,83.9999974365235,2|0,0:0|0:0,0:0:0:0:
170,143,65033,2,0,B|200:155|200:155|303:137,1,83.9999974365235,2|0,0:0|0:0,0:0:0:0:
212,76,65316,1,0,0:0:0:0:
93,193,65457,2,0,L|105:313,1,83.9999974365235,2|8,0:0|0:0,0:0:0:0:
215,211,65740,5,0,0:0:0:0:
97,118,65882,2,0,L|-23:130,1,83.9999974365235,2|0,0:0|0:0,0:0:0:0:
215,211,66165,6,0,P|199:250|239:318,1,83.9999974365235,2|0,0:0|0:0,0:0:0:0:
352,259,66448,1,2,0:0:0:0:
269,253,66589,1,8,0:3:0:0:
149,335,66731,2,0,L|38:344,1,83.9999974365235,10|0,0:0|0:0,0:0:0:0:
274,326,67014,2,0,L|385:335,1,83.9999974365235,2|0,0:0|0:0,0:0:0:0:
360,178,67297,2,0,B|346:205|346:205|356:302,1,83.9999974365235,2|0,0:0|0:0,0:0:0:0:
420,298,67580,1,0,0:0:0:0:
512,161,67721,2,0,L|420:147,1,83.9999974365235,2|8,0:0|0:0,0:0:0:0:
351,258,68005,5,0,0:0:0:0:
488,251,68146,2,0,L|501:360,1,83.9999974365235,2|0,0:0|0:0,0:0:0:0:
301,133,68429,6,0,L|306:28,1,83.9999974365235,2|0,0:0|0:0,0:0:0:0:
233,168,68712,1,2,0:0:0:0:
165,137,68854,1,8,0:3:0:0:
4,211,68995,2,0,B|88:184|88:243|173:208,1,167.999994873047,10|2,0:0|0:0,0:0:0:0:
396,242,69561,2,0,B|312:215|312:274|227:239,1,167.999994873047,2|2,0:0|0:0,0:0:0:0:
388,0,70127,2,0,B|382:59|382:59|393:101|393:101|383:199,1,167.999994873047,10|2,0:0|0:0,0:0:0:0:
396,242,70552,1,0,0:0:0:0:
363,384,70693,6,0,L|348:269,1,83.9999974365235,2|0,0:0|0:0,0:0:0:0:
486,201,70976,1,2,0:0:0:0:
463,270,71118,1,8,0:3:0:0:
352,300,71259,1,8,0:0:0:0:
305,246,71401,2,0,L|218:248,1,83.9999974365235,2|0,0:0|0:0,0:0:0:0:
166,289,71684,1,0,0:0:0:0:
0,293,71825,2,0,B|41:279|41:279|200:291,1,167.999994873047,2|0,0:0|0:0,0:0:0:0:
166,289,72391,5,8,0:1:0:0:
151,189,72533,1,8,0:1:0:0:
229,50,72674,1,8,0:1:0:0:
214,150,72816,1,8,0:1:0:0:
180,357,72957,5,4,0:0:0:0:
180,357,73240,1,2,0:0:0:0:
255,347,73382,1,8,0:3:0:0:
357,289,73523,2,0,L|249:274,1,83.9999974365235,10|0,0:0|0:0,0:0:0:0:
413,243,73806,2,0,L|521:228,1,83.9999974365235,2|0,0:0|0:0,0:0:0:0:
329,136,74089,2,0,L|344:244,1,83.9999974365235,2|0,0:0|0:0,0:0:0:0:
357,289,74372,1,0,0:0:0:0:
496,231,74514,2,0,L|511:123,1,83.9999974365235,2|8,0:0|0:0,0:0:0:0:
502,80,74797,5,0,0:0:0:0:
416,182,74938,2,0,L|427:265,1,83.9999974365235,2|0,0:0|0:0,0:0:0:0:
329,136,75221,6,0,L|198:146,1,83.9999974365235,2|0,0:0|0:0,0:0:0:0:
41,92,75505,1,2,0:0:0:0:
124,98,75646,1,8,0:3:0:0:
245,142,75788,2,0,L|260:256,1,83.9999974365235,10|0,0:0|0:0,0:0:0:0:
124,98,76071,2,0,L|139:-16,1,83.9999974365235,2|0,0:0|0:0,0:0:0:0:
181,183,76354,2,0,L|196:297,1,83.9999974365235,2|0,0:0|0:0,0:0:0:0:
163,332,76637,1,0,0:0:0:0:
36,225,76778,2,0,L|142:238,1,83.9999974365235,2|8,0:0|0:0,0:0:0:0:
191,266,77061,5,0,0:0:0:0:
260,163,77203,2,0,L|274:52,1,83.9999974365235,2|0,0:0|0:0,0:0:0:0:
395,271,77486,6,0,L|409:382,1,83.9999974365235,2|0,0:0|0:0,0:0:0:0:
330,229,77769,1,2,0:0:0:0:
339,145,77910,1,8,0:3:0:0:
399,29,78052,2,0,L|410:130,1,83.9999974365235,10|0,0:0|0:0,0:0:0:0:
264,141,78335,2,0,L|253:242,1,83.9999974365235,2|0,0:0|0:0,0:0:0:0:
227,68,78618,2,0,B|151:51|153:113|26:75,1,167.999994873047,2|2,0:0|0:0,0:0:0:0:
76,248,79184,2,0,B|63:184|63:184|72:145|72:145|56:46,1,167.999994873047,10|2,0:0|0:0,0:0:0:0:
144,139,79608,1,0,0:0:0:0:
76,248,79750,6,0,L|215:262,1,83.9999974365235,2|0,0:0|0:0,0:0:0:0:
288,272,80033,1,2,0:0:0:0:
220,301,80174,1,8,0:3:0:0:
352,313,80316,1,8,0:0:0:0:
416,282,80457,2,0,L|512:297,1,83.9999974365235,2|0,0:0|0:0,0:0:0:0:
352,313,80740,1,0,0:0:0:0:
402,208,80882,5,10,0:1:0:0:
388,137,81023,1,8,0:1:0:0:
352,10,81165,1,8,0:1:0:0:
338,81,81306,1,8,0:1:0:0:
470,231,81448,5,8,0:1:0:0:
442,89,81589,1,8,0:1:0:0:
289,127,81731,1,8,0:1:0:0:
317,269,81872,1,8,0:1:0:0:
508,148,82014,5,6,0:0:0:0:
