osu file format v14

[General]
AudioFilename: audio.mp3
AudioLeadIn: 0
PreviewTime: 45646
Countdown: 0
SampleSet: Soft
StackLeniency: 0.3
Mode: 0
LetterboxInBreaks: 0
WidescreenStoryboard: 1

[Editor]
Bookmarks: 27674,41259,82014
DistanceSpacing: 1
BeatDivisor: 8
GridSize: 4
TimelineZoom: 1

[Metadata]
Title:sh0ut (TV Size)
TitleUnicode:sh0ut (TV Size)
Artist:SawanoHiroyuki[nZk]:Tielle & Gemie
ArtistUnicode:SawanoHiroyuki[nZk]:Tielle & Gemie
Creator:Teky
Version:Easy
Source:Re:CREATORS
Tags:re:creators shout Mohab500 Opening 2 Anime Japanese
BeatmapID:2114526
BeatmapSetID:994389

[Difficulty]
HPDrainRate:2
CircleSize:2
OverallDifficulty:2
ApproachRate:3
SliderMultiplier:1.35
SliderTickRate:1

[Events]
//Background and Video events
0,0,"844593.jpg",0,0
Video,-98,"Sh0ut+Opening.mp4"
//Break Periods
2,41459,44348
//Storyboard Layer 0 (Background)
//Storyboard Layer 1 (Fail)
//Storyboard Layer 2 (Pass)
//Storyboard Layer 3 (Foreground)
//Storyboard Layer 4 (Overlay)
//Storyboard Sound Samples

[TimingPoints]
505,566.037735849057,4,2,1,45,1,0
5033,-100,4,2,1,50,0,0
9561,-100,4,2,1,50,0,0
27674,-100,4,2,1,50,0,0
45788,-95.2380952380952,4,2,2,80,0,1
82014,-95.2380952380952,4,2,2,80,0,0

[Colours]
Combo1 : 185,185,240
Combo2 : 106,64,21
Combo3 : 35,35,177
Combo4 : 213,213,43
Combo5 : 213,43,213
SliderBorder : 200,228,2

[HitObjects]
28,88,5033,5,2,0:0:0:0:
143,332,6165,1,8,0:0:0:0:
281,100,7297,1,2,0:0:0:0:
239,366,8429,1,8,0:0:0:0:
56,167,9561,6,0,L|48:16,2,135,12|0|8,0:0|0:0|0:0,0:0:0:0:
138,256,11259,1,0,0:0:0:0:
220,166,11825,2,0,L|228:15,2,135,8|0|8,0:0|0:0|0:0,0:0:0:0:
49,338,14089,6,0,B|96:361|96:361|198:344,1,135,8|0,0:0|0:0,0:0:0:0:
292,307,15221,1,8,0:0:0:0:
413,318,15788,1,0,0:0:0:0:
355,210,16354,2,0,B|305:198|305:198|206:216,1,135,8|0,0:0|0:0,0:0:0:0:
105,245,17486,1,8,0:0:0:0:
31,96,18618,6,0,P|92:117|175:84,2,135,8|0|8,0:0|0:0|0:0,0:0:0:0:
96,0,20316,1,0,0:0:0:0:
215,21,20882,2,0,P|278:2|341:23,2,135,8|0|8,0:0|0:0|0:0,0:0:0:0:
125,272,23146,6,0,L|287:261,1,135,8|0,0:0|0:0,0:0:0:0:
390,228,24278,2,0,P|437:244|509:236,2,101.25,8|0|0,0:0|0:0|0:0,0:0:0:0:
423,169,25410,2,0,L|261:158,1,135,8|0,0:0|0:0,0:0:0:0:
167,149,26542,1,8,0:0:0:0:
50,327,27674,5,12,0:0:0:0:
152,261,28240,1,4,0:3:0:0:
262,311,28806,2,0,P|330:323|407:308,1,135,4|4,0:3|0:3,0:0:0:0:
393,191,29938,2,0,P|325:179|248:194,1,135,4|4,0:3|0:3,0:0:0:0:
154,247,31071,2,0,B|133:210|133:210|149:86,1,135,4|4,0:3|0:3,0:0:0:0:
264,137,32203,5,4,0:3:0:0:
347,48,32769,1,4,0:3:0:0:
454,104,33335,2,0,P|467:170|448:249,1,135,4|4,0:3|0:3,0:0:0:0:
384,335,34467,2,0,P|318:348|239:329,1,135,4|4,0:3|0:3,0:0:0:0:
168,247,35599,1,4,0:3:0:0:
61,305,36165,1,4,0:3:0:0:
68,183,36731,6,0,P|88:102|71:29,1,135,4|4,0:3|0:3,0:0:0:0:
199,26,37863,2,0,P|179:107|196:180,2,135,4|4|4,0:3|0:3|0:3,0:0:0:0:
300,93,39561,1,4,0:3:0:0:
407,35,40127,2,0,P|427:116|410:189,1,135,4|4,0:3|0:3,0:0:0:0:
349,265,41259,5,4,0:0:0:0:
410,79,45788,6,0,B|355:85|355:85|322:69|322:69|272:74,2,141.749995674133,6|10|2,0:0|0:0|0:0,0:0:0:0:
480,193,47486,1,10,0:0:0:0:
408,307,48052,2,0,P|340:286|267:300,1,141.749995674133,2|10,0:0|0:0,0:0:0:0:
226,348,48901,1,2,0:0:0:0:
226,348,49184,2,0,P|163:364|77:328,1,141.749995674133,2|8,0:0|0:0,0:0:0:0:
33,228,50316,6,0,B|61:185|61:185|51:72,2,141.749995674133,2|10|2,0:0|0:0|0:0,0:0:0:0:
156,174,52014,1,10,0:0:0:0:
274,237,52580,2,0,P|346:255|417:237,1,141.749995674133,2|10,0:0|0:0,0:0:0:0:
481,125,53712,1,2,0:0:0:0:
357,70,54278,2,0,L|270:76,1,70.8749978370667,8|0,0:0|0:0,0:0:0:0:
223,49,54844,6,0,L|64:25,2,141.749995674133,6|10|2,0:0|0:0|0:0,0:0:0:0:
129,146,56542,1,10,0:0:0:0:
153,278,57108,2,0,B|225:254|228:304|321:280,1,141.749995674133,2|10,0:0|0:0,0:0:0:0:
337,335,57957,1,2,0:0:0:0:
337,335,58240,2,0,B|388:352|388:352|487:336,1,141.749995674133,2|8,0:0|0:0,0:0:0:0:
498,205,59372,5,2,0:0:0:0:
368,169,59938,2,0,P|298:150|210:170,1,141.749995674133,10|2,0:0|0:0,0:0:0:0:
185,210,60788,1,2,0:0:0:0:
185,210,61071,1,10,0:0:0:0:
66,146,61637,2,0,P|49:227|70:292,2,141.749995674133,2|10|2,0:0|0:0|0:0,0:0:0:0:
199,132,63335,1,10,0:1:0:0:
199,132,63618,1,8,0:1:0:0:
199,132,63901,6,0,P|274:122|354:155,1,141.749995674133,4|10,0:0|0:0,0:0:0:0:
462,187,65033,2,0,P|436:261|468:339,2,141.749995674133,2|8|2,0:0|0:0|0:0,0:0:0:0:
497,129,66448,1,2,0:0:0:0:
497,129,66731,1,10,0:0:0:0:
408,27,67297,2,0,L|252:35,2,141.749995674133,2|8|2,0:0|0:0|0:0,0:0:0:0:
374,157,68995,5,10,0:0:0:0:
417,284,69561,1,2,0:0:0:0:
314,371,70127,1,10,0:0:0:0:
193,309,70693,2,0,L|98:316,1,70.8749978370667,2|2,0:0|0:0,0:0:0:0:
68,273,71259,1,8,0:0:0:0:
129,152,71825,1,2,0:0:0:0:
65,33,72391,1,8,0:1:0:0:
65,33,72674,1,8,0:1:0:0:
65,33,72957,6,0,B|114:45|114:45|222:30,1,141.749995674133,4|10,0:0|0:0,0:0:0:0:
337,14,74089,2,0,P|416:4|498:45,1,141.749995674133,2|8,0:0|0:0,0:0:0:0:
462,159,75221,2,0,L|472:237,1,70.8749978370667,2|2,0:0|0:0,0:0:0:0:
460,296,75788,1,10,0:0:0:0:
327,317,76354,2,0,B|228:330|228:330|169:304,1,141.749995674133,2|8,0:0|0:0,0:0:0:0:
128,288,77203,1,2,0:0:0:0:
66,257,77486,5,2,0:0:0:0:
5,136,78052,1,10,0:0:0:0:
108,50,78618,1,2,0:0:0:0:
225,116,79184,1,10,0:0:0:0:
336,40,79750,2,0,L|432:45,1,70.8749978370667,2|2,0:0|0:0,0:0:0:0:
473,37,80316,1,8,0:0:0:0:
439,168,80882,2,0,L|456:249,1,70.8749978370667,10|8,0:1|0:1,0:0:0:0:
423,297,81448,1,8,0:1:0:0:
423,297,81731,1,8,0:1:0:0:
423,297,82014,5,6,0:0:0:0:
