osu file format v14

[General]
AudioFilename: 02.+sh0ut.mp3
AudioLeadIn: 0
PreviewTime: 63788
Countdown: 0
SampleSet: Soft
StackLeniency: 0.7
Mode: 0
LetterboxInBreaks: 0
WidescreenStoryboard: 0

[Editor]
DistanceSpacing: 1
BeatDivisor: 4
GridSize: 4
TimelineZoom: 1.800001

[Metadata]
Title:sh0ut
TitleUnicode:sh0ut
Artist:SawanoHiroyuki[nZk]:Tielle & Gemie
ArtistUnicode:SawanoHiroyuki[nZk]:Tielle & Gemie
Creator:Gaia
Version:Normal
Source:Re:CREATORS
Tags:milan- ely レクリエイターズ 澤野弘之 sawano hiroyuki shout recreators opening op 2V-ALK altair
BeatmapID:1368790
BeatmapSetID:641854

[Difficulty]
HPDrainRate:3.5
CircleSize:3.5
OverallDifficulty:4
ApproachRate:5.5
SliderMultiplier:2
SliderTickRate:2

[Events]
//Background and Video events
0,0,"alt.jpg",0,0
//Break Periods
2,41134,43205
2,102266,116507
2,158670,175658
2,190568,192639
//Storyboard Layer 0 (Background)
//Storyboard Layer 1 (Fail)
//Storyboard Layer 2 (Pass)
//Storyboard Layer 3 (Foreground)
//Storyboard Sound Samples

[TimingPoints]
180,566.037735849057,4,2,1,40,1,0
4708,-100,4,2,1,60,0,0
9236,-100,4,2,1,50,0,0
22821,-100,4,2,1,40,0,0
23670,-100,4,2,1,50,0,0
24378,-100,4,2,1,40,0,0
29613,-100,4,2,1,50,0,0
30746,-100,4,2,2,50,0,0
31312,-100,4,2,2,40,0,0
31595,-100,4,2,2,30,0,0
31878,-100,4,2,1,50,0,0
36406,-100,4,2,1,40,0,0
38670,-100,4,2,1,30,0,0
40934,-100,4,2,1,20,0,0
44330,-142.857142857143,4,2,1,10,0,0
45463,-100,4,2,1,80,0,0
64708,-100,4,2,1,90,0,0
65840,-100,4,2,1,80,0,0
66972,-100,4,2,1,90,0,0
68104,-100,4,2,1,80,0,0
73764,-100,4,2,1,90,0,0
74896,-100,4,2,1,80,0,0
76029,-100,4,2,1,90,0,0
77161,-100,4,2,1,80,0,0
81689,-100,4,2,1,50,0,0
83953,-100,4,2,1,80,0,0
84095,-100,4,2,1,50,0,0
102066,-100,4,2,1,40,0,0
117632,-100,4,2,1,10,0,0
119613,-100,4,2,1,50,0,0
120180,-100,4,2,1,80,0,0
139425,-100,4,2,1,90,0,0
140557,-100,4,2,1,80,0,0
141689,-100,4,2,1,90,0,0
142821,-100,4,2,1,80,0,0
148481,-100,4,2,1,90,0,0
149613,-100,4,2,1,80,0,0
150746,-100,4,2,1,90,0,0
151878,-100,4,2,1,80,0,0
176783,-100,4,2,1,50,0,0
180180,-100,4,2,2,50,0,0
180746,-100,4,2,2,40,0,0
181029,-100,4,2,2,30,0,0
181312,-100,4,2,1,50,0,0
185840,-100,4,2,1,40,0,0
188104,-100,4,2,2,20,0,0
188387,-100,4,2,2,30,0,0
188670,-100,4,2,2,40,0,0
188953,-100,4,2,2,50,0,0
189236,-100,4,2,2,60,0,0
189519,-100,4,2,2,55,0,0
189802,-100,4,2,2,50,0,0
190085,-100,4,2,2,40,0,0
190368,-100,4,2,1,20,0,0
193764,-142.857142857143,4,2,1,10,0,0
194896,-100,4,2,1,80,0,0
214142,-100,4,2,1,90,0,0
215274,-100,4,2,1,80,0,0
216406,-100,4,2,1,90,0,0
217538,-100,4,2,1,80,0,0
223198,-100,4,2,1,90,0,0
224330,-100,4,2,1,80,0,0
225463,-100,4,2,1,90,0,0
226595,-100,4,2,1,80,0,0
231406,-100,4,2,1,60,0,0
233387,-100,4,2,1,40,0,0
235651,-100,4,2,1,50,0,0

[Colours]
Combo1 : 255,255,255
Combo2 : 128,255,255
Combo3 : 237,243,122
Combo4 : 118,253,111
Combo5 : 255,198,111
Combo6 : 240,0,6

[HitObjects]
136,72,180,6,0,P|145:126|152:192,1,100,2|2,0:0|0:0,0:0:0:0:
120,264,746,2,0,P|72:248|12:248,2,100,2|2|2,0:0|0:0|0:0,0:0:0:0:
188,336,1595,2,0,L|244:328,1,50,2|2,0:0|0:0,0:0:0:0:
280,300,1878,2,0,P|340:312|384:312,1,100,2|2,0:0|0:0,0:0:0:0:
436,232,2444,6,0,P|423:194|416:116,1,100,2|2,0:0|0:0,0:0:0:0:
372,44,3010,2,0,P|421:43|469:30,2,100,2|2|2,0:0|0:0|0:0,0:0:0:0:
280,84,3859,2,0,P|267:119|268:148,1,50,2|2,0:0|0:0,0:0:0:0:
276,180,4142,2,0,P|229:164|156:156,1,100,2|2,0:0|0:0,0:0:0:0:
84,184,4708,6,0,P|48:224|44:288,1,100,2|0,0:0|0:0,0:0:0:0:
52,316,5132,2,0,B|152:332|152:332|188:292,1,150,2|0,0:0|3:2,0:0:0:0:
287,279,5840,2,0,L|275:171,1,100,0|2,3:0|0:0,0:0:0:0:
180,156,6406,2,0,L|192:48,1,100,2|2,0:0|0:0,0:0:0:0:
284,16,6972,6,0,P|336:16|380:56,1,100,2|2,3:2|0:0,0:0:0:0:
396,88,7396,1,2,0:0:0:0:
436,180,7680,2,0,L|416:344,1,150,2|0,0:0|3:0,0:0:0:0:
328,372,8387,1,0,3:0:0:0:
260,296,8670,2,0,B|228:252|168:272|168:272|152:328,1,150,2|2,0:0|0:0,0:0:0:0:
112,344,9236,38,0,L|96:232,1,100,6|2,3:2|0:0,0:0:0:0:
20,180,9802,2,0,P|24:132|56:80,1,100,2|2,0:0|3:2,0:0:0:0:
96,68,10227,1,2,0:0:0:0:
96,68,10368,2,0,L|196:92,1,100,2|2,3:2|0:0,0:0:0:0:
240,104,10793,1,2,0:0:0:0:
328,60,11076,2,0,L|436:48,1,100,2|2,0:0|0:0,0:0:0:0:
472,72,11500,6,0,P|496:108|472:168,1,100,0|2,3:0|0:0,0:0:0:0:
420,240,12066,2,0,P|364:217|308:220,1,100,2|0,0:0|0:0,0:0:0:0:
300,260,12491,1,2,0:0:0:0:
300,260,12632,2,0,P|244:282|188:280,1,100,2|2,3:2|3:2,0:0:0:0:
164,256,13057,2,0,L|148:144,1,100,2|2,0:0|0:0,0:0:0:0:
116,120,13481,2,0,L|128:64,1,50,2|0,0:0|0:0,0:0:0:0:
156,32,13764,5,2,3:2:0:0:
256,20,14047,1,2,0:0:0:0:
308,104,14330,2,0,P|344:132|400:136,1,100,2|0,0:0|3:0,0:0:0:0:
460,216,14896,1,2,3:2:0:0:
460,216,15038,2,0,P|410:219|371:248,1,100,2|2,0:0|0:0,0:0:0:0:
356,296,15463,2,0,L|248:272,1,100,0|2,0:0|0:0,0:0:0:0:
212,292,15887,1,2,0:0:0:0:
212,292,16029,6,0,B|161:305|104:312|104:312,1,100,2|2,3:2|0:0,0:0:0:0:
36,248,16595,2,0,P|8:208|16:136,1,100,2|2,0:0|0:0,0:0:0:0:
32,60,17161,1,0,3:2:0:0:
128,28,17444,1,0,3:2:0:0:
208,88,17727,2,0,P|206:137|178:177,1,100,2|0,0:0|0:0,0:0:0:0:
220,268,18293,38,0,L|336:248,1,100,2|2,3:2|0:0,0:0:0:0:
344,208,18717,1,2,0:0:0:0:
344,208,18859,2,0,P|318:156|324:104,1,100,2|2,0:0|3:2,0:0:0:0:
320,16,19425,2,0,L|424:32,1,100,2|2,3:2|0:0,0:0:0:0:
452,68,19849,1,2,0:0:0:0:
488,160,20132,2,0,P|472:220|468:276,1,100,2|2,0:0|0:0,0:0:0:0:
488,304,20557,6,0,P|428:308|376:332,1,100,0|2,3:0|0:0,0:0:0:0:
304,372,21123,2,0,P|244:368|192:344,1,100,2|2,0:0|0:0,0:0:0:0:
172,316,21547,1,2,0:0:0:0:
172,316,21689,2,0,P|181:263|188:204,1,100,2|2,3:2|3:2,0:0:0:0:
140,200,22113,2,0,P|130:147|124:88,1,100,2|2,0:0|0:0,0:0:0:0:
144,56,22538,2,0,P|180:64|216:68,1,50,0|0,0:0|0:0,0:0:0:0:
244,72,22821,5,0,3:2:0:0:
336,32,23104,1,2,0:0:0:0:
424,80,23387,2,0,P|436:132|412:200,1,100,2|2,0:0|3:2,0:0:0:0:
384,268,23953,2,0,L|312:248,1,50,2|2,3:2|0:0,0:0:0:0:
244,296,24378,2,0,B|204:328|156:328|156:328|112:256,1,150,2|2,0:0|0:0,0:0:0:0:
92,248,24944,1,2,0:0:0:0:
92,248,25085,6,0,L|76:132,1,100,2|0,3:2|0:0,0:0:0:0:
176,136,25651,2,0,L|162:36,1,100,2|2,0:0|0:0,0:0:0:0:
260,12,26217,2,0,P|312:36|320:92,1,100,0|2,3:2|3:2,0:0:0:0:
312,124,26642,1,0,0:0:0:0:
312,124,26783,2,0,P|365:112|420:104,1,100,2|2,0:0|0:0,0:0:0:0:
496,156,27349,37,6,3:2:0:0:
408,336,27915,1,2,3:2:0:0:
256,204,28481,1,2,3:2:0:0:
168,248,28764,1,2,0:0:0:0:
88,188,29047,2,0,P|56:124|76:80,1,100,2|2,3:2|0:0,0:0:0:0:
148,48,29613,6,0,P|196:56|256:60,1,100,2|2,3:2|0:0,0:0:0:0:
348,48,30180,2,0,B|388:8|472:24|472:24|460:68|472:96,1,200,2|2,3:2|3:3,0:0:0:0:
500,188,31029,1,2,0:3:0:0:
408,232,31312,2,0,P|368:208|280:204,1,100,2|2,3:3|0:3,0:0:0:0:
248,272,31878,5,0,3:2:0:0:
420,372,32444,1,2,3:2:0:0:
500,188,33010,1,2,3:2:0:0:
420,128,33293,1,2,0:0:0:0:
464,40,33576,2,0,L|340:24,1,100,2|2,3:2|0:0,0:0:0:0:
272,60,34142,6,0,L|156:80,1,100,2|2,3:2|0:0,0:0:0:0:
96,16,34708,1,0,3:2:0:0:
16,72,34991,2,0,P|0:124|20:184,1,100,2|0,0:0|3:2,0:0:0:0:
100,212,35557,1,2,0:0:0:0:
192,176,35840,2,0,P|208:228|188:288,1,100,2|2,3:2|0:0,0:0:0:0:
152,360,36406,38,0,B|172:292|268:312|268:312|268:344|284:376,1,200,2|2,3:2|3:2,0:0:0:0:
424,228,37538,2,0,B|404:296|308:276|308:276|308:244|292:212,1,200,2|2,3:2|3:2,0:0:0:0:
316,120,38387,6,0,L|428:100,1,100,2|2,0:0|3:2,0:0:0:0:
504,280,39236,1,0,3:0:0:0:
440,360,39519,1,2,0:0:0:0:
344,332,39802,2,0,L|240:320,1,100,2|2,3:2|0:0,0:0:0:0:
196,232,40368,2,0,L|92:244,1,100,0|2,3:2|0:0,0:0:0:0:
56,276,40793,6,0,P|56:316|72:348,1,50,2|4,0:0|0:1,0:0:0:0:
152,228,44330,38,0,B|178:256|172:304|172:304|228:260|268:264|268:264|296:304|272:340,1,244.999992523194
256,360,45463,6,0,L|420:340,1,150,6|2,3:2|3:1,0:0:0:0:
456,332,46029,2,0,P|480:276|456:240,1,100,8|2,0:0|3:2,0:0:0:0:
404,164,46595,1,0,3:0:0:0:
440,68,46878,1,2,0:1:0:0:
356,12,47161,2,0,P|291:21|228:44,1,100,8|2,0:0|0:1,0:0:0:0:
196,112,47727,6,0,P|150:107|80:88,1,100,0|2,3:0|0:1,0:0:0:0:
48,92,48151,1,2,3:2:0:0:
48,92,48293,2,0,L|64:220,1,100,10|2,0:2|3:1,0:0:0:0:
28,284,48859,1,2,3:1:0:0:
108,344,49142,2,0,P|168:332|212:296,1,100,2|8,0:1|0:0,0:0:0:0:
228,268,49566,2,0,L|340:292,1,100,2|2,0:1|0:1,0:0:0:0:
376,300,49991,5,0,3:0:0:0:
440,224,50274,2,0,P|437:194|424:164,1,50,2|2,0:1|3:2,0:0:0:0:
392,144,50557,2,0,L|400:24,1,100,8|2,0:0|3:1,0:0:0:0:
304,12,51123,2,0,L|297:111,1,100,2|0,3:2|0:1,0:0:0:0:
204,148,51689,2,0,P|150:141|100:92,1,100,10|2,0:0|0:1,0:0:0:0:
36,180,52255,6,0,P|72:240|36:312,1,150,2|2,3:3|3:2,0:0:0:0:
28,356,52821,2,0,L|160:340,1,100,10|2,0:0|3:1,0:0:0:0:
192,268,53387,1,2,3:1:0:0:
288,292,53670,2,0,L|404:316,1,100,2|8,3:1|0:0,0:0:0:0:
460,244,54236,2,0,P|468:221|468:192,1,50,2|2,0:1|0:0,0:0:0:0:
436,160,54519,38,0,B|426:67|426:67|352:40,1,150,6|2,3:2|3:1,0:0:0:0:
336,16,55085,2,0,P|279:27|216:40,1,100,8|2,0:0|3:2,0:0:0:0:
164,100,55651,1,0,3:0:0:0:
76,48,55934,1,2,0:1:0:0:
12,124,56217,2,0,P|19:160|32:200,1,50,8|2,0:0|0:0,0:0:0:0:
56,212,56500,1,2,0:1:0:0:
16,304,56783,6,0,B|96:332|96:272|180:316,1,150,0|2,3:0|3:2,0:0:0:0:
208,288,57349,2,0,P|240:324|244:388,1,100,10|2,0:2|3:1,0:0:0:0:
356,384,57915,1,2,3:1:0:0:
408,300,58198,2,0,P|399:245|396:176,1,100,2|8,0:1|0:0,0:0:0:0:
304,160,58764,2,0,P|308:136|328:88,1,50,0|2,3:0|0:1,0:0:0:0:
328,64,59047,6,0,P|280:84|188:96,1,100,0|2,3:0|0:1,0:0:0:0:
188,76,59472,1,2,3:2:0:0:
188,76,59613,2,0,L|80:64,1,100,8|2,0:0|3:1,0:0:0:0:
20,136,60180,2,0,P|8:192|40:240,1,100,2|2,3:2|0:1,0:0:0:0:
20,328,60746,2,0,L|128:308,1,100,10|2,0:0|0:1,0:0:0:0:
152,272,61170,1,2,0:0:0:0:
152,272,61312,6,0,B|248:288|248:288|248:315|264:348,1,150,2|2,3:3|3:2,0:0:0:0:
304,360,61878,2,0,P|308:316|336:264,1,100,10|2,0:0|3:1,0:0:0:0:
360,172,62444,2,0,P|319:190|260:192,1,100,2|2,3:1|3:1,0:0:0:0:
196,120,63010,2,0,L|128:108,1,50,8|8,0:0|0:0,0:0:0:0:
104,84,63293,2,0,L|44:96,1,50,8|8,3:0|3:0,0:0:0:0:
20,128,63576,38,0,B|32:232|32:232|62:244|76:264,1,150,4|2,3:2|3:2,0:0:0:0:
116,272,64142,2,0,L|132:388,1,100,8|4,0:0|3:1,0:0:0:0:
220,328,64708,2,0,L|240:160,1,150,2|2,3:3|3:3,0:0:0:0:
248,128,65274,1,8,0:0:0:0:
336,84,65557,1,2,3:3:0:0:
428,120,65840,6,0,P|448:156|444:232,1,100,0|2,3:1|0:1,0:0:0:0:
420,252,66264,1,2,3:2:0:0:
420,252,66406,2,0,L|320:232,1,100,10|4,0:0|3:1,0:0:0:0:
237,179,66972,2,0,B|132:200|132:200|120:268,1,150,2|2,3:3|3:3,0:0:0:0:
116,292,67538,1,8,0:0:0:0:
200,348,67821,1,2,3:3:0:0:
296,324,68104,6,0,P|368:304|452:348,1,150,0|2,3:1|3:1,0:0:0:0:
477,305,68670,2,0,P|453:269|457:193,1,100,8|2,0:0|3:2,0:0:0:0:
500,128,69236,2,0,L|384:108,1,100,2|2,3:2|0:1,0:0:0:0:
348,28,69802,2,0,L|232:48,1,100,8|2,0:0|0:0,0:0:0:0:
156,4,70368,5,6,3:1:0:0:
72,60,70651,2,0,P|80:99|92:128,1,50,2|2,0:1|3:1,0:0:0:0:
128,132,70934,2,0,L|112:248,1,100,8|2,0:0|3:2,0:0:0:0:
56,312,71500,2,0,L|0:300,2,50,2|0|2,3:2|0:0|0:1,0:0:0:0:
144,356,72066,2,0,P|196:353|260:320,1,100,8|2,0:0|0:2,0:0:0:0:
260,288,72491,1,2,0:1:0:0:
260,288,72632,38,0,L|240:136,1,150,6|2,3:2|3:2,0:0:0:0:
264,96,73198,2,0,P|316:99|380:132,1,100,8|4,0:0|0:1,0:0:0:0:
460,120,73764,2,0,B|460:164|432:192|432:192|472:220|472:276,1,150,2|2,3:0|0:3,0:0:0:0:
468,300,74330,1,8,0:0:0:0:
380,348,74613,1,2,0:3:0:0:
308,280,74896,6,0,B|204:268,1,100,0|2,3:1|0:1,0:0:0:0:
160,260,75321,1,2,3:2:0:0:
160,260,75463,2,0,P|120:300|120:356,1,100,8|0,0:0|3:2,0:0:0:0:
20,308,76029,2,0,B|-4:208|-4:208|16:187|36:156,1,150,2|2,3:0|0:3,0:0:0:0:
32,120,76595,1,8,0:0:0:0:
108,56,76878,1,2,0:3:0:0:
204,88,77161,6,0,L|312:104,1,100,0|2,3:1|0:1,0:0:0:0:
340,72,77585,1,2,3:2:0:0:
340,72,77727,2,0,L|448:48,1,100,8|2,0:0|3:2,0:0:0:0:
504,128,78293,2,0,P|480:176|496:256,1,100,2|2,3:2|0:1,0:0:0:0:
432,308,78859,2,0,P|402:263|325:237,1,100,8|2,0:0|0:1,0:0:0:0:
280,188,79425,5,2,3:2:0:0:
204,256,79708,2,0,L|140:272,1,50,2|2,0:1|3:2,0:0:0:0:
112,248,79991,2,0,P|80:196|100:148,1,100,8|2,0:0|3:1,0:0:0:0:
128,72,80557,1,2,3:2:0:0:
128,72,80698,2,0,B|216:84|216:84|232:52|256:24,1,150,8|8,0:0|0:0,0:0:0:0:
348,28,81406,2,0,P|357:56|360:84,1,50,2|2,0:1|0:1,0:0:0:0:
348,124,81689,21,4,0:1:0:0:
460,208,82255,1,4,0:1:0:0:
384,324,82821,1,4,0:1:0:0:
244,280,83387,1,4,0:1:0:0:
112,332,83953,6,0,P|48:300|76:196,1,150,2|0,3:3|0:0,0:0:0:0:
68,184,84519,2,0,L|56:80,1,100,2|2,0:0|3:2,0:0:0:0:
136,24,85085,2,0,P|196:28|236:84,1,100,2|2,3:2|0:0,0:0:0:0:
244,100,85510,1,2,0:0:0:0:
320,164,85793,2,0,P|354:158|440:140,1,100,2|2,0:0|0:0,0:0:0:0:
440,100,86217,6,0,P|400:156|444:252,1,150,0|2,3:0|0:0,0:0:0:0:
464,252,86783,2,0,P|480:304|452:352,1,100,2|2,0:0|0:0,0:0:0:0:
360,348,87349,2,0,L|240:328,1,100,2|2,3:2|3:2,0:0:0:0:
212,316,87774,2,0,P|160:336|84:344,1,100,2|2,0:0|0:0,0:0:0:0:
72,320,88198,2,0,P|51:292|48:268,1,50,2|2,0:0|0:0,0:0:0:0:
24,232,88481,5,2,3:2:0:0:
76,148,88764,1,2,0:0:0:0:
28,60,89047,2,0,P|71:35|140:32,1,100,2|0,0:0|3:0,0:0:0:0:
196,96,89613,1,2,3:2:0:0:
196,96,89755,2,0,L|176:228,1,100,2|2,0:0|0:0,0:0:0:0:
220,224,90180,2,0,P|268:228|328:192,1,100,0|2,0:0|0:0,0:0:0:0:
340,164,90604,1,2,0:0:0:0:
340,164,90746,6,0,P|332:125|324:44,1,100,2|2,3:2|0:0,0:0:0:0:
424,68,91312,2,0,P|429:117|438:166,1,100,2|2,0:0|0:0,0:0:0:0:
440,268,91878,1,2,3:2:0:0:
360,328,92161,1,2,3:2:0:0:
260,320,92444,2,0,P|217:307|136:304,1,100,2|0,0:0|0:0,0:0:0:0:
144,256,92868,1,2,0:0:0:0:
144,256,93010,38,0,L|20:272,1,100,2|2,3:2|0:0,0:0:0:0:
12,232,93434,1,2,0:0:0:0:
12,232,93576,2,0,P|-8:164|32:116,1,100,2|2,0:0|3:2,0:0:0:0:
64,64,94142,2,0,L|196:80,1,100,2|2,3:2|0:0,0:0:0:0:
200,108,94566,1,2,0:0:0:0:
284,56,94849,2,0,L|412:36,1,100,2|2,0:0|0:0,0:0:0:0:
428,60,95274,6,0,P|460:104|440:160,1,100,0|2,3:0|0:0,0:0:0:0:
424,188,95698,1,2,0:0:0:0:
424,188,95840,2,0,P|433:242|436:308,1,100,2|2,0:0|0:0,0:0:0:0:
352,344,96406,2,0,P|313:328|216:324,1,100,2|2,3:2|3:2,0:0:0:0:
208,336,96830,2,0,P|169:352|72:356,1,100,2|2,0:0|0:0,0:0:0:0:
72,332,97255,2,0,P|61:309|56:268,1,50,0|0,0:0|0:0,0:0:0:0:
32,240,97538,5,0,3:2:0:0:
20,140,97821,1,2,0:0:0:0:
108,96,98104,2,0,L|236:120,1,100,2|2,0:0|3:2,0:0:0:0:
292,60,98670,1,2,3:2:0:0:
292,60,98812,2,0,L|400:44,1,100,2|2,0:0|0:0,0:0:0:0:
440,36,99236,1,0,0:0:0:0:
496,120,99519,2,0,P|490:149|480:176,1,50,2|0,0:0|0:0,0:0:0:0:
448,204,99802,6,0,L|464:324,1,100,2|2,3:2|0:0,0:0:0:0:
392,376,100368,2,0,P|351:361|268:360,1,100,2|2,0:0|0:0,0:0:0:0:
220,288,100934,1,0,3:2:0:0:
132,336,101217,1,2,3:2:0:0:
68,260,101500,2,0,L|8:276,2,50,2|0|2,0:0|0:0|0:0,0:0:0:0:
96,216,101925,22,0,L|108:160,1,50,2|6,0:0|0:2,0:0:0:0:
256,192,117632,12,0,119613,0:0:0:0:
352,288,120180,6,0,B|260:316|260:316|248:286|220:264,1,150,6|2,3:2|3:1,0:0:0:0:
200,232,120746,2,0,P|144:264|76:256,1,100,8|2,0:0|3:2,0:0:0:0:
52,184,121312,2,0,P|63:141|68:76,1,100,0|2,3:0|0:1,0:0:0:0:
148,24,121878,1,8,0:0:0:0:
240,68,122161,1,2,0:1:0:0:
336,36,122444,6,0,L|440:20,1,100,0|2,3:0|0:1,0:0:0:0:
476,48,122868,1,2,3:2:0:0:
476,48,123010,2,0,P|504:88|492:156,1,100,10|2,0:2|3:1,0:0:0:0:
424,200,123576,1,2,3:1:0:0:
328,168,123859,2,0,P|300:208|312:276,1,100,2|8,0:1|0:0,0:0:0:0:
312,308,124283,2,0,P|265:298|192:292,1,100,2|2,0:1|0:1,0:0:0:0:
172,320,124708,5,0,3:0:0:0:
112,240,124991,2,0,P|111:213|120:184,1,50,2|2,0:1|3:2,0:0:0:0:
148,152,125274,2,0,L|136:48,1,100,8|2,0:0|3:1,0:0:0:0:
228,16,125840,2,0,L|239:115,1,100,2|2,3:2|0:1,0:0:0:0:
332,152,126406,2,0,P|356:144|396:136,2,50,10|0|2,0:0|0:1|0:1,0:0:0:0:
388,236,126972,6,0,P|416:304|376:368,1,150,2|2,3:3|3:2,0:0:0:0:
332,372,127538,2,0,P|286:352|212:344,1,100,10|2,0:0|3:1,0:0:0:0:
156,284,128104,1,2,3:1:0:0:
64,328,128387,2,0,P|40:288|48:228,1,100,2|8,3:1|0:0,0:0:0:0:
112,164,128953,2,0,L|96:96,1,50,8|8,0:0|0:0,0:0:0:0:
88,68,129236,38,0,P|152:100|256:56,1,150,6|2,3:2|3:1,0:0:0:0:
276,76,129802,2,0,L|412:56,1,100,8|2,0:0|3:2,0:0:0:0:
452,0,130368,1,0,3:0:0:0:
496,92,130651,2,0,P|476:160|488:224,1,100,2|8,0:1|0:0,0:0:0:0:
504,232,131076,1,2,0:0:0:0:
504,232,131217,2,0,L|492:312,1,50,2|2,0:1|0:1,0:0:0:0:
464,320,131500,6,0,P|404:344|340:336,1,100,0|2,3:0|0:1,0:0:0:0:
328,316,131925,1,2,3:2:0:0:
328,316,132066,2,0,P|268:292|204:300,1,100,10|2,0:2|3:1,0:0:0:0:
164,364,132632,1,2,3:1:0:0:
91,294,132915,2,0,P|98:245|104:185,1,100,2|8,0:1|0:0,0:0:0:0:
56,184,133340,2,0,P|51:134|43:84,1,100,2|2,0:1|0:1,0:0:0:0:
76,48,133764,5,0,3:0:0:0:
172,20,134047,1,2,0:1:0:0:
256,74,134330,2,0,P|303:108|369:107,1,100,8|2,0:0|3:1,0:0:0:0:
390,201,134896,2,0,P|341:209|302:239,1,100,2|2,3:2|0:1,0:0:0:0:
204,262,135463,2,0,P|209:316|224:367,1,100,10|2,0:0|0:1,0:0:0:0:
265,383,135887,1,2,0:0:0:0:
265,383,136029,6,0,B|369:375|369:375|395:320,1,150,2|2,3:3|3:2,0:0:0:0:
416,292,136595,2,0,L|400:179,1,100,10|2,0:0|3:1,0:0:0:0:
343,112,137161,1,2,3:1:0:0:
255,160,137444,1,2,3:1:0:0:
167,112,137727,2,0,L|111:103,1,50,8|8,0:0|0:0,0:0:0:0:
88,63,138010,2,0,L|32:72,1,50,8|8,3:0|3:0,0:0:0:0:
6,109,138293,38,0,P|-5:197|61:248,1,150,4|2,3:2|3:2,0:0:0:0:
79,255,138859,2,0,L|71:360,1,100,8|4,0:0|3:1,0:0:0:0:
170,343,139425,2,0,B|191:247|191:247|222:251|253:238,1,150,2|2,3:3|0:3,0:0:0:0:
259,195,139991,2,0,P|184:207|138:176,1,100,8|2,0:0|0:3,0:0:0:0:
140,101,140557,6,0,P|209:73|300:126,1,150,0|2,3:1|3:2,0:0:0:0:
324,112,141123,2,0,L|429:93,1,100,10|4,0:0|3:1,0:0:0:0:
497,160,141689,2,0,B|491:268|491:268|432:287,1,150,2|2,3:3|0:3,0:0:0:0:
417,318,142255,2,0,P|370:300|311:296,1,100,8|2,0:0|0:3,0:0:0:0:
225,326,142821,6,0,P|178:344|119:348,1,100,0|2,3:1|0:0,0:0:0:0:
89,318,143246,1,2,3:1:0:0:
89,318,143387,2,0,L|79:204,1,100,8|2,0:0|3:2,0:0:0:0:
6,151,143953,2,0,L|16:37,1,100,2|2,3:2|0:1,0:0:0:0:
111,26,144519,2,0,B|163:7|209:52|209:52|182:98,1,150,8|2,0:0|0:1,0:0:0:0:
196,138,145085,5,6,3:1:0:0:
292,113,145368,2,0,P|345:99|416:95,2,100,2|8|2,0:1|0:0|3:2,0:0:0:0:
324,207,146217,2,0,P|357:271|343:320,1,100,2|2,3:2|0:1,0:0:0:0:
263,339,146783,2,0,P|214:303|148:323,1,100,8|8,0:0|0:2,0:0:0:0:
131,325,147208,1,8,0:2:0:0:
131,325,147349,38,0,B|43:348|43:348|16:329|13:285,1,150,6|2,3:2|3:2,0:0:0:0:
40,255,147915,2,0,L|51:144,1,100,8|4,0:0|0:1,0:0:0:0:
96,67,148481,2,0,P|153:109|243:57,1,150,2|2,3:0|0:3,0:0:0:0:
269,68,149047,2,0,L|259:167,1,100,8|2,0:0|0:3,0:0:0:0:
338,228,149613,6,0,P|396:185|465:207,1,150,0|2,3:1|3:2,0:0:0:0:
504,239,150180,2,0,L|494:338,1,100,8|0,0:0|3:2,0:0:0:0:
394,330,150746,2,0,B|335:338|293:352|293:352|259:304,1,150,2|2,3:0|3:0,0:0:0:0:
221,291,151312,2,0,P|176:315|111:324,1,100,8|2,0:0|3:0,0:0:0:0:
74,240,151878,6,0,B|81:190|85:129|85:129|137:109,1,150,0|2,3:1|3:2,0:0:0:0:
159,82,152444,2,0,P|226:97|277:112,1,100,8|2,0:0|3:2,0:0:0:0:
344,59,153010,2,0,P|410:34|460:55,1,100,2|2,3:2|0:1,0:0:0:0:
407,135,153576,2,0,L|392:315,1,150,8|0,0:0|0:0,0:0:0:0:
393,334,154142,5,2,3:2:0:0:
298,367,154425,2,0,P|266:361|234:347,1,50,0|2,0:1|3:2,0:0:0:0:
210,324,154708,2,0,P|156:316|99:349,1,100,8|2,0:0|3:1,0:0:0:0:
45,262,155274,5,2,3:2:0:0:
45,262,155415,2,0,P|78:219|78:153,1,100,8|2,0:0|0:0,0:0:0:0:
125,146,155840,2,0,L|196:164,1,50,8|8,0:0|0:0,0:0:0:0:
222,147,156123,2,0,L|270:134,1,50,8|8,0:0|0:0,0:0:0:0:
101,122,176783,21,6,3:2:0:0:
226,277,177349,1,2,3:2:0:0:
301,91,177915,1,2,3:2:0:0:
374,158,178198,1,2,0:0:0:0:
465,117,178481,2,0,P|498:174|476:230,1,100,2|2,3:2|0:0,0:0:0:0:
492,304,179047,6,0,L|378:286,1,100,2|2,3:2|0:0,0:0:0:0:
310,344,179613,2,0,P|234:364|160:368,1,150,2|2,3:2|0:0,0:0:0:0:
120,340,180180,2,0,P|93:298|124:245,1,100,2|2,3:3|0:3,0:0:0:0:
133,157,180746,2,0,B|199:182|207:131|280:157,1,150,2|2,3:3|0:3,0:0:0:0:
316,190,181312,5,0,3:2:0:0:
162,61,181878,1,2,3:2:0:0:
109,254,182444,1,2,3:2:0:0:
195,304,182727,1,2,0:0:0:0:
110,356,183010,2,0,P|54:373|0:373,1,100,2|2,3:2|0:0,0:0:0:0:
13,274,183576,6,0,P|23:223|24:168,1,100,2|2,3:2|0:0,0:0:0:0:
16,75,184142,1,0,3:2:0:0:
107,115,184425,2,0,P|117:165|118:221,1,100,2|0,0:0|3:2,0:0:0:0:
118,313,184991,1,2,0:0:0:0:
204,263,185274,2,0,P|274:236|333:296,1,150,2|2,3:2|0:0,0:0:0:0:
371,302,185840,38,0,B|368:259|351:226|351:226|373:192|373:192|344:158|353:107,1,200,2|2,3:2|3:2,0:0:0:0:
176,20,186972,2,0,B|173:63|156:96|156:96|178:130|178:130|149:164|158:215,1,200,2|2,3:2|3:2,0:0:0:0:
218,283,187821,1,2,0:0:0:0:
129,235,188104,6,0,P|90:212|4:219,1,100,2|2,3:3|0:3,0:0:0:0:
36,307,188670,2,0,P|75:330|161:323,1,100,2|2,3:3|0:3,0:0:0:0:
218,283,189236,2,0,L|203:392,2,100,2|2|2,3:3|0:3|3:3,0:0:0:0:
283,207,190085,2,0,L|270:138,1,50,2|2,0:3|0:3,0:0:0:0:
262,109,190368,5,4,0:1:0:0:
286,304,193764,38,0,B|203:266|201:385|62:368|51:287,1,244.999992523194
36,273,194896,6,0,B|19:176|19:176|80:143,1,150,6|2,3:2|3:1,0:0:0:0:
96,112,195463,2,0,P|140:136|212:138,1,100,8|2,0:0|3:2,0:0:0:0:
264,72,196029,2,0,P|308:48|380:46,1,100,0|2,3:0|0:1,0:0:0:0:
444,92,196595,1,8,0:0:0:0:
404,184,196878,2,0,P|389:216|392:248,1,50,2|0,0:1|0:1,0:0:0:0:
420,272,197161,6,0,P|360:276|296:296,1,100,0|2,3:0|0:1,0:0:0:0:
284,320,197585,1,2,3:2:0:0:
284,320,197727,2,0,L|164:300,1,100,10|2,0:2|3:1,0:0:0:0:
92,340,198293,1,2,3:1:0:0:
28,264,198576,2,0,P|12:200|56:160,1,100,2|8,0:1|0:0,0:0:0:0:
60,136,199000,2,0,L|180:116,1,100,2|2,0:1|0:0,0:0:0:0:
196,88,199425,5,0,3:0:0:0:
292,120,199708,2,0,P|291:157|276:204,1,50,2|2,0:1|3:2,0:0:0:0:
248,200,199991,2,0,P|255:267|260:316,1,100,8|2,0:0|3:1,0:0:0:0:
344,348,200557,2,0,P|348:298|354:248,1,100,2|2,3:2|0:1,0:0:0:0:
424,176,201123,2,0,P|461:186|480:200,2,50,10|0|2,0:0|0:0|0:1,0:0:0:0:
372,92,201689,6,0,B|324:96|276:112|276:112|260:95|248:52,1,150,2|2,3:3|3:2,0:0:0:0:
216,32,202255,2,0,P|156:36|120:96,1,100,10|2,0:0|3:1,0:0:0:0:
40,108,202821,1,2,3:1:0:0:
104,184,203104,2,0,P|152:183|190:214,1,100,2|8,3:1|0:0,0:0:0:0:
140,300,203670,2,0,P|130:335|132:356,1,50,8|8,0:0|0:0,0:0:0:0:
168,380,203953,38,0,B|276:364|276:364|296:308,1,150,6|2,3:2|3:1,0:0:0:0:
288,276,204519,2,0,P|332:304|400:300,1,100,8|2,0:0|3:2,0:0:0:0:
432,224,205085,2,0,L|416:112,1,100,0|2,3:0|0:1,0:0:0:0:
356,48,205651,2,0,P|326:52|296:72,1,50,8|2,0:0|0:0,0:0:0:0:
268,92,205934,2,0,L|204:80,1,50,2|2,0:1|0:1,0:0:0:0:
172,68,206217,6,0,L|186:166,1,100,0|2,3:0|0:1,0:0:0:0:
156,208,206642,1,2,3:2:0:0:
156,208,206783,2,0,P|112:188|36:188,1,100,10|2,0:2|3:1,0:0:0:0:
4,268,207349,1,2,3:1:0:0:
4,268,207491,2,0,P|8:316|46:381,1,100,10|2,0:0|0:1,0:0:0:0:
80,372,207915,2,0,L|204:352,1,100,8|2,0:0|0:0,0:0:0:0:
244,280,208481,6,0,B|320:268|320:336|400:312,1,150,0|2,3:0|3:2,0:0:0:0:
424,284,209047,2,0,P|440:228|404:184,1,100,8|2,0:0|3:1,0:0:0:0:
384,104,209613,2,0,P|343:116|272:128,1,100,2|2,3:2|0:1,0:0:0:0:
216,56,210180,2,0,P|175:43|104:32,1,100,10|2,0:0|0:1,0:0:0:0:
72,48,210604,1,2,0:0:0:0:
72,48,210746,6,0,B|32:64|24:108|24:108|32:168|84:184,1,150,2|2,3:3|3:2,0:0:0:0:
92,204,211312,2,0,P|73:252|72:308,1,100,14|2,0:0|3:1,0:0:0:0:
148,364,211878,6,0,L|208:352,1,50,10|8,3:2|0:2,0:0:0:0:
224,312,212161,2,0,L|308:336,1,50,10|10,3:2|0:2,0:0:0:0:
308,360,212444,2,0,L|368:348,1,50,8|8,0:0|0:0,0:0:0:0:
384,308,212727,2,0,L|468:332,1,50,8|8,3:0|3:0,0:0:0:0:
476,296,213010,22,0,P|512:224|452:152,1,150,4|2,3:2|3:2,0:0:0:0:
440,140,213576,2,0,L|336:164,1,100,8|4,0:0|3:1,0:0:0:0:
260,216,214142,2,0,P|224:144|284:72,1,150,2|2,3:3|0:3,0:0:0:0:
292,56,214708,1,8,0:0:0:0:
204,8,214991,1,2,0:3:0:0:
108,36,215274,6,0,B|60:72|60:72|88:196,1,150,0|2,3:1|3:2,0:0:0:0:
76,208,215840,2,0,L|56:328,1,100,10|4,0:0|3:1,0:0:0:0:
144,360,216406,2,0,B|176:356|196:332|196:332|232:368|312:356,1,150,2|2,3:3|0:3,0:0:0:0:
324,336,216972,1,8,0:0:0:0:
344,240,217255,1,2,0:3:0:0:
280,164,217538,6,0,L|396:148,1,100,0|2,3:1|0:0,0:0:0:0:
420,120,217963,1,2,3:1:0:0:
420,120,218104,2,0,P|426:63|428:8,1,100,8|2,0:0|3:2,0:0:0:0:
328,28,218670,2,0,L|228:41,1,100,2|2,3:2|0:1,0:0:0:0:
132,20,219236,2,0,P|76:64|92:152,1,150,8|2,0:0|0:1,0:0:0:0:
116,172,219802,5,6,3:1:0:0:
92,268,220085,2,0,P|63:282|36:288,1,50,2|2,0:1|3:1,0:0:0:0:
24,332,220368,2,0,P|76:336|128:352,1,100,8|2,0:0|3:2,0:0:0:0:
204,292,220934,2,0,P|251:278|301:274,1,100,2|2,3:2|0:1,0:0:0:0:
400,280,221500,2,0,P|409:256|416:208,1,50,8|10,0:0|0:2,0:0:0:0:
380,200,221783,2,0,P|370:176|364:128,1,50,8|8,0:3|0:3,0:0:0:0:
388,108,222066,38,0,B|292:127|292:127|276:99|252:84,1,150,6|2,3:2|3:2,0:0:0:0:
212,68,222632,2,0,P|192:120|204:172,1,100,8|4,0:0|0:1,0:0:0:0:
132,236,223198,2,0,P|168:308|260:300,1,150,2|2,3:0|0:3,0:0:0:0:
264,276,223764,1,8,0:0:0:0:
360,300,224047,1,2,0:3:0:0:
436,236,224330,6,0,B|408:188|408:188|432:76,1,150,0|2,3:1|3:2,0:0:0:0:
424,44,224896,2,0,P|368:68|316:48,1,100,8|0,0:0|3:2,0:0:0:0:
236,24,225463,2,0,B|140:36|140:36|120:112,1,150,2|2,3:0|3:0,0:0:0:0:
100,128,226029,1,8,0:0:0:0:
136,220,226312,1,2,3:0:0:0:
76,300,226595,6,0,P|116:348|224:332,1,150,6|2,3:2|3:2,0:0:0:0:
230,316,227161,2,0,L|346:324,1,100,8|6,0:0|0:1,0:0:0:0:
396,248,227727,2,0,P|412:200|384:152,1,100,2|2,3:2|0:1,0:0:0:0:
292,164,228293,2,0,P|254:101|276:32,1,150,8|2,0:0|0:0,0:0:0:0:
320,12,228859,5,2,3:2:0:0:
404,68,229142,2,0,L|460:52,1,50,2|2,0:1|3:2,0:0:0:0:
504,56,229425,2,0,L|496:184,1,100,8|2,0:0|3:1,0:0:0:0:
492,256,229991,6,0,L|428:244,1,50,10|10,3:2|0:2,0:0:0:0:
400,272,230274,2,0,L|344:284,1,50,10|10,0:2|0:2,0:0:0:0:
324,324,230557,2,0,L|260:312,1,50,8|8,0:0|0:0,0:0:0:0:
232,340,230840,2,0,L|176:352,1,50,8|8,0:0|0:0,0:0:0:0:
136,336,231123,6,2,P|88:296|104:232,1,100,6|2,3:2|0:0,0:0:0:0:
60,164,231689,1,2,3:2:0:0:
136,96,231972,1,2,0:0:0:0:
224,140,232255,2,0,P|264:164|336:164,1,100,0|2,3:0|0:0,0:0:0:0:
356,76,232821,2,0,P|396:52|468:52,1,100,2|2,3:2|0:0,0:0:0:0:
504,132,233387,6,0,B|496:236|496:236|452:272,1,150,2|2,0:0|0:0,0:0:0:0:
384,328,234095,1,2,0:0:0:0:
296,284,234378,2,0,P|244:298|168:308,1,100,2|2,0:0|0:0,0:0:0:0:
112,256,234944,2,0,B|104:204|72:156|72:156|112:96,1,150,2|0,0:0|0:0,0:0:0:0:
172,56,235651,69,4,3:2:0:0:
