osu file format v14

[General]
AudioFilename: 02.+sh0ut.mp3
AudioLeadIn: 0
PreviewTime: 63788
Countdown: 0
SampleSet: Soft
StackLeniency: 0.7
Mode: 0
LetterboxInBreaks: 0
WidescreenStoryboard: 0

[Editor]
DistanceSpacing: 1.4
BeatDivisor: 8
GridSize: 4
TimelineZoom: 1.800001

[Metadata]
Title:sh0ut
TitleUnicode:sh0ut
Artist:SawanoHiroyuki[nZk]:Tielle & Gemie
ArtistUnicode:SawanoHiroyuki[nZk]:Tielle & Gemie
Creator:Gaia
Version:Hard
Source:Re:CREATORS
Tags:milan- ely レクリエイターズ 澤野弘之 sawano hiroyuki shout recreators opening op 2V-ALK altair
BeatmapID:1366886
BeatmapSetID:641854

[Difficulty]
HPDrainRate:5
CircleSize:4
OverallDifficulty:6
ApproachRate:8
SliderMultiplier:2.4
SliderTickRate:2

[Events]
//Background and Video events
0,0,"alt.jpg",0,0
//Break Periods
2,41134,43580
2,102266,116882
2,190568,193014
//Storyboard Layer 0 (Background)
//Storyboard Layer 1 (Fail)
//Storyboard Layer 2 (Pass)
//Storyboard Layer 3 (Foreground)
//Storyboard Sound Samples

[TimingPoints]
180,566.037735849057,4,2,1,40,1,0
4708,-100,4,2,1,60,0,0
8670,-125,4,2,1,60,0,0
9236,-100,4,2,1,50,0,0
22821,-125,4,2,1,40,0,0
23670,-125,4,2,1,50,0,0
24378,-125,4,2,1,40,0,0
27349,-111.111111111111,4,2,1,40,0,0
29613,-111.111111111111,4,2,1,50,0,0
30746,-111.111111111111,4,2,2,50,0,0
31312,-111.111111111111,4,2,2,40,0,0
31595,-111.111111111111,4,2,2,30,0,0
31878,-111.111111111111,4,2,1,50,0,0
36406,-111.111111111111,4,2,1,40,0,0
38670,-111.111111111111,4,2,1,30,0,0
40934,-111.111111111111,4,2,1,20,0,0
44330,-166.666666666666,4,2,1,10,0,0
45321,-166.666666666666,4,2,1,5,0,0
45463,-90.9090909090909,4,2,1,80,0,0
64708,-90.9090909090909,4,2,1,90,0,0
65840,-90.9090909090909,4,2,1,80,0,0
66972,-90.9090909090909,4,2,1,90,0,0
68104,-90.9090909090909,4,2,1,80,0,0
73764,-90.9090909090909,4,2,1,90,0,0
74896,-90.9090909090909,4,2,1,80,0,0
76029,-90.9090909090909,4,2,1,90,0,0
77161,-90.9090909090909,4,2,1,80,0,0
81689,-90.9090909090909,4,2,1,50,0,0
83953,-100,4,2,1,80,0,0
84095,-100,4,2,1,50,0,0
102066,-100,4,2,1,40,0,0
117632,-100,4,2,1,10,0,0
119330,-100,4,2,1,50,0,0
119613,-166.666666666667,4,2,1,20,0,0
120038,-166.666666666667,4,2,1,5,0,0
120180,-90.9090909090909,4,2,1,80,0,0
139425,-90.9090909090909,4,2,1,90,0,0
140557,-90.9090909090909,4,2,1,80,0,0
141689,-90.9090909090909,4,2,1,90,0,0
142821,-90.9090909090909,4,2,1,80,0,0
148481,-90.9090909090909,4,2,1,90,0,0
149613,-90.9090909090909,4,2,1,80,0,0
150746,-90.9090909090909,4,2,1,90,0,0
151878,-90.9090909090909,4,2,1,80,0,0
156406,-90.9090909090909,4,2,1,50,0,0
158104,-90.9090909090909,4,2,1,80,0,0
158599,-90.9090909090909,4,2,1,5,0,0
158670,-90.9090909090909,4,2,1,90,0,0
158812,-90.9090909090909,4,2,2,80,0,0
167727,-90.9090909090909,4,2,1,90,0,0
167868,-90.9090909090909,4,2,2,80,0,0
175793,-83.3333333333333,4,2,2,80,0,0
176571,-90.9090909090909,4,2,2,5,0,0
176642,-90.9090909090909,4,2,2,80,0,0
176713,-90.9090909090909,4,2,2,5,0,0
176783,-111.111111111111,4,2,1,50,0,0
180180,-111.111111111111,4,2,2,50,0,0
180746,-111.111111111111,4,2,2,40,0,0
181029,-111.111111111111,4,2,2,30,0,0
181312,-111.111111111111,4,2,1,50,0,0
185840,-111.111111111111,4,2,1,40,0,0
186689,-111.111111111111,4,2,2,30,0,0
186972,-111.111111111111,4,2,1,40,0,0
187255,-111.111111111111,4,2,2,20,0,0
187396,-111.111111111111,4,2,1,40,0,0
187821,-111.111111111111,4,2,2,30,0,0
187963,-111.111111111111,4,2,1,40,0,0
188104,-111.111111111111,4,2,2,20,0,0
188387,-111.111111111111,4,2,2,30,0,0
188670,-111.111111111111,4,2,2,40,0,0
188953,-111.111111111111,4,2,2,50,0,0
189236,-111.111111111111,4,2,2,60,0,0
189519,-111.111111111111,4,2,2,55,0,0
189802,-111.111111111111,4,2,2,50,0,0
190085,-111.111111111111,4,2,2,40,0,0
190368,-111.111111111111,4,2,1,20,0,0
193764,-166.666666666666,4,2,1,10,0,0
194755,-166.666666666666,4,2,1,5,0,0
194896,-90.9090909090909,4,2,1,80,0,0
214142,-90.9090909090909,4,2,1,90,0,0
215274,-90.9090909090909,4,2,1,80,0,0
216406,-90.9090909090909,4,2,1,90,0,0
217538,-90.9090909090909,4,2,1,80,0,0
223198,-90.9090909090909,4,2,1,90,0,0
224330,-90.9090909090909,4,2,1,80,0,0
225463,-90.9090909090909,4,2,1,90,0,0
226595,-90.9090909090909,4,2,1,80,0,0
231123,-100,4,2,1,80,0,0
231406,-100,4,2,1,60,0,0
233387,-100,4,2,1,40,0,0
235651,-100,4,2,1,50,0,0

[Colours]
Combo1 : 255,255,255
Combo2 : 128,255,255
Combo3 : 237,243,122
Combo4 : 118,253,111
Combo5 : 255,198,111
Combo6 : 240,0,6

[HitObjects]
81,144,180,6,0,P|110:138|151:121,1,60,2|0,0:0|0:0,0:0:0:0:
180,48,463,2,0,P|207:58|237:64,1,60,2|0,0:0|0:0,0:0:0:0:
312,114,746,2,0,P|352:93|426:105,2,120,2|2|2,0:0|0:0|0:0,0:0:0:0:
333,200,1453,1,0,0:0:0:0:
333,200,1524,1,0,0:0:0:0:
333,200,1595,2,0,P|340:222|344:261,1,60,2|2,0:0|0:0,0:0:0:0:
301,337,1878,2,0,P|246:339|202:270,1,120,2|2,0:0|0:0,0:0:0:0:
24,287,2444,6,0,P|29:325|38:366,1,60,2|0,0:0|0:0,0:0:0:0:
123,336,2727,2,0,P|117:306|113:276,1,60,2|0,0:0|0:0,0:0:0:0:
82,191,3010,2,0,L|211:209,2,120,2|2|2,0:0|0:0|0:0,0:0:0:0:
121,110,3717,1,0,0:0:0:0:
121,110,3788,1,0,0:0:0:0:
121,110,3859,2,0,P|146:89|183:84,1,60,2|2,0:0|0:0,0:0:0:0:
240,23,4142,2,0,P|294:63|298:133,1,120,2|2,0:0|0:0,0:0:0:0:
305,342,4708,6,0,P|319:285|368:252,1,120,2|0,0:0|0:0,0:0:0:0:
403,170,5132,2,0,L|273:190,1,120,2|2,0:0|0:0,0:0:0:0:
205,144,5557,2,0,P|191:180|198:217,1,60,0|2,3:2|0:0,0:0:0:0:
112,275,5840,2,0,P|102:220|77:151,1,120,0|2,3:0|0:0,0:0:0:0:
22,91,6264,1,0,0:0:0:0:
22,91,6406,2,0,P|49:79|103:71,1,60,2|0,0:0|0:0,0:0:0:0:
153,22,6689,2,0,P|184:24|230:35,1,60,2|0,0:0|0:0,0:0:0:0:
346,37,6972,6,0,P|318:66|312:159,1,120,2|2,3:2|0:0,0:0:0:0:
381,190,7396,2,0,P|401:221|398:258,1,60,2|0,0:0|0:0,0:0:0:0:
419,332,7680,2,0,L|275:306,1,120,2|2,0:0|0:0,0:0:0:0:
218,345,8104,2,0,L|134:360,1,60,0|2,3:0|0:0,0:0:0:0:
71,376,8387,2,0,L|-13:361,1,60,0|2,3:0|0:0,0:0:0:0:
60,278,8670,2,0,P|66:206|4:157,1,144,2|2,0:0|0:0,0:0:0:0:
100,97,9236,38,0,P|164:112|232:119,1,120,6|2,3:2|0:0,0:0:0:0:
285,59,9661,1,0,0:0:0:0:
285,59,9802,2,0,P|343:44|402:37,1,120,2|2,0:0|3:2,0:0:0:0:
480,83,10227,1,2,0:0:0:0:
420,149,10368,2,0,P|406:206|401:288,1,120,2|2,3:2|0:0,0:0:0:0:
449,342,10793,2,0,P|479:354|511:358,1,60,2|0,0:0|0:0,0:0:0:0:
373,273,11076,2,0,P|343:277|315:289,1,60,2|0,0:0|0:0,0:0:0:0:
244,344,11359,1,2,0:0:0:0:
244,344,11500,6,0,L|107:364,1,120,0|2,3:0|0:0,0:0:0:0:
55,304,11925,1,2,0:0:0:0:
55,304,12066,2,0,P|16:247|47:188,1,120,2|0,0:0|0:0,0:0:0:0:
103,149,12491,1,2,0:0:0:0:
114,60,12632,2,0,P|49:73|-27:87,1,120,2|2,3:2|3:2,0:0:0:0:
126,157,13057,2,0,P|155:164|190:166,1,60,2|0,0:0|0:0,0:0:0:0:
239,94,13340,2,0,L|227:12,2,60,2|2|0,0:0|0:0|0:0,0:0:0:0:
319,133,13764,6,0,P|326:77|362:18,1,120,2|2,3:2|0:0,0:0:0:0:
485,149,14330,2,0,L|498:279,1,120,2|0,0:0|3:0,0:0:0:0:
429,328,14755,1,2,0:0:0:0:
429,328,14896,2,0,P|455:346|489:361,2,60,2|2|0,3:2|0:0|0:0,0:0:0:0:
347,289,15321,2,0,P|283:305|201:311,1,120,2|0,0:0|0:0,0:0:0:0:
152,357,15746,2,0,P|125:354|91:340,1,60,2|2,0:0|0:0,0:0:0:0:
155,240,16029,6,0,P|171:173|178:101,1,120,2|2,3:2|0:0,0:0:0:0:
231,50,16453,1,2,0:0:0:0:
231,50,16595,2,0,P|170:68|91:78,2,120,2|2|0,0:0|0:0|3:2,0:0:0:0:
317,25,17302,1,2,0:0:0:0:
375,93,17444,2,0,P|371:134|344:163,1,60,0|2,3:2|0:0,0:0:0:0:
378,237,17727,2,0,P|424:209|491:218,1,120,2|0,0:0|0:0,0:0:0:0:
507,303,18151,1,2,0:0:0:0:
394,363,18293,38,0,P|335:351|255:341,1,120,2|2,3:2|0:0,0:0:0:0:
195,303,18717,1,2,0:0:0:0:
195,303,18859,2,0,P|179:340|176:379,1,60,2|0,0:0|0:0,0:0:0:0:
99,311,19142,2,0,P|90:285|87:251,1,60,2|0,3:2|0:0,0:0:0:0:
166,209,19425,2,0,P|225:200|284:188,1,120,2|2,3:2|0:0,0:0:0:0:
340,118,19849,2,0,P|338:88|317:57,1,60,2|0,0:0|0:0,0:0:0:0:
195,35,20132,2,0,P|179:60|178:90,1,60,2|0,0:0|0:0,0:0:0:0:
136,170,20415,1,2,0:0:0:0:
136,170,20557,6,0,L|152:310,1,120,0|2,3:0|0:0,0:0:0:0:
181,372,20981,1,2,0:0:0:0:
181,372,21123,2,0,P|135:341|51:341,1,120,2|2,0:0|0:0,0:0:0:0:
154,293,21547,1,2,0:0:0:0:
154,293,21689,2,0,L|281:277,1,120,2|2,3:2|3:2,0:0:0:0:
284,188,22113,2,0,P|255:184|220:173,1,60,2|0,0:0|0:0,0:0:0:0:
277,101,22396,2,0,P|288:60|367:57,1,120,2|0,0:0|0:0,0:0:0:0:
457,25,22821,6,0,P|450:72|446:134,1,96,0|2,3:2|0:0,0:0:0:0:
371,276,23387,2,0,P|367:228|360:180,1,96,2|2,0:0|3:2,0:0:0:0:
197,99,23953,1,2,3:2:0:0:
139,164,24095,2,0,L|79:177,1,48,2|0,0:0|0:0,0:0:0:0:
36,240,24378,2,0,P|86:248|138:256,1,96,2|0,0:0|0:0,0:0:0:0:
209,289,24802,2,0,P|219:316|220:349,1,48,2|2,0:0|0:0,0:0:0:0:
299,372,25085,6,0,P|299:333|314:256,1,96,2|0,3:2|0:0,0:0:0:0:
353,110,25651,2,0,P|353:148|368:226,1,96,2|2,0:0|0:0,0:0:0:0:
455,351,26217,2,0,P|438:344|394:337,1,48,0|2,3:2|0:0,0:0:0:0:
437,256,26500,2,0,P|460:260|483:268,1,48,2|0,3:2|0:0,0:0:0:0:
462,164,26783,2,0,P|453:116|452:68,1,96,2|2,0:0|0:0,0:0:0:0:
372,25,27208,1,2,0:0:0:0:
372,25,27349,38,0,P|327:43|255:53,1,107.999996704102,6|2,3:2|0:0,0:0:0:0:
86,26,27915,2,0,P|101:82|108:152,1,107.999996704102,2|2,3:2|0:0,0:0:0:0:
29,298,28481,2,0,P|17:276|17:236,1,53.9999983520508,2|0,3:2|0:0,0:0:0:0:
106,248,28764,2,0,L|181:263,1,53.9999983520508,2|0,0:0|0:0,0:0:0:0:
218,329,29047,2,0,L|339:315,1,107.999996704102,2|2,3:2|0:0,0:0:0:0:
442,175,29613,6,0,P|411:183|366:185,1,53.9999983520508,2|2,3:2|0:0,0:0:0:0:
308,230,29896,2,0,L|251:220,1,53.9999983520508,2|2,0:0|0:0,0:0:0:0:
214,137,30180,2,0,P|198:102|241:41,1,107.999996704102,2|0,3:2|0:0,0:0:0:0:
316,17,30604,1,2,0:0:0:0:
316,17,30746,2,0,P|321:53|326:87,1,53.9999983520508,2|2,3:3|0:3,0:0:0:0:
397,132,31029,2,0,L|386:204,1,53.9999983520508,2|2,0:3|0:3,0:0:0:0:
433,265,31312,2,0,P|462:297|451:371,1,107.999996704102,2|2,3:3|0:3,0:0:0:0:
367,359,31736,1,2,0:3:0:0:
367,359,31878,6,0,P|312:367|245:375,1,107.999996704102,0|2,3:2|0:0,0:0:0:0:
93,297,32444,2,0,P|86:243|78:189,1,107.999996704102,2|2,3:2|0:0,0:0:0:0:
124,109,32868,1,0,0:0:0:0:
124,109,33010,2,0,B|181:127|182:86|246:106,1,107.999996704102,2|2,3:2|0:0,0:0:0:0:
301,44,33434,1,2,0:0:0:0:
384,82,33576,2,0,P|381:114|369:142,1,53.9999983520508,2|0,3:2|0:0,0:0:0:0:
423,211,33859,2,0,P|425:243|438:271,1,53.9999983520508,2|2,0:0|0:0,0:0:0:0:
398,348,34142,6,0,P|347:317|295:330,1,107.999996704102,2|2,3:2|0:0,0:0:0:0:
212,343,34566,1,2,0:0:0:0:
212,343,34708,2,0,P|181:352|140:359,1,53.9999983520508,0|2,3:2|0:0,0:0:0:0:
69,372,34991,2,0,L|83:243,1,107.999996704102,2|0,0:0|3:2,0:0:0:0:
26,89,35557,2,0,P|28:122|40:149,1,53.9999983520508,2|2,0:0|0:0,0:0:0:0:
118,180,35840,2,0,P|171:175|233:162,1,107.999996704102,2|2,3:2|0:0,0:0:0:0:
256,80,36264,1,2,0:0:0:0:
256,80,36406,38,0,L|376:104,1,107.999996704102,2|0,3:2|0:0,0:0:0:0:
492,232,36972,2,0,P|432:236|404:280,1,107.999996704102,2|2,3:2|0:0,0:0:0:0:
420,360,37396,1,0,0:0:0:0:
420,360,37538,2,0,P|369:368|304:376,1,107.999996704102,0|2,3:2|0:0,0:0:0:0:
244,316,37963,1,0,0:0:0:0:
244,316,38104,2,0,L|116:304,1,107.999996704102,0|2,3:2|0:0,0:0:0:0:
92,224,38529,1,0,0:0:0:0:
16,276,38670,6,0,P|28:328|40:396,2,107.999996704102,2|2|0,3:2|0:0|3:0,0:0:0:0:
106,154,39519,2,0,P|96:180|91:205,1,53.9999983520508,0|2,0:0|0:0,0:0:0:0:
189,202,39802,2,0,P|214:170|288:172,1,107.999996704102,2|2,3:2|0:0,0:0:0:0:
417,129,40368,2,0,L|429:197,1,53.9999983520508,0|2,3:2|0:0,0:0:0:0:
492,232,40651,2,0,L|476:304,1,53.9999983520508,0|2,0:0|0:0,0:0:0:0:
418,340,40934,5,4,0:1:0:0:
376,248,44330,38,0,B|368:296|300:320|300:320|248:284|248:284|260:236|224:204,1,251.999992309571,0|0,0:0|0:0,0:0:0:0:
136,124,45463,6,0,P|192:116|274:103,1,132.00000402832,6|2,3:2|0:0,0:0:0:0:
344,52,45887,1,2,3:1:0:0:
344,52,46029,2,0,P|370:83|376:124,1,66.0000020141602,8|2,0:0|0:1,0:0:0:0:
456,156,46312,2,0,P|464:99|492:16,2,132.00000402832,2|0|2,3:2|3:0|0:1,0:0:0:0:
500,236,47019,1,2,0:0:0:0:
436,304,47161,2,0,P|383:289|292:284,1,132.00000402832,8|2,0:0|0:1,0:0:0:0:
232,336,47585,1,8,0:1:0:0:
232,336,47727,6,0,P|194:348|152:352,1,66.0000020141602,0|0,3:0|0:0,0:0:0:0:
92,300,48010,2,0,L|8:284,1,66.0000020141602,2|2,0:1|3:2,0:0:0:0:
80,192,48293,2,0,P|92:116|60:56,1,132.00000402832,10|2,0:2|3:1,0:0:0:0:
144,8,48717,1,8,0:1:0:0:
144,8,48859,2,0,P|175:22|212:28,1,66.0000020141602,2|2,3:1|0:0,0:0:0:0:
264,100,49142,2,0,P|322:73|416:72,1,132.00000402832,10|8,0:1|0:0,0:0:0:0:
444,224,49566,2,0,P|356:208|360:160,1,132.00000402832,10|10,0:1|0:1,0:0:0:0:
252,120,49991,6,0,L|264:200,1,66.0000020141602,0|0,3:0|0:0,0:0:0:0:
304,268,50274,2,0,L|296:344,1,66.0000020141602,2|2,0:1|3:2,0:0:0:0:
212,372,50557,2,0,P|176:344|76:332,1,132.00000402832,8|2,0:0|3:1,0:0:0:0:
8,288,50981,1,8,0:1:0:0:
8,288,51123,2,0,P|73:280|127:244,1,132.00000402832,2|8,3:2|0:1,0:0:0:0:
140,152,51547,1,2,0:1:0:0:
140,152,51689,2,0,P|116:136|72:128,1,66.0000020141602,10|0,0:0|0:1,0:0:0:0:
204,48,51972,2,0,L|288:32,1,66.0000020141602,10|2,0:1|0:0,0:0:0:0:
408,8,52255,6,0,B|448:92|348:104|416:212,1,198.000006042481,2|2,3:3|3:2,0:0:0:0:
464,320,52821,2,0,P|432:288|336:304,1,132.00000402832,10|2,0:0|3:1,0:0:0:0:
260,276,53246,1,8,0:1:0:0:
184,328,53387,2,0,P|166:362|168:404,1,66.0000020141602,2|8,3:1|0:1,0:0:0:0:
256,248,53670,2,0,L|240:160,1,66.0000020141602,2|8,3:1|0:1,0:0:0:0:
268,92,53953,2,0,P|231:135|152:140,1,132.00000402832,8|2,0:0|0:1,0:0:0:0:
100,72,54378,1,2,0:0:0:0:
28,176,54519,38,0,P|35:244|52:328,1,132.00000402832,6|2,3:2|0:0,0:0:0:0:
124,360,54944,1,2,3:1:0:0:
124,360,55085,2,0,P|161:352|200:340,1,66.0000020141602,8|2,0:0|0:1,0:0:0:0:
260,284,55368,2,0,P|328:312|404:316,2,132.00000402832,2|0|8,3:2|3:0|0:1,0:0:0:0:
216,200,56076,1,2,0:0:0:0:
268,124,56217,2,0,L|256:40,1,66.0000020141602,8|2,0:0|0:0,0:0:0:0:
180,12,56500,2,0,P|142:22|108:40,1,66.0000020141602,2|8,0:1|0:1,0:0:0:0:
28,136,56783,6,0,P|52:180|140:164,1,132.00000402832,0|2,3:0|0:1,0:0:0:0:
216,200,57208,1,2,3:2:0:0:
152,268,57349,2,0,P|120:324|136:388,1,132.00000402832,10|2,0:2|3:1,0:0:0:0:
228,372,57774,1,8,0:1:0:0:
228,372,57915,2,0,L|300:352,1,66.0000020141602,2|2,3:1|0:0,0:0:0:0:
308,264,58198,2,0,L|288:112,1,132.00000402832,10|8,0:1|0:0,0:0:0:0:
336,52,58623,1,0,0:0:0:0:
428,44,58764,2,0,P|451:83|444:120,1,66.0000020141602,0|10,3:0|0:1,0:0:0:0:
372,208,59047,6,0,L|212:184,1,132.00000402832,0|2,3:0|0:1,0:0:0:0:
172,128,59472,1,2,3:2:0:0:
172,128,59613,2,0,P|136:132|92:140,1,66.0000020141602,8|8,0:0|0:1,0:0:0:0:
36,196,59896,2,0,P|16:152|48:64,2,132.00000402832,2|2|8,3:1|3:2|0:1,0:0:0:0:
164,332,60746,2,0,P|201:327|240:316,1,66.0000020141602,10|0,0:0|0:1,0:0:0:0:
224,228,61029,2,0,P|192:236|159:240,1,66.0000020141602,8|2,0:1|0:0,0:0:0:0:
172,128,61312,6,0,B|172:84|192:60|192:60|288:40|304:128,1,198.000006042481,2|2,3:3|3:2,0:0:0:0:
368,164,61878,2,0,P|344:96|376:44,1,132.00000402832,10|2,0:0|3:1,0:0:0:0:
464,64,62302,1,8,0:1:0:0:
492,152,62444,2,0,L|480:244,1,66.0000020141602,2|8,3:1|0:1,0:0:0:0:
400,256,62727,2,0,L|408:321,1,66.0000020141602,2|8,3:1|0:1,0:0:0:0:
304,376,63010,5,8,0:0:0:0:
228,320,63151,1,8,0:0:0:0:
148,368,63293,2,0,L|72:388,1,66.0000020141602,8|8,3:0|3:0,0:0:0:0:
20,256,63576,22,0,P|0:200|48:148,1,132.00000402832,4|2,3:2|0:1,0:0:0:0:
96,76,64000,1,2,3:2:0:0:
164,136,64142,2,0,L|256:148,1,66.0000020141602,8|2,0:0|0:1,0:0:0:0:
276,64,64425,2,0,L|368:76,1,66.0000020141602,4|2,3:1|0:1,0:0:0:0:
468,68,64708,2,0,P|424:120|444:200,1,132.00000402832,2|4,3:3|0:1,0:0:0:0:
416,312,65132,2,0,P|451:303|504:296,2,66.0000020141602,2|8|4,3:3|3:2|0:1,0:0:0:0:
336,236,65557,2,0,L|256:224,1,66.0000020141602,2|8,3:3|0:1,0:0:0:0:
164,208,65840,6,0,P|120:240|128:312,1,132.00000402832,4|2,3:1|0:1,0:0:0:0:
220,304,66264,1,2,3:2:0:0:
270,226,66406,2,0,L|258:146,1,66.0000020141602,10|2,0:0|0:1,0:0:0:0:
188,100,66689,2,0,L|200:20,1,66.0000020141602,4|0,3:1|0:0,0:0:0:0:
320,76,66972,2,0,P|378:70|460:60,1,132.00000402832,2|4,3:3|0:1,0:0:0:0:
512,184,67396,2,0,P|506:222|488:252,2,66.0000020141602,2|8|4,3:3|3:2|0:1,0:0:0:0:
420,192,67821,2,0,L|352:200,1,66.0000020141602,2|8,3:3|0:1,0:0:0:0:
276,248,68104,6,0,P|244:292|144:296,1,132.00000402832,4|2,3:1|0:0,0:0:0:0:
88,264,68529,1,2,3:1:0:0:
36,188,68670,2,0,L|52:48,1,132.00000402832,8|2,0:0|3:2,0:0:0:0:
228,28,69236,2,0,L|242:159,1,132.00000402832,2|2,3:2|0:1,0:0:0:0:
276,248,69661,1,8,0:1:0:0:
354,199,69802,2,0,B|396:160|458:162|458:162|496:208|472:248,1,198.000006042481,8|2,0:0|0:1,0:0:0:0:
416,344,70368,6,0,P|407:327|396:268,1,66.0000020141602,6|8,3:1|0:1,0:0:0:0:
295,185,70651,2,0,P|288:217|275:247,1,66.0000020141602,2|8,0:1|3:1,0:0:0:0:
204,304,70934,2,0,P|178:295|120:284,1,66.0000020141602,8|8,0:0|0:1,0:0:0:0:
92,208,71217,2,0,P|66:216|8:228,1,66.0000020141602,2|8,3:2|0:1,0:0:0:0:
40,132,71500,2,0,P|52:76|60:-4,2,132.00000402832,2|10|8,3:2|0:1|0:0,0:0:0:0:
152,378,72349,1,2,0:2:0:0:
140,286,72491,1,10,0:1:0:0:
240,320,72632,38,0,P|299:316|392:296,1,132.00000402832,6|2,3:2|0:1,0:0:0:0:
424,224,73057,1,2,3:2:0:0:
424,224,73198,2,0,P|384:216|344:196,1,66.0000020141602,8|2,0:0|0:1,0:0:0:0:
316,124,73481,2,0,L|328:48,1,66.0000020141602,4|2,0:1|0:1,0:0:0:0:
212,0,73764,2,0,P|148:12|148:84,1,132.00000402832,2|4,3:0|0:1,0:0:0:0:
64,176,74189,2,0,P|40:159|-20:144,2,66.0000020141602,2|8|4,3:3|3:2|0:1,0:0:0:0:
144,264,74613,2,0,L|228:248,1,66.0000020141602,2|8,3:3|0:1,0:0:0:0:
293,204,74896,6,0,L|453:228,1,132.00000402832,4|2,3:1|0:1,0:0:0:0:
500,172,75321,1,2,3:2:0:0:
448,96,75463,2,0,P|436:64|436:8,1,66.0000020141602,8|2,0:0|0:1,0:0:0:0:
300,8,75746,2,0,P|291:37|284:84,1,66.0000020141602,0|0,3:2|0:0,0:0:0:0:
293,204,76029,2,0,P|265:152|189:148,1,132.00000402832,2|4,3:0|0:1,0:0:0:0:
64,88,76453,2,0,P|28:100|-4:104,2,66.0000020141602,2|8|4,3:3|3:2|0:1,0:0:0:0:
104,184,76878,2,0,P|92:218|92:264,1,66.0000020141602,2|8,3:3|0:1,0:0:0:0:
200,340,77161,6,0,P|266:323|352:320,1,132.00000402832,4|2,3:1|0:1,0:0:0:0:
404,376,77585,1,2,3:2:0:0:
328,288,77727,2,0,P|300:240|340:156,1,132.00000402832,8|2,0:0|3:2,0:0:0:0:
464,52,78293,2,0,P|486:112|457:169,1,132.00000402832,2|2,3:2|0:1,0:0:0:0:
392,236,78717,1,8,0:1:0:0:
296,168,78859,2,0,B|224:172|160:208|160:208|128:180|84:176,1,198.000006042481,8|2,0:0|0:0,0:0:0:0:
88,272,79425,6,0,P|76:316|88:360,1,66.0000020141602,2|2,3:2|0:0,0:0:0:0:
256,320,79708,2,0,P|257:287|246:256,1,66.0000020141602,2|2,0:1|3:2,0:0:0:0:
296,168,79991,2,0,L|384:188,1,66.0000020141602,8|8,0:0|0:1,0:0:0:0:
420,112,80274,2,0,L|355:97,1,66.0000020141602,2|8,3:1|0:1,0:0:0:0:
288,32,80557,5,2,3:2:0:0:
296,168,80698,2,0,L|316:324,1,132.00000402832,8|2,0:0|0:1,0:0:0:0:
208,360,81123,2,0,P|184:304|96:304,1,132.00000402832,8|2,0:0|0:1,0:0:0:0:
96,380,81547,6,0,P|92:340|76:296,1,66.0000020141602,2|4,0:1|0:1,0:0:0:0:
84,315,82255,1,4,0:1:0:0:
84,315,82821,1,4,0:1:0:0:
84,315,83387,1,4,0:1:0:0:
84,315,83953,6,0,L|220:336,1,120,2|2,3:3|0:0,0:0:0:0:
280,284,84378,1,0,0:0:0:0:
280,284,84519,2,0,P|313:277|360:264,1,60,2|0,0:0|0:0,0:0:0:0:
392,196,84802,2,0,P|388:166|368:124,1,60,2|2,3:2|0:0,0:0:0:0:
308,36,85085,2,0,P|264:68|260:144,1,120,2|2,3:2|0:0,0:0:0:0:
188,192,85510,2,0,P|158:183|56:172,2,120,2|2|2,0:0|0:0|0:0,0:0:0:0:
280,284,86217,6,0,L|416:256,1,120,0|2,3:0|0:0,0:0:0:0:
460,196,86642,1,2,0:0:0:0:
460,196,86783,2,0,P|476:224|484:272,1,60,2|0,0:0|0:0,0:0:0:0:
364,176,87066,2,0,L|380:96,1,60,2|0,0:0|0:0,0:0:0:0:
364,28,87349,2,0,P|311:44|236:56,1,120,2|2,3:2|3:2,0:0:0:0:
172,104,87774,2,0,P|119:87|44:76,1,120,2|2,0:0|0:0,0:0:0:0:
92,184,88198,2,0,P|102:217|104:260,1,60,2|2,0:0|0:0,0:0:0:0:
220,192,88481,6,0,P|272:168|344:192,2,120,2|2|2,3:2|0:0|0:0,0:0:0:0:
144,356,89330,2,0,P|177:352|220:344,1,60,0|2,3:0|0:0,0:0:0:0:
260,276,89613,1,2,3:2:0:0:
348,296,89755,2,0,L|420:312,1,60,2|0,0:0|0:0,0:0:0:0:
464,240,90038,2,0,P|496:196|480:132,1,120,2|0,0:0|0:0,0:0:0:0:
436,60,90463,2,0,L|508:40,1,60,2|2,0:0|0:0,0:0:0:0:
396,144,90746,6,0,P|338:137|256:124,1,120,2|2,3:2|0:0,0:0:0:0:
120,40,91312,2,0,P|136:61|136:120,1,60,2|0,0:0|0:0,0:0:0:0:
84,160,91595,2,0,L|76:232,1,60,2|0,0:0|0:0,0:0:0:0:
40,328,91878,2,0,P|81:313|140:304,1,90,2|0,3:2|0:0,0:0:0:0:
160,276,92161,2,0,L|224:288,1,60,0|2,3:2|0:0,0:0:0:0:
280,352,92444,2,0,B|356:344|356:344|384:304,1,120,2|0,0:0|0:0,0:0:0:0:
436,236,92868,1,2,0:0:0:0:
436,236,93010,38,0,P|416:188|408:108,1,120,2|2,3:2|0:0,0:0:0:0:
448,40,93434,1,2,0:0:0:0:
448,40,93576,2,0,L|368:20,1,60,2|0,0:0|0:0,0:0:0:0:
320,80,93859,2,0,L|252:92,1,60,2|0,3:2|0:0,0:0:0:0:
152,40,94142,2,0,P|116:84|128:160,1,120,2|2,3:2|0:0,0:0:0:0:
152,260,94566,2,0,P|96:237|36:233,2,120,2|2|2,0:0|0:0|0:0,0:0:0:0:
260,296,95274,6,0,L|232:164,1,120,0|2,3:0|0:0,0:0:0:0:
260,90,95698,1,2,0:0:0:0:
260,90,95840,2,0,P|298:101|328:104,1,60,2|0,0:0|0:0,0:0:0:0:
392,52,96123,2,0,L|456:36,1,60,2|2,0:0|0:0,0:0:0:0:
504,108,96406,2,0,P|480:172|488:232,1,120,2|2,3:2|3:2,0:0:0:0:
428,292,96830,2,0,P|462:305|508:312,1,60,2|0,0:0|0:0,0:0:0:0:
360,364,97113,2,0,P|296:372|224:388,1,120,2|0,0:0|0:0,0:0:0:0:
140,324,97538,6,0,P|128:356|128:392,1,60,0|0,3:2|0:0,0:0:0:0:
44,300,97821,2,0,L|32:232,1,60,2|0,0:0|0:0,0:0:0:0:
52,152,98104,2,0,P|104:172|152:160,1,90,2|0,0:0|0:0,0:0:0:0:
164,132,98387,2,0,L|176:64,1,60,2|0,3:2|0:0,0:0:0:0:
256,32,98670,1,2,3:2:0:0:
320,96,98812,2,0,L|400:84,1,60,2|0,0:0|0:0,0:0:0:0:
456,8,99095,2,0,L|480:136,1,120,2|2,0:0|0:0,0:0:0:0:
412,188,99519,2,0,P|392:232|412:284,1,90,2|0,0:0|0:0,0:0:0:0:
436,296,99802,6,0,P|371:301|296:320,1,120,2|2,3:2|0:0,0:0:0:0:
144,356,100368,2,0,P|114:353|60:340,1,60,2|0,0:0|0:0,0:0:0:0:
76,256,100651,2,0,P|105:261|135:264,1,60,2|0,0:0|0:0,0:0:0:0:
192,192,100934,2,0,P|204:148|176:112,1,90,0|0,3:2|0:0,0:0:0:0:
168,72,101217,2,0,P|196:64|240:48,1,60,2|0,3:2|0:0,0:0:0:0:
324,80,101500,2,0,P|326:51|348:8,2,60,2|0|2,0:0|0:0|0:0,0:0:0:0:
380,152,101925,1,2,0:0:0:0:
468,136,102066,37,6,0:2:0:0:
256,192,117632,12,0,119330,0:0:0:0:
264,160,119613,70,0,P|240:224|260:264,1,107.999996704102,0|0,0:0|0:0,0:0:0:0:
360,216,120180,6,0,L|348:56,1,132.00000402832,6|2,3:2|0:0,0:0:0:0:
292,12,120604,1,2,3:1:0:0:
292,12,120746,2,0,P|248:24|200:32,1,66.0000020141602,8|2,0:0|0:1,0:0:0:0:
148,76,121029,2,0,B|116:72|72:52|72:52|50:73|12:84,2,132.00000402832,2|0|2,3:2|3:0|0:1,0:0:0:0:
180,164,121736,1,2,0:0:0:0:
180,164,121878,2,0,P|144:184|100:184,1,66.0000020141602,8|2,0:0|0:0,0:0:0:0:
52,276,122161,2,0,P|84:281|111:299,1,66.0000020141602,2|8,0:1|0:1,0:0:0:0:
220,344,122444,6,0,P|220:276|272:248,1,132.00000402832,0|2,3:0|0:1,0:0:0:0:
316,168,122868,1,2,3:2:0:0:
316,168,123010,2,0,P|306:135|296:24,1,132.00000402832,10|2,0:2|3:1,0:0:0:0:
380,0,123434,1,8,0:1:0:0:
380,0,123576,2,0,P|412:10|452:16,1,66.0000020141602,2|2,3:1|0:0,0:0:0:0:
412,144,123859,2,0,P|397:212|396:296,1,132.00000402832,10|8,0:1|0:0,0:0:0:0:
432,360,124283,2,0,P|400:320|300:336,1,132.00000402832,10|10,0:1|0:1,0:0:0:0:
254,257,124708,6,0,P|223:269|170:277,1,66.0000020141602,0|0,3:0|0:0,0:0:0:0:
120,336,124991,2,0,L|36:320,1,66.0000020141602,2|2,0:1|3:2,0:0:0:0:
28,216,125274,2,0,B|16:128|16:128|44:88,1,132.00000402832,8|2,0:0|3:1,0:0:0:0:
128,124,125698,1,8,0:1:0:0:
128,124,125840,2,0,P|176:164|264:148,2,132.00000402832,2|10|10,3:2|0:1|0:0,0:0:0:0:
180,48,126547,1,0,0:1:0:0:
180,48,126689,2,0,L|256:32,1,66.0000020141602,8|2,0:1|0:0,0:0:0:0:
320,116,126972,6,0,B|352:128|368:140|368:140|432:84|400:4,1,198.000006042481,2|2,3:3|3:2,0:0:0:0:
488,100,127538,2,0,P|494:170|504:236,1,132.00000402832,10|2,0:0|3:1,0:0:0:0:
428,284,127963,1,8,0:1:0:0:
428,284,128104,2,0,P|417:327|416:368,1,66.0000020141602,2|8,3:1|0:1,0:0:0:0:
308,288,128387,2,0,P|297:244|296:204,1,66.0000020141602,2|0,3:1|0:0,0:0:0:0:
320,116,128670,2,0,P|272:144|208:144,1,99.0000030212403,8|0,0:0|0:0,0:0:0:0:
200,112,128953,5,8,0:0:0:0:
108,92,129095,1,8,0:0:0:0:
20,72,129236,22,0,L|48:220,1,132.00000402832,6|2,3:2|0:0,0:0:0:0:
12,288,129661,1,2,3:1:0:0:
100,316,129802,2,0,P|148:280|224:272,1,132.00000402832,8|2,0:0|3:2,0:0:0:0:
308,244,130227,1,8,0:1:0:0:
308,244,130368,2,0,P|321:272|324:320,1,66.0000020141602,0|0,3:0|0:0,0:0:0:0:
424,368,130651,2,0,P|421:328|440:248,1,99.0000030212403,8|0,0:1|0:0,0:0:0:0:
444,224,130934,2,0,L|516:200,1,66.0000020141602,8|2,0:0|0:0,0:0:0:0:
408,132,131217,2,0,P|370:129|320:112,1,66.0000020141602,2|8,0:1|0:1,0:0:0:0:
264,40,131500,6,0,L|120:68,1,132.00000402832,0|2,3:0|0:1,0:0:0:0:
52,24,131925,1,2,3:2:0:0:
12,108,132066,2,0,P|24:144|36:248,1,132.00000402832,10|2,0:2|3:1,0:0:0:0:
8,324,132491,1,8,0:1:0:0:
64,252,132632,2,0,P|95:235|140:232,1,66.0000020141602,2|2,3:1|0:0,0:0:0:0:
204,280,132915,2,0,B|292:304|292:304|291:341|296:360,1,132.00000402832,10|8,0:1|0:0,0:0:0:0:
400,328,133340,2,0,P|392:294|380:188,1,132.00000402832,8|10,0:1|0:1,0:0:0:0:
320,108,133764,6,0,P|353:102|400:88,1,66.0000020141602,0|2,3:0|0:0,0:0:0:0:
284,20,134047,2,0,P|252:11|219:6,1,66.0000020141602,2|2,0:1|3:2,0:0:0:0:
88,16,134330,2,0,P|64:76|124:140,1,132.00000402832,8|2,0:0|3:1,0:0:0:0:
184,100,134755,1,8,0:1:0:0:
184,100,134896,2,0,P|197:140|196:176,1,66.0000020141602,2|0,3:2|0:0,0:0:0:0:
120,216,135180,2,0,L|36:228,1,66.0000020141602,8|2,0:1|0:1,0:0:0:0:
108,332,135463,2,0,P|172:351|252:352,1,132.00000402832,10|10,0:0|0:1,0:0:0:0:
328,312,135887,1,2,0:0:0:0:
260,211,136029,6,0,B|264:159|212:115|212:115|216:67|260:46,1,198.000006042481,2|2,3:3|3:2,0:0:0:0:
380,120,136595,2,0,L|364:260,1,132.00000402832,10|2,0:0|3:1,0:0:0:0:
332,336,137019,1,8,0:1:0:0:
248,372,137161,2,0,P|212:368|168:348,1,66.0000020141602,2|8,3:1|0:1,0:0:0:0:
132,280,137444,2,0,L|64:300,1,66.0000020141602,2|8,3:1|0:1,0:0:0:0:
0,236,137727,5,8,0:0:0:0:
32,148,137868,1,8,0:0:0:0:
124,168,138010,2,0,L|188:151,1,66.0000020141602,8|8,3:0|3:0,0:0:0:0:
260,48,138293,22,0,P|340:8|388:36,1,132.00000402832,4|2,3:2|0:1,0:0:0:0:
448,72,138717,1,2,3:2:0:0:
448,72,138859,2,0,P|438:111|436:160,1,66.0000020141602,8|2,0:0|0:1,0:0:0:0:
356,184,139142,2,0,L|372:268,1,66.0000020141602,4|2,3:1|0:1,0:0:0:0:
444,348,139425,2,0,P|379:336|308:332,1,132.00000402832,2|4,3:3|0:1,0:0:0:0:
200,260,139849,2,0,P|237:253|276:240,2,66.0000020141602,2|8|4,3:3|3:2|0:1,0:0:0:0:
128,344,140274,2,0,P|96:342|48:332,1,66.0000020141602,2|8,3:3|0:1,0:0:0:0:
12,232,140557,6,0,P|-4:164|44:116,1,132.00000402832,4|2,3:1|0:1,0:0:0:0:
32,28,140981,1,2,3:2:0:0:
32,28,141123,2,0,L|112:48,1,66.0000020141602,10|2,0:0|0:1,0:0:0:0:
176,92,141406,2,0,L|240:75,1,66.0000020141602,4|0,3:1|0:0,0:0:0:0:
368,44,141689,2,0,P|328:92|344:176,1,132.00000402832,2|4,3:3|0:1,0:0:0:0:
436,228,142113,2,0,P|470:213|512:212,2,66.0000020141602,2|8|4,3:3|3:2|0:1,0:0:0:0:
356,304,142538,2,0,P|329:298|280:284,1,66.0000020141602,2|8,3:3|0:1,0:0:0:0:
224,220,142821,6,0,P|235:280|244:372,1,132.00000402832,4|2,3:1|0:0,0:0:0:0:
156,384,143246,1,2,3:1:0:0:
80,332,143387,2,0,P|82:299|96:260,1,66.0000020141602,8|0,0:0|0:0,0:0:0:0:
56,184,143670,2,0,L|40:108,1,66.0000020141602,2|8,3:2|0:1,0:0:0:0:
4,36,143953,2,0,P|40:80|128:64,1,132.00000402832,2|2,3:2|0:1,0:0:0:0:
324,4,144519,2,0,B|256:-8|204:40|204:40|220:80|200:136,1,198.000006042481,8|2,0:0|0:1,0:0:0:0:
312,168,145085,6,0,P|320:136|304:92,1,66.0000020141602,6|8,3:1|0:1,0:0:0:0:
220,192,145368,2,0,L|232:272,1,66.0000020141602,2|8,0:1|3:1,0:0:0:0:
120,196,145651,2,0,P|112:164|128:120,2,66.0000020141602,8|8|2,0:0|0:1|3:2,0:0:0:0:
88,312,146076,1,8,0:1:0:0:
88,312,146217,2,0,P|144:284|216:280,1,132.00000402832,2|10,3:2|0:1,0:0:0:0:
476,364,146783,2,0,P|427:384|364:380,1,99.0000030212403,8|0,0:0|0:0,0:0:0:0:
368,368,147066,5,8,0:2:0:0:
308,296,147208,1,8,0:2:0:0:
392,228,147349,22,0,L|372:72,1,132.00000402832,6|2,3:2|0:1,0:0:0:0:
284,112,147774,1,2,3:2:0:0:
284,112,147915,2,0,P|256:128|204:140,1,66.0000020141602,8|2,0:0|0:1,0:0:0:0:
184,224,148198,2,0,L|104:212,1,66.0000020141602,4|2,0:1|0:1,0:0:0:0:
36,172,148481,2,0,P|4:124|44:56,1,132.00000402832,2|4,3:0|0:1,0:0:0:0:
144,64,148906,2,0,P|148:27|156:0,2,66.0000020141602,2|8|4,3:3|3:2|0:1,0:0:0:0:
223,137,149330,2,0,L|307:121,1,66.0000020141602,2|8,3:3|0:1,0:0:0:0:
436,56,149613,6,0,P|400:92|416:180,1,132.00000402832,4|2,3:1|0:1,0:0:0:0:
488,212,150038,1,2,3:2:0:0:
412,272,150180,2,0,P|386:264|320:256,1,66.0000020141602,8|2,0:0|0:1,0:0:0:0:
292,332,150463,2,0,P|249:343|196:348,1,66.0000020141602,0|0,3:2|0:0,0:0:0:0:
136,236,150746,2,0,P|124:188|192:140,1,132.00000402832,2|4,3:0|0:1,0:0:0:0:
68,92,151170,2,0,P|31:90|0:84,2,66.0000020141602,2|8|4,3:0|3:2|0:1,0:0:0:0:
160,36,151595,2,0,L|232:24,1,66.0000020141602,2|8,3:0|0:1,0:0:0:0:
288,112,151878,6,0,P|352:148|416:132,1,132.00000402832,4|2,3:1|0:1,0:0:0:0:
460,64,152302,1,2,3:2:0:0:
412,160,152444,2,0,P|388:224|388:308,1,132.00000402832,8|2,0:0|3:2,0:0:0:0:
216,364,153010,2,0,P|207:334|200:288,1,66.0000020141602,2|0,3:2|0:0,0:0:0:0:
112,272,153293,2,0,P|116:237|128:184,1,66.0000020141602,2|8,0:1|0:1,0:0:0:0:
188,144,153576,2,0,P|116:163|40:172,1,132.00000402832,8|2,0:0|0:1,0:0:0:0:
172,24,154142,6,0,P|210:27|256:36,1,66.0000020141602,2|2,3:2|0:0,0:0:0:0:
312,88,154425,2,0,L|384:64,1,66.0000020141602,8|2,0:1|3:2,0:0:0:0:
476,48,154708,2,0,P|467:85|464:132,1,66.0000020141602,8|8,0:0|0:1,0:0:0:0:
372,168,154991,2,0,P|352:228|396:296,1,132.00000402832,2|2,3:1|3:2,0:0:0:0:
424,376,155415,2,0,B|360:392|360:356|284:380,1,132.00000402832,8|2,0:0|0:0,0:0:0:0:
208,340,155840,5,8,0:0:0:0:
116,356,155981,1,8,0:0:0:0:
72,276,156123,1,8,0:0:0:0:
124,200,156264,1,8,0:0:0:0:
137,208,156406,5,4,0:1:0:0:
137,208,156972,1,4,0:1:0:0:
137,208,157538,1,4,0:1:0:0:
137,208,158104,1,8,0:3:0:0:
137,208,158670,6,0,P|51:227|0:232,1,132.00000402832,6|2,3:2|0:0,0:0:0:0:
32,140,159095,1,0,3:1:0:0:
32,140,159236,2,0,P|41:102|40:60,1,66.0000020141602,0|0,1:3|0:0,0:0:0:0:
124,32,159519,2,0,P|125:64|133:96,1,66.0000020141602,2|4,3:2|0:3,0:0:0:0:
232,48,159802,2,0,P|280:20|372:56,2,132.00000402832,0|2|0,3:3|0:0|1:2,0:0:0:0:
256,136,160510,1,4,0:3:0:0:
256,136,160651,2,0,P|296:152|336:148,1,66.0000020141602,2|0,0:0|0:3,0:0:0:0:
424,112,160934,6,0,P|409:179|408:260,1,132.00000402832,0|2,3:2|0:0,0:0:0:0:
432,332,161359,1,0,3:0:0:0:
432,332,161500,2,0,P|466:325|516:312,1,66.0000020141602,0|0,1:0|0:0,0:0:0:0:
372,240,161783,2,0,L|296:232,1,66.0000020141602,2|4,0:0|0:3,0:0:0:0:
192,248,162066,2,0,P|224:320|208:384,2,132.00000402832,0|2|0,3:0|0:0|1:0,0:0:0:0:
108,208,162774,1,4,0:3:0:0:
108,208,162915,2,0,P|74:220|24:224,1,66.0000020141602,2|0,0:0|0:3,0:0:0:0:
48,120,163198,6,0,P|40:64|120:44,1,132.00000402832,2|2,3:1|0:0,0:0:0:0:
192,40,163623,1,2,3:1:0:0:
192,40,163764,2,0,L|272:56,1,66.0000020141602,0|0,1:0|0:0,0:0:0:0:
320,120,164047,2,0,L|396:100,1,66.0000020141602,6|4,0:2|0:3,0:0:0:0:
464,152,164330,2,0,P|466:101|476:12,2,132.00000402832,2|6|0,3:1|0:0|1:2,0:0:0:0:
428,236,165038,1,4,0:3:0:0:
428,236,165180,2,0,P|440:272|444:320,1,66.0000020141602,6|0,0:0|0:0,0:0:0:0:
328,292,165463,6,0,P|261:269|192:272,1,132.00000402832,2|2,3:1|0:0,0:0:0:0:
112,240,165887,1,2,3:1:0:0:
28,280,166029,2,0,P|29:323|48:368,1,66.0000020141602,0|4,1:0|0:3,0:0:0:0:
204,244,166312,2,0,L|216:160,1,66.0000020141602,6|0,0:0|0:0,0:0:0:0:
148,112,166595,2,0,P|92:152|16:144,2,132.00000402832,2|6|8,3:1|0:0|1:3,0:0:0:0:
196,32,167302,2,0,P|163:27|104:12,2,66.0000020141602,4|6|8,0:3|0:2|0:3,0:0:0:0:
304,112,167727,38,0,P|352:68|436:68,1,132.00000402832,6|2,3:2|0:0,0:0:0:0:
456,144,168151,1,0,3:1:0:0:
456,144,168293,2,0,P|442:183|438:218,1,66.0000020141602,0|0,1:3|0:0,0:0:0:0:
348,232,168576,2,0,P|358:267|364:312,1,66.0000020141602,2|4,3:2|0:3,0:0:0:0:
308,372,168859,2,0,L|444:384,2,132.00000402832,0|2|0,3:3|0:0|1:2,0:0:0:0:
232,316,169566,1,4,0:3:0:0:
232,316,169708,2,0,L|144:336,1,66.0000020141602,2|0,0:0|0:3,0:0:0:0:
52,276,169991,6,0,P|12:228|44:156,1,132.00000402832,0|2,3:2|0:0,0:0:0:0:
88,96,170415,1,0,3:0:0:0:
88,96,170557,2,0,P|112:128|120:172,1,66.0000020141602,0|0,1:0|0:0,0:0:0:0:
196,204,170840,2,0,P|198:177|216:136,1,66.0000020141602,2|4,3:2|0:3,0:0:0:0:
288,84,171123,2,0,L|440:64,2,132.00000402832,0|2|0,3:0|0:0|1:0,0:0:0:0:
328,168,171830,1,4,0:3:0:0:
328,168,171972,2,0,P|366:171|400:180,1,66.0000020141602,2|0,0:0|0:3,0:0:0:0:
472,272,172255,6,0,P|468:340|416:368,1,132.00000402832,2|2,3:1|0:0,0:0:0:0:
348,308,172680,1,2,3:1:0:0:
348,308,172821,2,0,L|272:320,1,66.0000020141602,0|0,1:0|0:0,0:0:0:0:
208,264,173104,2,0,L|136:248,1,66.0000020141602,6|4,0:2|0:3,0:0:0:0:
32,216,173387,2,0,B|38:279|44:304|44:304|12:336,2,132.00000402832,2|6|0,3:1|0:0|1:2,0:0:0:0:
92,148,174095,1,4,0:3:0:0:
92,148,174236,2,0,P|84:113|80:56,1,66.0000020141602,6|0,0:0|0:0,0:0:0:0:
168,28,174519,6,0,P|232:44|320:56,1,132.00000402832,2|2,3:1|0:0,0:0:0:0:
368,116,174944,1,2,3:1:0:0:
368,116,175085,2,0,L|444:100,1,66.0000020141602,0|4,1:0|0:3,0:0:0:0:
500,168,175368,2,0,L|486:232,1,66.0000020141602,6|0,0:0|0:0,0:0:0:0:
504,324,175651,1,2,3:1:0:0:
464,232,175793,6,0,P|432:208|332:228,1,143.999995605469,4|0,1:3|0:0,0:0:0:0:
292,328,176217,2,0,P|257:346|220:340,1,71.9999978027344,4|0,1:3|0:0,0:0:0:0:
176,264,176500,1,2,1:2:0:0:
88,240,176642,1,0,1:3:0:0:
44,156,176783,22,0,L|32:44,1,107.999996704102,6|0,3:2|0:0,0:0:0:0:
212,80,177349,2,0,L|223:187,1,107.999996704102,2|0,3:2|0:0,0:0:0:0:
176,264,177774,1,0,0:0:0:0:
176,264,177915,2,0,P|161:296|160:340,1,53.9999983520508,2|0,3:2|0:0,0:0:0:0:
228,368,178198,2,0,L|304:348,1,53.9999983520508,2|0,0:0|0:0,0:0:0:0:
344,292,178481,2,0,P|402:305|472:316,1,107.999996704102,2|2,3:2|0:0,0:0:0:0:
496,136,179047,6,0,L|432:152,1,53.9999983520508,2|2,3:2|0:0,0:0:0:0:
380,84,179330,2,0,L|316:68,1,53.9999983520508,2|2,0:0|0:0,0:0:0:0:
212,75,179613,2,0,P|168:108|104:108,1,107.999996704102,2|0,3:2|0:0,0:0:0:0:
32,76,180038,1,2,0:0:0:0:
4,164,180180,2,0,P|6:196|24:240,1,53.9999983520508,2|2,3:3|0:3,0:0:0:0:
76,284,180463,2,0,P|69:310|67:336,1,53.9999983520508,2|2,0:3|0:3,0:0:0:0:
180,332,180746,2,0,L|308:304,1,107.999996704102,2|2,3:3|0:3,0:0:0:0:
360,256,181170,1,2,0:3:0:0:
360,256,181312,6,0,P|336:312|340:380,1,107.999996704102,0|0,3:2|0:0,0:0:0:0:
464,228,181878,2,0,P|461:174|439:125,1,107.999996704102,2|0,3:2|0:0,0:0:0:0:
380,56,182302,1,0,0:0:0:0:
380,56,182444,2,0,L|312:76,1,53.9999983520508,2|2,3:2|0:0,0:0:0:0:
240,48,182727,2,0,L|172:40,1,53.9999983520508,2|2,0:0|0:0,0:0:0:0:
96,24,183010,1,2,3:2:0:0:
16,188,183293,2,0,P|4:166|0:124,1,53.9999983520508,2|2,0:0|0:0,0:0:0:0:
92,140,183576,6,0,L|80:272,1,107.999996704102,2|2,3:2|0:0,0:0:0:0:
136,320,184000,1,2,0:0:0:0:
136,320,184142,2,0,L|200:304,1,53.9999983520508,0|2,3:2|0:0,0:0:0:0:
276,328,184425,2,0,P|332:343|400:348,1,107.999996704102,2|0,0:0|3:2,0:0:0:0:
480,192,184991,2,0,L|412:208,1,53.9999983520508,2|2,0:0|0:0,0:0:0:0:
444,112,185274,2,0,L|496:99,2,53.9999983520508,2|0|2,3:2|0:0|0:0,0:0:0:0:
372,56,185698,1,2,0:0:0:0:
372,56,185840,38,0,P|308:52|252:40,1,107.999996704102,2|2,3:2|0:0,0:0:0:0:
72,20,186406,2,0,P|101:76|118:131,1,107.999996704102,2|2,3:2|0:0,0:0:0:0:
180,312,186972,2,0,P|214:258|253:216,1,107.999996704102,2|2,3:2|0:0,0:0:0:0:
256,136,187396,1,2,0:0:0:0:
256,136,187538,2,0,P|222:143|184:148,1,53.9999983520508,2|0,3:2|0:0,0:0:0:0:
114,118,187821,2,0,L|46:110,1,53.9999983520508,2|2,0:0|0:0,0:0:0:0:
20,192,188104,6,0,P|35:260|44:320,1,107.999996704102,2|2,3:3|0:3,0:0:0:0:
108,360,188529,1,2,0:3:0:0:
108,360,188670,2,0,L|172:344,1,53.9999983520508,2|2,3:3|0:3,0:0:0:0:
228,284,188953,2,0,L|292:300,1,53.9999983520508,2|2,0:3|0:3,0:0:0:0:
352,356,189236,1,2,3:3:0:0:
440,324,189378,1,2,0:3:0:0:
464,236,189519,2,0,P|461:206|448:172,1,53.9999983520508,2|2,0:3|0:3,0:0:0:0:
368,152,189802,2,0,P|370:125|378:99,1,53.9999983520508,2|2,3:3|0:3,0:0:0:0:
444,36,190085,6,0,L|516:48,2,53.9999983520508,2|2|4,0:3|0:3|0:1,0:0:0:0:
300,172,193764,38,0,B|320:192|316:228|316:228|368:192|424:212|424:212|440:268|396:288,1,251.999992309571,0|0,0:0|0:0,0:0:0:0:
296,352,194896,6,0,P|260:324|160:324,1,132.00000402832,6|2,3:2|0:0,0:0:0:0:
108,256,195321,1,2,3:1:0:0:
108,256,195463,2,0,L|32:280,1,66.0000020141602,8|2,0:0|0:1,0:0:0:0:
56,160,195746,2,0,B|60:119|72:68|72:68|40:24,2,132.00000402832,2|0|2,3:2|3:0|0:1,0:0:0:0:
148,172,196453,1,2,0:0:0:0:
148,172,196595,2,0,P|155:120|176:24,1,132.00000402832,8|2,0:0|0:1,0:0:0:0:
260,16,197019,1,8,0:1:0:0:
260,16,197161,6,0,P|281:43|288:88,1,66.0000020141602,0|0,3:0|0:0,0:0:0:0:
276,164,197444,2,0,P|306:153|352:144,1,66.0000020141602,2|2,0:1|3:2,0:0:0:0:
468,252,197727,2,0,P|430:242|332:232,1,132.00000402832,10|2,0:2|3:1,0:0:0:0:
248,252,198151,1,8,0:1:0:0:
248,252,198293,2,0,P|260:300|272:336,1,66.0000020141602,2|2,3:1|0:0,0:0:0:0:
164,384,198576,2,0,P|140:324|52:308,1,132.00000402832,10|8,0:1|0:0,0:0:0:0:
0,196,199000,2,0,P|63:205|121:137,1,132.00000402832,10|0,0:1|0:0,0:0:0:0:
168,88,199425,6,0,P|138:82|92:72,1,66.0000020141602,2|0,3:1|0:0,0:0:0:0:
232,16,199708,2,0,L|312:4,1,66.0000020141602,2|2,0:1|3:2,0:0:0:0:
273,123,199991,2,0,P|251:203|249:279,1,132.00000402832,10|2,0:0|3:1,0:0:0:0:
296,328,200415,1,8,0:1:0:0:
296,328,200557,2,0,P|335:323|380:312,1,66.0000020141602,2|2,3:2|0:0,0:0:0:0:
416,244,200840,2,0,L|488:256,1,66.0000020141602,10|2,0:1|0:1,0:0:0:0:
460,156,201123,2,0,P|436:100|448:48,1,99.0000030212403,10|0,0:0|0:0,0:0:0:0:
424,20,201406,2,0,P|391:38|336:52,1,66.0000020141602,8|2,0:1|0:0,0:0:0:0:
273,123,201689,6,0,B|224:108|204:56|204:56|168:100|104:96,1,198.000006042481,2|2,3:3|3:2,0:0:0:0:
52,180,202255,2,0,P|64:245|68:324,1,132.00000402832,10|2,0:0|3:1,0:0:0:0:
16,384,202680,1,8,0:1:0:0:
88,328,202821,2,0,P|116:316|156:312,1,66.0000020141602,2|8,3:1|0:1,0:0:0:0:
244,348,203104,2,0,P|274:360|307:364,1,66.0000020141602,2|0,3:1|0:0,0:0:0:0:
396,320,203387,2,0,L|376:212,1,99.0000030212403,8|0,0:0|0:0,0:0:0:0:
384,176,203670,5,8,0:0:0:0:
404,84,203812,1,8,0:0:0:0:
312,120,203953,22,0,P|244:140|176:148,1,132.00000402832,6|2,3:2|0:0,0:0:0:0:
128,232,204378,1,2,3:1:0:0:
56,164,204519,2,0,P|53:90|28:24,2,132.00000402832,8|2|0,0:0|3:2|3:0,0:0:0:0:
40,348,205368,2,0,P|26:313|36:272,1,66.0000020141602,8|2,0:1|0:0,0:0:0:0:
112,244,205651,1,8,0:0:0:0:
192,292,205793,1,2,0:0:0:0:
260,232,205934,2,0,L|340:240,1,66.0000020141602,2|8,0:1|0:1,0:0:0:0:
416,168,206217,6,0,P|372:136|384:48,1,132.00000402832,0|2,3:0|0:1,0:0:0:0:
296,12,206642,1,2,3:2:0:0:
296,12,206783,2,0,P|279:43|280:80,1,66.0000020141602,10|8,0:2|0:1,0:0:0:0:
204,128,207066,2,0,L|128:112,1,66.0000020141602,2|8,3:1|0:1,0:0:0:0:
68,52,207349,1,2,3:1:0:0:
128,140,207491,2,0,P|140:204|144:284,1,132.00000402832,10|2,0:0|0:1,0:0:0:0:
84,388,207915,2,0,P|124:352|216:372,1,132.00000402832,8|0,0:0|0:0,0:0:0:0:
272,304,208340,1,10,0:1:0:0:
272,304,208481,6,0,P|304:315|360:324,1,66.0000020141602,0|2,3:0|0:0,0:0:0:0:
404,260,208764,2,0,L|476:248,1,66.0000020141602,2|2,0:1|3:2,0:0:0:0:
420,172,209047,2,0,P|380:128|400:56,1,132.00000402832,8|2,0:0|3:1,0:0:0:0:
316,12,209472,1,8,0:1:0:0:
316,12,209613,2,0,L|240:28,1,66.0000020141602,2|0,3:2|0:0,0:0:0:0:
184,88,209896,2,0,P|149:82|120:64,1,66.0000020141602,8|2,0:1|0:1,0:0:0:0:
16,40,210180,2,0,P|32:108|36:176,1,132.00000402832,10|10,0:0|0:1,0:0:0:0:
8,256,210604,1,2,0:0:0:0:
116,324,210746,6,0,B|112:240|200:216|200:216|256:264,1,198.000006042481,2|2,3:3|3:2,0:0:0:0:
372,236,211312,2,0,P|396:276|396:308,1,66.0000020141602,14|0,0:0|0:0,0:0:0:0:
300,176,211595,2,0,L|316:104,1,66.0000020141602,2|8,3:1|0:1,0:0:0:0:
404,36,211878,5,10,3:2:0:0:
328,84,212019,1,8,0:2:0:0:
252,32,212161,2,0,L|164:16,1,66.0000020141602,10|10,3:2|0:2,0:0:0:0:
80,80,212444,2,0,P|78:39|68:8,2,66.0000020141602,8|8|8,0:0|0:0|3:0,0:0:0:0:
40,164,212868,1,8,3:0:0:0:
120,212,213010,22,0,P|180:248|264:240,1,132.00000402832,4|2,3:2|0:1,0:0:0:0:
312,192,213434,1,2,3:2:0:0:
324,96,213576,2,0,P|315:68|312:8,1,66.0000020141602,8|2,0:0|0:1,0:0:0:0:
424,80,213859,2,0,P|422:117|408:164,1,66.0000020141602,4|2,3:1|0:1,0:0:0:0:
384,272,214142,2,0,P|416:236|504:256,1,132.00000402832,2|4,3:3|0:1,0:0:0:0:
464,364,214566,2,0,P|505:370|552:372,2,66.0000020141602,2|8|4,3:3|3:2|0:1,0:0:0:0:
376,296,214991,2,0,P|335:305|292:320,1,66.0000020141602,2|8,3:3|0:1,0:0:0:0:
240,372,215274,6,0,P|171:365|88:352,1,132.00000402832,4|2,3:1|0:1,0:0:0:0:
48,288,215698,1,2,3:2:0:0:
48,288,215840,2,0,P|54:263|56:220,1,66.0000020141602,10|2,0:0|0:1,0:0:0:0:
8,144,216122,2,0,P|1:119|0:76,1,66.0000020141602,4|0,3:1|0:0,0:0:0:0:
112,24,216406,2,0,B|164:25|200:44|200:44|216:24|244:4,1,132.00000402832,2|4,3:3|0:1,0:0:0:0:
352,64,216830,2,0,P|391:73|440:80,2,66.0000020141602,2|8|4,3:3|3:2|0:1,0:0:0:0:
272,108,217255,2,0,P|260:160|272:196,1,66.0000020141602,2|8,3:3|0:1,0:0:0:0:
168,264,217538,6,0,P|156:194|136:124,1,132.00000402832,4|2,3:1|0:0,0:0:0:0:
52,112,217963,1,2,3:1:0:0:
52,112,218104,2,0,P|8:152|56:224,1,132.00000402832,8|2,0:0|3:2,0:0:0:0:
164,340,218670,2,0,P|208:296|288:312,1,132.00000402832,2|2,3:2|0:1,0:0:0:0:
348,248,219095,1,8,0:1:0:0:
348,248,219236,2,0,B|396:248|424:272|424:272|476:228|432:152,1,198.000006042481,8|2,0:0|0:1,0:0:0:0:
320,136,219802,6,0,L|232:160,1,66.0000020141602,6|8,3:1|0:1,0:0:0:0:
196,84,220085,2,0,L|108:68,1,66.0000020141602,2|8,0:1|3:1,0:0:0:0:
56,16,220368,1,8,0:0:0:0:
8,96,220510,2,0,P|-4:144|16:180,1,66.0000020141602,10|2,0:1|3:2,0:0:0:0:
64,224,220793,1,8,0:1:0:0:
64,224,220934,2,0,L|80:368,1,132.00000402832,2|10,3:2|0:1,0:0:0:0:
260,324,221500,5,8,0:0:0:0:
344,360,221642,1,10,0:2:0:0:
408,296,221783,2,0,P|408:268|388:228,1,66.0000020141602,8|8,0:3|0:3,0:0:0:0:
324,144,222066,22,0,P|372:180|468:164,1,132.00000402832,6|2,3:2|0:1,0:0:0:0:
476,92,222491,1,2,3:2:0:0:
404,32,222632,2,0,P|372:44|320:56,1,66.0000020141602,8|2,0:0|0:1,0:0:0:0:
260,96,222915,2,0,L|188:80,1,66.0000020141602,4|2,0:1|0:1,0:0:0:0:
76,24,223198,2,0,P|89:85|96:172,1,132.00000402832,2|4,3:0|0:1,0:0:0:0:
44,266,223623,2,0,P|16:318|24:342,2,66.0000020141602,2|8|4,3:3|3:2|0:1,0:0:0:0:
136,252,224047,2,0,P|168:271|208:280,1,66.0000020141602,2|8,3:3|0:1,0:0:0:0:
268,220,224330,6,0,P|244:160|260:96,1,132.00000402832,4|2,3:1|0:1,0:0:0:0:
341,52,224755,1,2,3:2:0:0:
408,116,224896,2,0,P|406:150|396:188,1,66.0000020141602,8|2,0:0|0:1,0:0:0:0:
484,216,225180,2,0,L|496:312,1,66.0000020141602,0|0,3:2|0:0,0:0:0:0:
396,360,225463,2,0,B|300:344|300:344|284:288,1,132.00000402832,2|4,3:0|0:1,0:0:0:0:
168,288,225887,2,0,P|154:329|156:364,2,66.0000020141602,2|8|4,3:0|3:2|0:1,0:0:0:0:
200,180,226312,2,0,P|167:174|116:164,1,66.0000020141602,2|8,3:0|0:1,0:0:0:0:
24,76,226595,6,0,P|56:28|140:44,1,132.00000402832,6|2,3:2|0:1,0:0:0:0:
204,76,227019,1,2,3:2:0:0:
204,76,227161,2,0,P|273:87|364:96,1,132.00000402832,8|6,0:0|0:1,0:0:0:0:
496,184,227727,2,0,P|448:172|384:224,1,132.00000402832,2|2,3:2|0:1,0:0:0:0:
408,308,228151,1,8,0:1:0:0:
408,308,228293,2,0,B|328:284|320:392|196:320,1,198.000006042481,8|2,0:0|0:0,0:0:0:0:
116,288,228859,6,0,P|106:320|108:360,1,66.0000020141602,2|2,3:2|0:0,0:0:0:0:
20,252,229142,2,0,L|4:180,1,66.0000020141602,8|2,0:1|3:2,0:0:0:0:
68,120,229425,2,0,L|76:36,1,66.0000020141602,8|8,0:0|0:1,0:0:0:0:
156,8,229708,2,0,P|196:12|228:28,1,66.0000020141602,2|8,3:1|0:1,0:0:0:0:
292,92,229991,5,10,3:2:0:0:
256,176,230132,1,10,0:2:0:0:
324,240,230274,2,0,P|356:237|387:225,1,66.0000020141602,10|10,0:2|0:2,0:0:0:0:
468,136,230557,2,0,P|468:108|480:60,2,66.0000020141602,8|8|8,0:0|0:0|0:0,0:0:0:0:
500,220,230981,1,8,0:0:0:0:
408,308,231123,6,0,P|352:276|272:288,1,120,6|2,3:2|0:0,0:0:0:0:
212,252,231547,2,0,P|202:286|200:320,1,60,2|0,0:0|3:0,0:0:0:0:
104,344,231830,2,0,P|94:309|92:276,1,60,2|0,0:0|0:0,0:0:0:0:
32,216,232113,1,2,0:0:0:0:
32,216,232255,2,0,P|48:147|52:84,1,120,0|2,3:0|0:0,0:0:0:0:
208,8,232821,2,0,P|224:76|228:140,1,120,2|2,3:2|0:0,0:0:0:0:
208,216,233246,1,0,0:0:0:0:
208,216,233387,6,0,P|240:168|312:164,1,120,2|2,0:0|0:0,0:0:0:0:
388,140,233812,2,0,P|398:213|404:280,1,120,2|2,0:0|0:0,0:0:0:0:
252,356,234378,2,0,P|252:330|260:292,1,60,2|0,0:0|0:0,0:0:0:0:
208,216,234661,2,0,P|181:233|136:248,1,60,2|0,0:0|0:0,0:0:0:0:
84,188,234944,2,0,P|48:144|124:60,1,180,2|2,0:0|0:0,0:0:0:0:
276,132,235651,69,4,3:2:0:0:
