osu file format v14

[General]
AudioFilename: audio.mp3
AudioLeadIn: 0
PreviewTime: 44518
Countdown: 0
SampleSet: Normal
StackLeniency: 0.7
Mode: 3
LetterboxInBreaks: 0
SpecialStyle: 0
WidescreenStoryboard: 1

[Editor]
DistanceSpacing: 1
BeatDivisor: 4
GridSize: 8
TimelineZoom: 2.2

[Metadata]
Title:gravityWall (TV Size)
TitleUnicode:gravityWall (TV Size)
Artist:SawanoHiroyuki[nZk]:Tielle & Gemie
ArtistUnicode:SawanoHiroyuki[nZk]:Tielle & Gemie
Creator:Virtue-
Version:Easy
Source:レクリエイターズ
Tags:レクリエイターズ Re:Kurieitāzu Re:CREATORS Troyca gravityWall / shØut SawanoHiroyuki SACRA MUSIC spring anime 2017
BeatmapID:1273898
BeatmapSetID:603115

[Difficulty]
HPDrainRate:7
CircleSize:4
OverallDifficulty:7
ApproachRate:5
SliderMultiplier:1.4
SliderTickRate:1

[Events]
//Background and Video events
0,0,"bg easy.jpg",0,0
//Break Periods
//Storyboard Layer 0 (Background)
//Storyboard Layer 1 (Fail)
//Storyboard Layer 2 (Pass)
//Storyboard Layer 3 (Foreground)
//Storyboard Sound Samples

[TimingPoints]
288,512.820512820513,4,1,1,40,1,0
45416,-100,4,1,1,40,0,1
78236,-100,4,1,1,40,0,0

[HitObjects]
448,192,288,128,0,4134:0:0:0:0:
64,192,4390,1,4,0:0:0:0:
192,192,4390,1,2,0:0:0:0:
448,192,4903,1,8,0:0:0:0:
192,192,5159,1,2,0:0:0:0:
64,192,5672,1,0,0:0:0:0:
320,192,5929,1,8,0:0:0:0:
448,192,6441,1,2,0:0:0:0:
64,192,6954,1,8,0:0:0:0:
320,192,7211,1,2,0:0:0:0:
448,192,7723,1,0,0:0:0:0:
192,192,7980,1,8,0:0:0:0:
64,192,8236,1,2,0:0:0:0:
448,192,8493,1,2,0:0:0:0:
192,192,9005,1,8,0:0:0:0:
448,192,9262,1,2,0:0:0:0:
64,192,9775,1,0,0:0:0:0:
320,192,10031,1,8,0:0:0:0:
448,192,10544,1,2,0:0:0:0:
64,192,11057,1,8,0:0:0:0:
320,192,11313,1,2,0:0:0:0:
448,192,11826,1,0,0:0:0:0:
192,192,12082,1,8,0:0:0:0:
320,192,12339,1,2,0:0:0:0:
64,192,12595,1,4,0:0:0:0:
448,192,12595,1,2,0:0:0:0:
192,192,13108,1,8,0:0:0:0:
448,192,13364,1,2,0:0:0:0:
320,192,13877,1,0,0:0:0:0:
64,192,14134,1,8,0:0:0:0:
192,192,14646,1,2,0:0:0:0:
448,192,15159,1,8,0:0:0:0:
64,192,15416,1,2,0:0:0:0:
320,192,15929,1,0,0:0:0:0:
448,192,16185,1,8,0:0:0:0:
64,192,16441,1,2,0:0:0:0:
320,192,16698,1,2,0:0:0:0:
192,192,17211,1,8,0:0:0:0:
448,192,17467,1,2,0:0:0:0:
64,192,17980,1,0,0:0:0:0:
320,192,18236,1,8,0:0:0:0:
448,192,18749,1,2,0:0:0:0:
64,192,19262,1,8,0:0:0:0:
320,192,19518,1,2,0:0:0:0:
192,192,20031,1,0,0:0:0:0:
448,192,20288,1,8,0:0:0:0:
64,192,20544,1,2,0:0:0:0:
320,192,20800,1,2,0:0:0:0:
448,192,20800,1,4,0:0:0:0:
64,192,21313,1,8,0:0:0:0:
448,192,21570,1,2,0:0:0:0:
192,192,22082,1,0,0:0:0:0:
448,192,22339,1,8,0:0:0:0:
64,192,22852,1,2,0:0:0:0:
192,192,23364,1,8,0:0:0:0:
448,192,23621,1,2,0:0:0:0:
320,192,24134,1,0,0:0:0:0:
64,192,24390,1,8,0:0:0:0:
448,192,24646,1,2,0:0:0:0:
192,192,24903,1,2,0:0:0:0:
448,192,25416,1,8,0:0:0:0:
64,192,25672,1,2,0:0:0:0:
192,192,26185,1,0,0:0:0:0:
448,192,26441,1,8,0:0:0:0:
320,192,26954,1,2,0:0:0:0:
448,192,27467,1,8,0:0:0:0:
64,192,27723,1,2,0:0:0:0:
320,192,28236,1,0,0:0:0:0:
64,192,28493,1,8,0:0:0:0:
448,192,28749,1,2,0:0:0:0:
192,192,29005,1,2,0:0:0:0:
448,192,29518,1,8,0:0:0:0:
64,192,29775,1,2,0:0:0:0:
320,192,30288,1,0,0:0:0:0:
448,192,30544,1,8,0:0:0:0:
192,192,31057,1,2,0:0:0:0:
448,192,31570,1,8,0:0:0:0:
64,192,31826,1,2,0:0:0:0:
192,192,32339,1,0,0:0:0:0:
448,192,32595,1,8,0:0:0:0:
192,192,32852,1,2,0:0:0:0:
320,192,33108,1,2,0:0:0:0:
448,192,33621,1,8,0:0:0:0:
320,192,33877,1,2,0:0:0:0:
64,192,34390,1,0,0:0:0:0:
192,192,34646,1,8,0:0:0:0:
320,192,34903,1,2,0:0:0:0:
448,192,35159,1,2,0:0:0:0:
64,192,35672,1,8,0:0:0:0:
320,192,35929,1,2,0:0:0:0:
448,192,36441,1,0,0:0:0:0:
64,192,36698,1,2,0:0:0:0:
192,192,36954,1,8,0:0:0:0:
448,192,37211,128,0,39262:0:0:0:0:
64,192,39262,128,0,41313:0:0:0:0:
448,192,41313,128,0,42595:0:0:0:0:
192,192,42595,128,0,43364:0:0:0:0:
64,192,43364,128,0,44390:0:0:0:0:
448,192,44646,128,0,45416:0:0:0:0:
192,192,45416,128,4,47467:0:0:0:0:
64,192,45416,1,2,0:0:0:0:
448,192,45929,1,8,0:0:0:0:
64,192,46185,1,2,0:0:0:0:
320,192,46954,1,8,0:0:0:0:
448,192,47467,128,2,49518:0:0:0:0:
64,192,47980,1,8,0:0:0:0:
320,192,48236,1,2,0:0:0:0:
192,192,49005,1,8,0:0:0:0:
320,192,49262,1,2,0:0:0:0:
64,192,49518,128,2,51570:0:0:0:0:
448,192,50031,1,8,0:0:0:0:
192,192,50288,1,2,0:0:0:0:
448,192,51057,1,8,0:0:0:0:
320,192,51570,128,2,53621:0:0:0:0:
448,192,52082,1,8,0:0:0:0:
64,192,52339,1,2,0:0:0:0:
192,192,53108,1,8,0:0:0:0:
448,192,53364,1,2,0:0:0:0:
192,192,53621,1,2,0:0:0:0:
64,192,53621,128,4,55672:0:0:0:0:
448,192,54134,1,8,0:0:0:0:
192,192,54390,1,2,0:0:0:0:
320,192,55159,1,8,0:0:0:0:
448,192,55672,128,2,57723:0:0:0:0:
320,192,56185,1,8,0:0:0:0:
64,192,56441,1,2,0:0:0:0:
64,192,57211,1,8,0:0:0:0:
320,192,57467,1,2,0:0:0:0:
192,192,57723,128,2,59775:0:0:0:0:
448,192,58236,1,8,0:0:0:0:
64,192,58493,1,2,0:0:0:0:
320,192,59262,1,8,0:0:0:0:
448,192,59775,128,2,61826:0:0:0:0:
64,192,60288,1,8,0:0:0:0:
320,192,60544,1,2,0:0:0:0:
64,192,61313,1,8,0:0:0:0:
192,192,61570,1,2,0:0:0:0:
320,192,61826,1,2,0:0:0:0:
64,192,61826,128,4,63877:0:0:0:0:
448,192,62339,1,8,0:0:0:0:
192,192,62595,1,2,0:0:0:0:
320,192,63364,1,8,0:0:0:0:
448,192,63877,128,2,65929:0:0:0:0:
320,192,64390,1,8,0:0:0:0:
64,192,64646,1,2,0:0:0:0:
64,192,65416,1,8,0:0:0:0:
320,192,65672,1,2,0:0:0:0:
192,192,65929,128,2,67980:0:0:0:0:
448,192,66441,1,8,0:0:0:0:
64,192,66698,1,2,0:0:0:0:
320,192,67467,1,8,0:0:0:0:
448,192,67980,128,2,70031:0:0:0:0:
64,192,68493,1,8,0:0:0:0:
320,192,68749,1,2,0:0:0:0:
192,192,69518,1,8,0:0:0:0:
320,192,69775,1,2,0:0:0:0:
64,192,70031,128,4,72082:0:0:0:0:
192,192,70031,1,2,0:0:0:0:
448,192,70544,1,8,0:0:0:0:
320,192,70800,1,2,0:0:0:0:
192,192,71570,1,8,0:0:0:0:
320,192,72082,128,2,74134:0:0:0:0:
192,192,72595,1,8,0:0:0:0:
64,192,72852,1,2,0:0:0:0:
448,192,73621,1,8,0:0:0:0:
192,192,73877,1,2,0:0:0:0:
64,192,74134,128,2,76185:0:0:0:0:
448,192,74646,1,8,0:0:0:0:
192,192,74903,1,2,0:0:0:0:
320,192,75672,1,8,0:0:0:0:
448,192,76185,128,2,78236:0:0:0:0:
64,192,76698,1,8,0:0:0:0:
320,192,76954,1,2,0:0:0:0:
192,192,77723,1,8,0:0:0:0:
64,192,77980,1,2,0:0:0:0:
320,192,78236,128,0,79775:0:0:0:0:
64,192,80288,1,4,0:0:0:0:
448,192,80288,1,2,0:0:0:0:
192,192,80800,1,8,0:0:0:0:
448,192,81313,1,2,0:0:0:0:
64,192,81826,1,8,0:0:0:0:
320,192,82339,1,2,0:0:0:0:
448,192,82852,1,8,0:0:0:0:
64,192,83364,1,2,0:0:0:0:
192,192,83877,1,8,0:0:0:0:
448,192,84390,1,2,0:0:0:0:
64,192,84903,1,8,0:0:0:0:
320,192,85416,1,2,0:0:0:0:
448,192,85929,1,8,0:0:0:0:
192,192,86441,1,2,0:0:0:0:
64,192,86954,1,8,0:0:0:0:
320,192,87467,1,2,0:0:0:0:
448,192,87980,1,8,0:0:0:0:
64,192,88493,1,2,0:0:0:0:
192,192,88493,1,4,0:0:0:0:
448,192,89005,1,8,0:0:0:0:
64,192,89518,1,2,0:0:0:0:
192,192,90031,1,8,0:0:0:0:
448,192,90544,1,2,0:0:0:0:
64,192,91057,1,8,0:0:0:0:
320,192,91570,1,2,0:0:0:0:
448,192,92082,1,8,0:0:0:0:
64,192,92595,1,2,0:0:0:0:
192,192,93108,1,8,0:0:0:0:
448,192,93621,1,2,0:0:0:0:
64,192,94134,1,8,0:0:0:0:
320,192,94646,1,2,0:0:0:0:
448,192,95159,1,8,0:0:0:0:
64,192,95672,1,2,0:0:0:0:
448,192,95929,1,8,0:0:0:0:
192,192,96185,1,2,0:0:0:0:
320,192,96441,1,8,0:0:0:0:
448,192,96698,1,2,0:0:0:0:
64,192,96698,1,4,0:0:0:0:
192,192,97211,1,8,0:0:0:0:
320,192,97723,1,2,0:0:0:0:
448,192,98236,1,8,0:0:0:0:
64,192,98749,1,2,0:0:0:0:
192,192,99262,1,8,0:0:0:0:
448,192,99775,1,2,0:0:0:0:
64,192,100288,1,8,0:0:0:0:
320,192,100800,1,2,0:0:0:0:
192,192,101313,1,8,0:0:0:0:
64,192,101826,1,2,0:0:0:0:
448,192,102339,1,8,0:0:0:0:
320,192,102852,1,2,0:0:0:0:
64,192,103364,1,8,0:0:0:0:
192,192,103877,1,2,0:0:0:0:
320,192,104390,1,8,0:0:0:0:
192,192,104646,1,8,0:0:0:0:
448,192,104903,1,4,0:0:0:0:
64,192,104903,1,2,0:0:0:0:
192,192,105416,1,8,0:0:0:0:
448,192,105929,1,2,0:0:0:0:
64,192,106441,1,8,0:0:0:0:
320,192,106954,1,2,0:0:0:0:
448,192,107467,1,8,0:0:0:0:
64,192,107980,1,2,0:0:0:0:
192,192,108493,1,8,0:0:0:0:
448,192,109005,1,2,0:0:0:0:
320,192,109518,1,8,0:0:0:0:
192,192,110031,1,2,0:0:0:0:
64,192,110544,1,8,0:0:0:0:
320,192,111057,1,2,0:0:0:0:
448,192,111570,1,8,0:0:0:0:
64,192,112082,1,2,0:0:0:0:
448,192,112339,1,0,0:0:0:0:
192,192,112595,1,8,0:0:0:0:
64,192,112852,1,0,0:0:0:0:
448,192,112980,1,8,0:0:0:0:
