osu file format v14

[General]
AudioFilename: audio.ogg
AudioLeadIn: 0
PreviewTime: 30795
Countdown: 0
SampleSet: Soft
StackLeniency: 0.7
Mode: 0
LetterboxInBreaks: 0
WidescreenStoryboard: 1

[Editor]
Bookmarks: 22933,31428,48419,65411,84526
DistanceSpacing: 1.1
BeatDivisor: 4
GridSize: 8
TimelineZoom: 1

[Metadata]
Title:LEveL (TV Size)
TitleUnicode:LEveL (TV Size)
Artist:SawanoHiroyuki[nZk]:TOMORROW X TOGETHER
ArtistUnicode:SawanoHiroyuki[nZk]:TOMORROW X TOGETHER
Creator:AirinCat
Version:D-Rank
Source:俺だけレベルアップな件
Tags:kyouren txt tomorrow solo leveling i level up alone Ore dake Level Up na Ken Na Honjaman 나 혼자만 레벨업 english pop anime opening sawano hiroyuki 澤野弘之 nzk by 최수빈 choi soo bin 수빈 soobin soo-bin subin 최연준 choi yeon jun 연준 yeonjun yeon-jun 최범규 choi beom gyu 범규 beomgyu beom-gyu 강태현 kang tae hyun 태현 taehyun tae-hyun 카이 카말 휴닝 kai kamal 휴닝카이 huening kai Benjamin korean boyband boy band group op jpop j-pop japanese 투모로우바이투게더 gokugohan12468 kittyadventure
BeatmapID:4443466
BeatmapSetID:2115893

[Difficulty]
HPDrainRate:3
CircleSize:3
OverallDifficulty:4
ApproachRate:5.6
SliderMultiplier:1.4
SliderTickRate:1

[Events]
//Background and Video events
0,0,"a.jpg",0,0
Video,-95,"Videoedit.mp4"
//Break Periods
2,23562,29951
//Storyboard Layer 0 (Background)
//Storyboard Layer 1 (Fail)
//Storyboard Layer 2 (Pass)
//Storyboard Layer 3 (Foreground)
//Storyboard Layer 4 (Overlay)
//Storyboard Sound Samples

[TimingPoints]
6371,530.973451327434,4,2,1,60,1,0
6371,-83.3333333333333,4,2,1,60,0,0
23362,-83.3333333333333,4,2,1,30,0,0
27609,-83.3333333333333,4,2,1,40,0,0
31061,-83.3333333333333,4,2,1,70,0,0
31857,-83.3333333333333,4,3,1,70,0,0
48848,-83.3333333333333,4,3,1,60,0,0
67963,-83.3333333333333,4,3,1,60,0,1
80972,-83.3333333333333,4,3,1,50,0,1
83362,-83.3333333333333,4,2,1,60,0,0
84424,-83.3333333333333,4,2,1,60,0,0
84955,-83.3333333333333,4,2,1,15,0,0
88140,-83.3333333333333,4,2,1,5,0,0

[Colours]
Combo1 : 248,213,184
Combo2 : 182,174,251
Combo3 : 150,165,250

[HitObjects]
136,150,6371,6,0,P|73:144|18:176,1,125.999996154785,6|2,1:2|0:2,0:2:0:0:
30,269,7034,1,2,0:2:0:0:
30,269,7167,2,0,P|111:279|184:232,1,167.999994873047,2|0,1:2|1:2,0:2:0:0:
236,160,7963,2,0,P|225:116|213:68,1,83.9999974365235,8|2,0:2|3:2,0:0:0:0:
306,61,8494,6,0,P|366:29|439:41,1,125.999996154785,2|2,1:2|0:2,0:2:0:0:
496,97,9158,1,2,0:2:0:0:
496,97,9291,2,0,P|481:190|473:278,1,167.999994873047,2|0,1:2|1:2,0:2:0:0:
412,332,10087,1,8,0:2:0:0:
331,285,10353,1,2,1:2:0:0:
249,328,10618,6,0,P|177:342|108:359,1,125.999996154785,2|2,1:2|0:2,0:2:0:0:
58,299,11282,1,2,0:2:0:0:
58,299,11415,2,0,P|66:230|88:126,1,167.999994873047,2|0,0:2|1:2,0:2:0:0:
64,43,12211,1,8,0:2:0:0:
152,16,12477,6,0,P|195:24|251:32,1,83.9999974365235,2|2,3:2|1:2,0:2:0:0:
300,95,13008,2,0,P|337:84|391:67,1,83.9999974365235,2|8,0:2|0:2,0:0:0:0:
456,123,13539,2,0,P|469:160|483:218,1,83.9999974365235,2|0,1:2|0:0,0:0:0:0:
444,288,14070,2,0,P|405:300|356:307,1,83.9999974365235,2|8,1:2|0:0,0:0:0:0:
284,256,14601,1,2,1:2:0:0:
290,163,14866,6,0,P|286:94|243:44,1,125.999996154785,6|2,1:2|0:2,0:2:0:0:
163,52,15530,1,2,0:2:0:0:
163,52,15663,2,0,P|127:127|131:210,1,167.999994873047,2|0,1:2|1:2,0:2:0:0:
190,281,16459,1,8,0:2:0:0:
274,243,16724,1,2,3:2:0:0:
344,302,16990,6,0,P|405:314|483:324,1,125.999996154785,2|2,1:2|0:2,0:2:0:0:
488,235,17654,1,2,0:2:0:0:
488,235,17786,2,0,P|493:135|518:58,1,167.999994873047,2|0,1:2|1:2,0:2:0:0:
445,6,18583,1,8,0:2:0:0:
352,6,18848,1,2,1:2:0:0:
270,49,19114,6,0,P|251:107|245:173,1,125.999996154785,2|2,1:2|0:2,0:2:0:0:
296,255,19778,1,2,0:2:0:0:
296,255,19910,2,0,P|223:299|131:271,1,167.999994873047,2|0,1:2|1:2,0:2:0:0:
67,232,20707,1,10,0:2:0:0:
48,141,20972,1,2,0:2:0:0:
94,61,21238,6,0,P|128:57|185:41,1,83.9999974365235,2|0,1:2|0:2,0:2:0:0:
255,91,21769,2,0,P|308:99|344:114,1,83.9999974365235,10|0,0:2|1:2,0:2:0:0:
396,39,22300,2,0,P|434:33|486:12,1,83.9999974365235,2|0,0:2|1:2,0:2:0:0:
485,109,22831,2,0,P|496:145|503:198,1,83.9999974365235,10|2,0:2|0:2,0:2:0:0:
450,267,23362,5,2,3:2:0:0:
226,115,31061,6,0,P|231:76|237:26,2,83.9999974365235,2|2|2,0:0|0:2|0:0,0:0:0:0:
150,169,31857,2,0,P|103:161|54:149,1,83.9999974365235,6|2,1:2|0:2,0:2:0:0:
28,177,32255,2,0,P|-1:231|11:291,1,125.999996154785,2|2,0:2|0:2,0:2:0:0:
81,351,32919,2,0,P|156:334|253:313,1,167.999994873047,2|8,1:2|0:2,0:2:0:0:
309,248,33716,5,2,0:2:0:0:
309,248,33848,2,0,P|378:258|441:271,1,125.999996154785,2|2,0:2|0:2,0:2:0:0:
509,216,34512,1,10,0:2:0:0:
507,123,34778,1,2,0:2:0:0:
424,81,35043,2,0,L|320:106,1,83.9999974365235,2|0,1:2|0:2,0:2:0:0:
287,175,35574,2,0,P|292:220|304:277,1,83.9999974365235,14|0,0:2|0:2,0:2:0:0:
258,340,36105,5,4,1:1:0:0:
169,335,36371,1,2,0:2:0:0:
169,335,36503,2,0,P|157:268|151:198,1,125.999996154785,2|2,0:2|0:2,0:2:0:0:
211,139,37167,2,0,P|212:57|153:0,1,167.999994873047,2|8,1:2|0:2,0:2:0:0:
67,26,37963,5,2,0:2:0:0:
67,26,38096,2,0,P|44:83|57:144,1,125.999996154785,2|2,0:2|0:2,0:2:0:0:
119,213,38760,1,10,0:2:0:0:
52,276,39025,1,2,0:2:0:0:
111,347,39291,2,0,P|197:325|287:310,1,167.999994873047,2|14,1:2|0:2,0:2:0:0:
380,159,40353,6,0,P|360:94|350:25,2,125.999996154785,6|2|2,1:1|0:2|0:2,0:2:0:0:
466,193,41415,2,0,P|480:238|484:280,1,83.9999974365235,0|0,1:2|0:0,0:0:0:0:
415,336,41946,1,10,0:2:0:0:
337,286,42211,1,2,0:2:0:0:
251,321,42477,6,0,P|184:333|108:355,2,125.999996154785,2|2|2,1:2|0:2|0:2,0:2:0:0:
254,228,43539,2,0,P|256:184|268:144,1,83.9999974365235,0|0,1:2|0:0,0:0:0:0:
233,59,44070,1,10,0:2:0:0:
145,29,44335,1,2,0:2:0:0:
61,68,44601,6,0,P|23:119|35:183,1,125.999996154785,2|2,1:2|0:2,0:2:0:0:
65,271,45264,1,2,0:2:0:0:
65,271,45397,2,0,P|150:253|262:234,1,167.999994873047,2|0,0:2|0:2,0:2:0:0:
320,277,46194,1,10,0:2:0:0:
394,223,46459,2,0,P|401:175|410:125,1,83.9999974365235,2|0,0:2|1:2,0:2:0:0:
455,62,46990,5,2,0:2:0:0:
455,62,47123,2,0,P|396:41|335:53,1,125.999996154785,2|2,0:2|0:2,0:2:0:0:
271,120,47786,2,0,P|279:186|294:297,1,167.999994873047,2|2,1:2|0:2,0:2:0:0:
134,382,48848,6,0,L|121:280,1,83.9999974365235,6|0,1:1|0:2,0:2:0:0:
65,226,49379,2,0,L|80:138,1,83.9999974365235,10|0,0:2|0:2,0:2:0:0:
115,113,49778,1,2,0:1:0:0:
185,54,50043,2,0,P|248:49|315:89,1,125.999996154785,2|8,0:2|0:2,0:2:0:0:
346,157,50707,6,0,L|338:205,2,41.9999987182618,2|2|2,0:2|0:2|1:2,0:0:0:0:
418,99,51238,1,0,0:2:0:0:
475,170,51503,2,0,L|460:271,1,83.9999974365235,10|0,0:2|0:2,0:2:0:0:
487,291,51901,1,2,0:1:0:0:
413,347,52167,2,0,P|354:337|262:318,1,125.999996154785,2|8,0:2|0:2,0:2:0:0:
226,256,52831,1,2,0:2:0:0:
154,313,53096,6,0,L|70:339,1,83.9999974365235,2|0,1:2|0:2,0:2:0:0:
4,276,53627,2,0,L|18:186,1,83.9999974365235,10|0,0:2|0:2,0:2:0:0:
4,148,54025,1,2,0:1:0:0:
84,103,54291,2,0,P|162:117|221:132,1,125.999996154785,2|8,0:2|0:2,0:2:0:0:
264,201,54955,2,0,P|254:239|248:286,1,83.9999974365235,2|0,0:2|1:2,0:0:0:0:
339,299,55486,6,0,P|385:306|427:310,1,83.9999974365235,2|8,0:1|0:2,0:2:0:0:
421,217,56017,2,0,P|427:172|429:133,1,83.9999974365235,2|0,0:1|1:2,0:2:0:0:
339,111,56547,2,0,P|288:106|253:100,1,83.9999974365235,2|8,0:1|0:2,0:2:0:0:
203,177,57078,1,2,0:1:0:0:
137,111,57344,6,0,P|140:67|156:14,1,83.9999974365235,6|0,1:1|0:2,0:2:0:0:
59,9,57875,2,0,P|55:52|40:106,1,83.9999974365235,10|0,0:2|0:2,0:2:0:0:
11,122,58273,1,2,0:1:0:0:
38,210,58539,2,0,P|48:269|50:341,1,125.999996154785,2|8,0:2|0:2,0:2:0:0:
142,327,59202,6,0,L|140:273,2,41.9999987182618,2|2|2,0:2|0:2|1:2,0:0:0:0:
224,368,59733,1,0,0:2:0:0:
304,321,59999,2,0,P|302:280|294:227,1,83.9999974365235,10|0,0:2|0:2,0:2:0:0:
264,203,60397,1,2,0:1:0:0:
318,127,60663,2,0,B|342:110|368:91|368:91|436:111,1,125.999996154785,2|8,0:2|0:2,0:2:0:0:
486,182,61326,1,2,0:2:0:0:
477,274,61592,6,0,P|436:283|391:294,1,83.9999974365235,2|0,1:2|0:2,0:2:0:0:
302,284,62123,2,0,P|251:295|206:306,1,83.9999974365235,10|0,0:2|0:2,0:2:0:0:
192,339,62521,1,2,0:1:0:0:
132,268,62786,2,0,P|140:205|150:132,1,125.999996154785,2|8,0:2|0:2,0:2:0:0:
217,81,63450,2,0,L|198:-6,1,83.9999974365235,2|0,0:2|1:2,0:2:0:0:
88,0,63981,6,0,L|37:10,2,41.9999987182618,2|2|8,0:1|0:2|0:2,0:0:0:0:
69,90,64512,2,0,L|18:98,2,41.9999987182618,2|2|0,0:1|0:2|1:2,0:0:0:0:
56,181,65043,2,0,L|1:188,2,41.9999987182618,2|2|8,0:1|0:2|0:2,0:0:0:0:
118,257,65574,5,2,0:1:0:0:
118,257,65707,1,2,0:3:0:0:
279,348,67034,6,0,B|310:308|310:308|400:351|468:305,1,209.999993591309,2|2,0:3|0:3,0:0:0:0:
502,225,67963,6,0,P|489:184|483:143,1,83.9999974365235,4|2,1:1|0:2,0:0:0:0:
411,84,68494,2,0,P|360:95|319:110,1,83.9999974365235,10|2,0:2|0:2,0:2:0:0:
299,141,68893,1,2,0:2:0:0:
299,141,69025,2,0,P|308:181|315:223,1,83.9999974365235,2|2,1:2|0:2,0:0:0:0:
291,312,69556,5,14,1:2:0:0:
198,312,69822,2,0,P|152:227|176:131,1,167.999994873047,2|2,0:2|0:2,0:2:0:0:
137,69,70618,2,0,P|101:60|45:41,1,83.9999974365235,10|2,0:2|0:2,0:2:0:0:
45,137,71149,2,0,P|29:177|25:226,1,83.9999974365235,2|2,1:2|0:2,0:0:0:0:
53,260,71547,1,2,0:2:0:0:
53,260,71680,6,0,P|64:304|68:356,2,83.9999974365235,14|2|0,0:2|0:2|1:2,0:0:0:0:
213,167,72742,2,0,P|260:160|318:149,1,83.9999974365235,10|2,0:2|0:2,0:2:0:0:
344,171,73140,1,2,0:2:0:0:
344,171,73273,2,0,P|352:209|360:261,1,83.9999974365235,2|2,1:2|0:2,0:0:0:0:
349,345,73804,5,14,0:2:0:0:
263,308,74070,2,0,P|219:315|179:325,1,83.9999974365235,2|0,0:2|1:2,0:2:0:0:
102,286,74601,1,2,0:2:0:0:
102,286,74733,1,2,0:1:0:0:
26,233,74999,2,0,L|41:89,1,125.999996154785,2|0,0:1|1:0,0:0:0:0:
106,44,75663,1,2,0:2:0:0:
106,44,75795,1,2,0:1:0:0:
182,95,76061,2,0,L|200:239,1,125.999996154785,2|4,0:1|1:1,0:0:0:0:
136,289,76724,5,2,0:2:0:0:
200,354,76990,2,0,P|241:347|283:344,1,83.9999974365235,10|2,0:2|0:2,0:2:0:0:
315,311,77388,1,2,0:2:0:0:
315,311,77521,2,0,P|357:321|412:328,1,83.9999974365235,2|2,1:2|0:2,0:2:0:0:
473,273,78052,5,14,0:2:0:0:
466,181,78317,2,0,P|460:88|513:5,1,167.999994873047,2|2,0:2|0:2,0:2:0:0:
403,0,79114,2,0,P|367:11|307:20,1,83.9999974365235,10|2,0:2|0:2,0:2:0:0:
256,85,79645,2,0,P|213:75|162:59,1,83.9999974365235,2|0,1:2|0:2,0:0:0:0:
148,33,80043,1,2,0:2:0:0:
148,33,80176,5,14,0:2:0:0:
60,62,80441,2,0,P|26:134|27:238,1,167.999994873047,2|2,0:2|0:2,0:2:0:0:
82,292,81238,2,0,P|167:310|261:334,1,167.999994873047,2|2,0:2|0:3,0:2:0:0:
387,211,82300,2,0,P|376:167|372:127,2,83.9999974365235,2|2|0,0:3|0:3|0:2,0:2:0:0:
463,262,83096,1,2,0:3:0:0:
510,182,83362,1,2,0:3:0:0:
283,341,84158,5,2,0:2:0:0:
211,281,84424,2,0,P|174:287|126:300,1,83.9999974365235,2|2,0:2|0:3,0:2:0:0:
256,192,84955,12,0,88140,0:2:0:0:
