osu file format v14

[General]
AudioFilename: audio.ogg
AudioLeadIn: 0
PreviewTime: 30795
Countdown: 0
SampleSet: Soft
StackLeniency: 0.7
Mode: 0
LetterboxInBreaks: 0
WidescreenStoryboard: 1

[Editor]
Bookmarks: 22933,31428,48419,65411,84526
DistanceSpacing: 0.1
BeatDivisor: 4
GridSize: 16
TimelineZoom: 1

[Metadata]
Title:LEveL (TV Size)
TitleUnicode:LEveL (TV Size)
Artist:SawanoHiroyuki[nZk]:TOMORROW X TOGETHER
ArtistUnicode:SawanoHiroyuki[nZk]:TOMORROW X TOGETHER
Creator:AirinCat
Version:C-Rank
Source:俺だけレベルアップな件
Tags:kyouren txt tomorrow solo leveling i level up alone Ore dake Level Up na Ken Na Honjaman 나 혼자만 레벨업 english pop anime opening sawano hiroyuki 澤野弘之 nzk by 최수빈 choi soo bin 수빈 soobin soo-bin subin 최연준 choi yeon jun 연준 yeonjun yeon-jun 최범규 choi beom gyu 범규 beomgyu beom-gyu 강태현 kang tae hyun 태현 taehyun tae-hyun 카이 카말 휴닝 kai kamal 휴닝카이 huening kai Benjamin korean boyband boy band group op jpop j-pop japanese 투모로우바이투게더 gokugohan12468 kittyadventure
BeatmapID:4443465
BeatmapSetID:2115893

[Difficulty]
HPDrainRate:4
CircleSize:3.6
OverallDifficulty:6
ApproachRate:8
SliderMultiplier:2
SliderTickRate:1

[Events]
//Background and Video events
0,0,"a.jpg",0,0
Video,-95,"Videoedit.mp4"
//Break Periods
//Storyboard Layer 0 (Background)
//Storyboard Layer 1 (Fail)
//Storyboard Layer 2 (Pass)
//Storyboard Layer 3 (Foreground)
//Storyboard Layer 4 (Overlay)
//Storyboard Sound Samples

[TimingPoints]
6371,530.973451327434,4,2,1,60,1,0
6371,-83.3333333333333,4,2,1,60,0,0
23362,-166.666666666667,4,2,1,30,0,0
27609,-166.666666666667,4,2,1,40,0,0
31326,-125,4,2,1,70,0,0
31857,-76.9230769230769,4,3,1,70,0,0
48848,-76.9230769230769,4,3,1,60,0,0
67963,-76.9230769230769,4,3,1,60,0,1
80972,-76.9230769230769,4,3,1,50,0,1
83362,-111.111111111111,4,2,1,60,0,0
84424,-76.9230769230769,4,2,1,60,0,0
84955,-76.9230769230769,4,2,1,15,0,0
88140,-76.9230769230769,4,2,1,5,0,0

[Colours]
Combo1 : 248,213,184
Combo2 : 182,174,251
Combo3 : 150,165,250

[HitObjects]
82,354,6371,6,0,P|111:302|110:243,1,119.999996337891,6|0,1:2|0:2,0:2:0:0:
57,173,6769,2,0,L|0:157,2,59.9999981689454,2|8|2,0:2|0:2|0:2,0:2:0:0:
110,243,7167,2,0,P|170:231|227:218,2,119.999996337891,2|0|0,1:2|0:2|1:2,0:2:0:0:
280,370,7963,2,0,P|286:334|296:289,1,59.9999981689454,8|0,0:2|1:2,0:0:0:0:
367,263,8229,5,2,3:2:0:0:
367,263,8362,1,2,3:2:0:0:
367,263,8494,2,0,P|425:270|478:243,1,119.999996337891,2|2,1:2|0:0,0:2:0:0:
485,157,8893,2,0,L|466:92,2,59.9999981689454,2|8|2,0:2|0:2|0:2,0:2:0:0:
478,243,9291,2,0,P|494:293|509:376,2,119.999996337891,2|0|0,1:2|0:2|1:2,0:2:0:0:
296,184,10087,5,8,0:2:0:0:
378,24,10353,2,0,P|391:52|398:93,1,59.9999981689454,2|2,1:2|1:2,0:0:0:0:
293,69,10618,6,0,P|227:95|163:103,1,119.999996337891,2|2,1:2|0:2,0:2:0:0:
86,70,11017,2,0,P|75:40|72:5,2,59.9999981689454,2|8|2,0:2|0:2|0:2,0:2:0:0:
35,147,11415,2,0,P|53:203|59:267,2,119.999996337891,2|0|0,0:2|0:2|1:2,0:2:0:0:
216,225,12211,2,0,P|210:254|207:284,1,59.9999981689454,8|0,0:2|1:2,0:0:0:0:
150,339,12477,5,2,3:2:0:0:
150,339,12609,2,0,P|214:333|284:332,1,119.999996337891,2|0,3:2|0:0,0:0:0:0:
358,350,13008,1,2,0:2:0:0:
358,350,13140,2,0,P|394:359|435:368,2,59.9999981689454,2|8|0,0:2|0:2|0:0,0:0:0:0:
333,261,13539,1,2,1:2:0:0:
333,261,13671,2,0,P|339:205|351:118,1,119.999996337891,2|0,0:2|0:0,0:0:0:0:
265,125,14070,1,2,1:2:0:0:
265,125,14202,2,0,P|258:69|247:-18,1,119.999996337891,2|0,0:2|0:2,0:0:0:0:
335,12,14601,6,0,P|367:6|402:-4,1,59.9999981689454,2|0,1:2|1:2,0:2:0:0:
470,37,14866,2,0,P|502:81|497:156,1,119.999996337891,6|2,1:2|0:2,0:2:0:0:
479,224,15264,2,0,P|485:251|494:289,2,59.9999981689454,2|8|2,0:2|0:2|0:2,0:2:0:0:
393,199,15663,2,0,B|334:208|347:220|266:236,2,119.999996337891,2|0|0,1:2|0:2|1:2,0:2:0:0:
247,6,16459,2,0,P|242:38|236:85,1,59.9999981689454,8|0,0:2|1:2,0:0:0:0:
173,125,16724,5,2,3:2:0:0:
173,125,16857,1,2,3:2:0:0:
173,125,16990,2,0,P|115:141|58:117,1,119.999996337891,2|2,1:2|0:2,0:2:0:0:
0,59,17388,2,0,P|6:27|15:-17,2,59.9999981689454,2|8|2,0:2|0:2|0:2,0:2:0:0:
61,119,17786,2,0,P|48:175|32:252,2,119.999996337891,2|0|0,1:2|0:2|1:2,0:2:0:0:
202,58,18583,5,8,0:2:0:0:
295,220,18848,2,0,P|265:215|234:216,1,59.9999981689454,2|2,1:2|1:2,0:0:0:0:
287,124,19114,6,0,P|285:64|318:15,1,119.999996337891,2|2,1:2|0:2,0:2:0:0:
369,83,19512,2,0,P|398:89|428:91,2,59.9999981689454,2|8|2,0:2|0:2|0:2,0:2:0:0:
407,170,19910,2,0,P|450:130|509:122,2,119.999996337891,2|0|0,1:2|0:2|1:2,0:2:0:0:
277,302,20707,2,0,P|286:335|294:371,1,59.9999981689454,10|0,0:2|1:2,0:2:0:0:
378,343,20972,2,0,P|368:309|361:274,1,59.9999981689454,2|0,0:2|0:2,0:2:0:0:
302,217,21238,6,0,P|242:216|192:247,1,119.999996337891,2|0,1:2|0:2,0:2:0:0:
124,299,21636,1,2,0:0:0:0:
124,299,21769,2,0,P|64:299|14:268,1,119.999996337891,10|0,0:2|1:2,0:2:0:0:
12,178,22167,1,2,0:0:0:0:
12,178,22300,2,0,P|71:178|121:147,1,119.999996337891,2|0,0:2|1:2,0:2:0:0:
175,78,22698,1,2,0:0:0:0:
175,78,22831,2,0,P|166:47|156:15,1,59.9999981689454,10|0,0:2|0:2,0:2:0:0:
243,0,23096,2,0,P|252:28|261:57,1,59.9999981689454,2|0,0:2|0:0,0:0:0:0:
242,143,23362,5,2,3:2:0:0:
242,143,24424,5,2,0:2:0:0:
242,143,25486,6,0,L|201:157,2,29.9999990844727,2|0|2,0:2|0:0|0:2,0:0:0:0:
335,194,26017,2,0,P|348:224|352:252,1,59.9999981689454,2|2,0:2|0:2,0:0:0:0:
465,236,26547,2,0,P|458:192|440:151,2,89.9999972534181,2|2|2,0:2|0:2|3:2,0:2:0:0:
449,318,27477,5,0,3:0:0:0:
449,318,27609,2,0,P|410:330|348:339,2,89.9999972534181,2|2|0,3:3|3:3|3:2,0:2:0:0:
234,250,28671,2,0,P|277:237|329:233,2,89.9999972534181,2|2|0,3:3|3:3|0:2,0:2:0:0:
178,308,29601,1,0,3:2:0:0:
178,308,29733,2,0,P|152:314|104:321,1,59.9999981689454,4|4,3:3|0:3,0:0:0:0:
48,282,30132,1,4,0:3:0:0:
19,207,30264,2,0,L|25:170,1,29.9999990844727,4|4,0:3|0:3,0:0:0:0:
93,136,30530,1,4,0:3:0:0:
345,132,31326,5,2,0:3:0:0:
345,132,31459,2,0,P|325:166|323:206,1,80
239,241,31857,6,0,P|289:292|364:293,1,129.999994049073,6|2,1:2|0:2,0:2:0:0:
437,263,32255,2,0,P|446:230|453:196,1,64.9999970245363,2|8,0:2|0:2,0:0:0:0:
512,134,32521,1,2,0:2:0:0:
512,134,32654,2,0,P|505:102|496:70,1,64.9999970245363,2|0,0:2|0:2,0:2:0:0:
419,21,32919,2,0,P|352:37|291:54,1,129.999994049073,2|0,1:2|0:2,0:2:0:0:
187,200,33450,2,0,P|195:236|204:281,1,64.9999970245363,8|0,0:2|0:0,0:0:0:0:
137,322,33716,5,2,0:2:0:0:
69,274,33848,2,0,P|62:206|115:157,1,129.999994049073,2|2,0:2|0:2,0:2:0:0:
113,79,34247,2,0,P|145:89|180:91,1,64.9999970245363,2|0,0:2|0:2,0:0:0:0:
258,148,34512,2,0,P|322:143|372:94,1,129.999994049073,10|2,0:2|0:2,0:2:0:0:
379,19,34910,1,0,0:2:0:0:
368,100,35043,2,0,P|376:154|394:240,1,129.999994049073,2|0,1:2|0:2,0:2:0:0:
356,302,35441,1,0,0:0:0:0:
443,309,35574,2,0,L|243:361,1,194.999991073609,14|0,0:2|0:2,0:2:0:0:
174,335,36105,5,4,1:1:0:0:
252,105,36371,1,2,0:2:0:0:
252,105,36503,2,0,L|266:180,1,64.9999970245363,2|8,0:2|0:2,0:2:0:0:
176,152,36769,1,2,0:2:0:0:
176,152,36901,2,0,L|112:164,1,64.9999970245363,2|0,0:2|0:2,0:2:0:0:
204,242,37167,2,0,P|254:262|330:237,1,129.999994049073,2|0,1:2|0:2,0:2:0:0:
464,122,37698,2,0,L|452:53,1,64.9999970245363,8|0,0:2|0:0,0:0:0:0:
387,0,37963,5,2,0:2:0:0:
316,40,38096,2,0,P|248:50|171:62,1,129.999994049073,2|2,0:2|0:2,0:2:0:0:
108,102,38494,2,0,P|100:66|91:30,1,64.9999970245363,2|0,0:2|0:2,0:0:0:0:
182,150,38760,2,0,P|167:205|147:301,1,129.999994049073,10|2,0:2|0:2,0:2:0:0:
196,344,39158,1,0,0:2:0:0:
114,372,39291,2,0,P|168:325|301:343,1,194.999991073609,2|0,1:2|0:0,0:2:0:0:
367,363,39822,2,0,L|462:338,1,64.9999970245363,14|2,0:2|0:3,0:0:0:0:
354,275,40087,2,0,L|329:180,1,64.9999970245363,2|2,0:3|0:3,0:0:0:0:
442,233,40353,5,6,1:1:0:0:
472,23,40618,1,2,0:2:0:0:
472,23,40751,2,0,P|510:74|500:142,1,129.999994049073,2|0,0:2|0:2,0:0:0:0:
417,96,41149,2,0,P|340:113|272:127,2,129.999994049073,2|0|0,0:2|1:2|0:2,0:2:0:0:
451,267,41946,6,0,L|512:247,1,64.9999970245363,10|0,0:2|0:2,0:2:0:0:
393,350,42211,2,0,L|454:369,1,64.9999970245363,2|0,0:2|0:2,0:2:0:0:
367,259,42477,2,0,L|225:289,1,129.999994049073,2|0,1:2|0:2,0:2:0:0:
178,345,42875,2,0,P|114:343|66:301,1,129.999994049073,2|2,0:2|0:2,0:0:0:0:
26,218,43273,2,0,P|38:150|53:75,2,129.999994049073,2|0|0,0:2|1:2|0:2,0:2:0:0:
242,136,44070,6,0,L|226:64,1,64.9999970245363,10|0,0:2|0:2,0:2:0:0:
141,71,44335,2,0,L|155:7,1,64.9999970245363,2|0,0:2|0:2,0:2:0:0:
227,72,44601,1,2,1:2:0:0:
175,234,44866,1,0,0:2:0:0:
175,234,44999,2,0,P|234:256|294:234,1,129.999994049073,2|2,0:2|0:2,0:0:0:0:
356,167,45397,2,0,P|413:139|476:149,2,129.999994049073,2|0|0,0:2|1:2|0:2,0:2:0:0:
449,316,46194,6,0,L|531:332,1,64.9999970245363,10|0,0:2|0:2,0:2:0:0:
357,316,46459,2,0,L|205:350,1,129.999994049073,2|0,0:2|1:2,0:2:0:0:
51,210,46990,1,2,0:2:0:0:
51,210,47123,2,0,L|140:226,1,64.9999970245363,2|8,0:2|0:2,0:2:0:0:
71,309,47388,1,2,0:2:0:0:
71,309,47521,2,0,L|55:398,1,64.9999970245363,2|0,0:2|0:2,0:2:0:0:
162,304,47786,2,0,P|201:254|198:191,1,129.999994049073,2|0,1:2|0:0,0:2:0:0:
147,125,48185,1,0,0:2:0:0:
147,125,48317,2,0,P|134:62|169:12,1,129.999994049073,2|0,0:2|0:0,0:2:0:0:
169,11,48848,6,0,P|234:31|296:37,1,129.999994049073,6|0,1:1|0:2,0:2:0:0:
354,96,49247,1,0,0:2:0:0:
423,46,49379,2,0,P|468:90|474:153,1,129.999994049073,10|0,0:2|0:2,0:2:0:0:
411,222,49778,2,0,L|340:239,1,64.9999970245363,2|0,0:1|1:2,0:0:0:0:
272,294,50043,2,0,P|303:348|364:364,1,129.999994049073,2|0,0:2|0:2,0:0:0:0:
434,305,50441,1,8,0:2:0:0:
257,168,50707,5,2,0:2:0:0:
257,168,50840,1,2,0:2:0:0:
202,233,50972,2,0,P|140:251|78:233,1,129.999994049073,2|0,1:2|0:2,0:2:0:0:
34,157,51371,1,0,0:2:0:0:
72,78,51503,2,0,P|133:59|195:77,1,129.999994049073,10|0,0:2|0:2,0:2:0:0:
287,105,51901,2,0,P|323:97|364:79,1,64.9999970245363,2|0,0:1|1:2,0:0:0:0:
398,6,52167,2,0,P|441:52|442:116,1,129.999994049073,2|0,0:2|0:2,0:0:0:0:
372,179,52565,1,8,0:2:0:0:
504,299,52831,2,0,P|500:261|489:231,1,64.9999970245363,2|0,0:2|0:2,0:0:0:0:
409,292,53096,6,0,P|324:303|265:320,1,129.999994049073,2|0,1:2|0:2,0:2:0:0:
213,359,53494,1,0,0:2:0:0:
137,310,53627,2,0,P|122:244|120:172,1,129.999994049073,10|0,0:2|0:2,0:2:0:0:
163,96,54025,2,0,P|163:65|157:22,1,64.9999970245363,2|0,0:1|1:2,0:2:0:0:
251,71,54291,2,0,P|308:43|372:54,1,129.999994049073,2|0,0:2|0:2,0:2:0:0:
434,120,54689,1,8,0:2:0:0:
268,259,54955,1,2,0:2:0:0:
268,259,55087,2,0,L|188:246,1,64.9999970245363,2|0,0:2|1:2,0:0:0:0:
356,139,55486,6,0,B|367:201|353:194|365:276,1,129.999994049073,2|8,0:1|0:2,0:2:0:0:
188,153,56017,2,0,B|176:90|190:97|178:15,1,129.999994049073,2|0,0:1|1:2,0:2:0:0:
5,123,56547,2,0,B|16:185|2:178|14:260,1,129.999994049073,2|8,0:1|0:2,0:2:0:0:
51,321,56946,1,0,0:2:0:0:
103,262,57078,2,0,P|142:261|181:250,1,64.9999970245363,2|0,0:1|0:2,0:0:0:0:
270,314,57344,6,0,P|327:330|397:294,1,129.999994049073,6|0,1:1|0:2,0:2:0:0:
433,228,57742,1,0,0:2:0:0:
375,163,57875,2,0,P|317:146|248:183,1,129.999994049073,10|0,0:2|0:2,0:2:0:0:
162,170,58273,2,0,P|151:141|144:94,1,64.9999970245363,2|0,0:1|1:2,0:0:0:0:
185,30,58539,2,0,P|239:-3|302:4,1,129.999994049073,2|0,0:2|0:2,0:0:0:0:
371,60,58937,1,8,0:2:0:0:
269,263,59202,5,2,0:2:0:0:
269,263,59335,1,2,0:2:0:0:
343,297,59468,2,0,P|405:285|448:213,1,129.999994049073,2|0,1:2|0:2,0:2:0:0:
430,147,59866,1,0,0:2:0:0:
343,141,59999,2,0,P|277:154|203:170,1,129.999994049073,10|0,0:2|0:2,0:2:0:0:
134,93,60397,2,0,P|140:60|148:22,1,64.9999970245363,2|0,0:1|1:2,0:0:0:0:
44,133,60663,2,0,P|10:187|21:249,1,129.999994049073,2|0,0:2|0:2,0:0:0:0:
81,317,61061,2,0,P|115:308|152:301,1,64.9999970245363,8|0,0:2|0:0,0:0:0:0:
222,250,61326,2,0,L|296:264,1,64.9999970245363,2|0,0:2|0:2,0:0:0:0:
350,317,61592,6,0,L|321:188,1,129.999994049073,2|0,1:2|0:2,0:2:0:0:
378,126,61990,1,0,0:2:0:0:
458,162,62123,2,0,L|487:33,1,129.999994049073,10|0,0:2|0:2,0:2:0:0:
401,22,62521,2,0,L|330:2,1,64.9999970245363,2|0,0:1|1:2,0:0:0:0:
300,76,62786,2,0,L|153:101,1,129.999994049073,2|0,0:2|0:2,0:0:0:0:
101,51,63185,1,8,0:2:0:0:
265,202,63450,2,0,L|282:344,1,129.999994049073,2|0,0:2|1:2,0:2:0:0:
39,267,63981,5,2,0:1:0:0:
39,267,64114,2,0,L|53:201,2,64.9999970245363,2|8|0,0:2|0:2|0:0,0:0:0:0:
106,327,64512,5,2,0:1:0:0:
174,275,64645,2,0,L|160:209,2,64.9999970245363,2|0|0,0:2|1:2|0:2,0:0:0:0:
252,317,65043,5,2,0:1:0:0:
325,274,65176,2,0,L|339:208,2,64.9999970245363,2|8|0,0:2|0:2|0:2,0:0:0:0:
394,338,65574,5,2,0:1:0:0:
394,338,65707,1,2,0:3:0:0:
423,76,67034,5,2,0:3:0:0:
423,76,67167,2,0,B|479:110|479:110|449:182,1,129.999994049073,2|0,0:3|0:3,0:3:0:0:
388,214,67565,1,2,0:3:0:0:
388,214,67698,2,0,L|308:201,1,64.9999970245363,2|2,0:3|0:3,0:0:0:0:
245,246,67963,5,4,1:1:0:0:
108,74,68229,2,0,P|112:41|120:10,1,64.9999970245363,2|0,0:2|0:2,0:2:0:0:
212,60,68494,2,0,P|240:70|278:75,1,64.9999970245363,10|0,0:2|0:2,0:0:0:0:
174,152,68760,1,2,0:2:0:0:
174,152,68893,1,2,0:2:0:0:
174,152,69025,2,0,P|161:179|156:221,1,64.9999970245363,2|2,1:2|0:2,0:0:0:0:
74,232,69291,2,0,P|78:264|92:293,1,64.9999970245363,2|2,0:2|0:2,0:0:0:0:
199,346,69556,6,0,P|236:337|266:325,1,64.9999970245363,14|0,1:2|0:2,0:2:0:0:
322,264,69822,2,0,P|397:270|471:297,1,129.999994049073,2|0,0:2|1:2,0:2:0:0:
448,286,70353,6,0,P|457:250|463:215,1,64.9999970245363,2|0,0:2|0:2,0:0:0:0:
512,154,70618,2,0,P|506:118|499:85,1,64.9999970245363,10|0,0:2|0:2,0:2:0:0:
419,137,70884,1,2,0:2:0:0:
419,137,71017,1,2,0:2:0:0:
419,137,71149,2,0,P|393:143|357:153,1,64.9999970245363,2|2,1:2|0:2,0:0:0:0:
320,76,71415,2,0,P|294:69|258:60,1,64.9999970245363,2|2,0:2|0:2,0:0:0:0:
159,133,71680,5,14,0:2:0:0:
159,133,71813,1,2,0:2:0:0:
232,183,71946,2,0,P|246:243|240:338,1,129.999994049073,2|0,0:2|1:2,0:2:0:0:
245,311,72477,6,0,P|210:318|162:329,1,64.9999970245363,2|0,0:2|0:2,0:2:0:0:
100,362,72742,2,0,P|62:355|25:348,1,64.9999970245363,10|0,0:2|0:2,0:0:0:0:
7,266,73008,1,2,0:2:0:0:
7,266,73140,1,2,0:2:0:0:
7,266,73273,2,0,P|14:227|20:196,1,64.9999970245363,2|2,1:2|0:2,0:0:0:0:
113,194,73539,2,0,P|106:162|101:130,1,64.9999970245363,2|2,0:2|0:2,0:0:0:0:
0,53,73804,6,0,P|32:49|63:39,1,64.9999970245363,14|0,0:2|0:2,0:2:0:0:
150,59,74070,2,0,P|213:54|270:84,1,129.999994049073,2|0,0:2|1:2,0:2:0:0:
340,256,74601,5,2,0:2:0:0:
340,256,74733,2,0,P|334:287|325:337,1,64.9999970245363,2|8,0:1|0:2,0:2:0:0:
252,377,74999,2,0,L|224:249,1,129.999994049073,2|0,0:1|0:2,0:2:0:0:
292,179,75397,1,0,1:2:0:0:
512,257,75663,1,2,0:2:0:0:
512,257,75795,2,0,P|506:288|497:338,1,64.9999970245363,2|8,0:1|0:2,0:2:0:0:
430,370,76061,2,0,L|402:242,1,129.999994049073,2|0,0:1|0:2,0:2:0:0:
464,162,76459,5,4,1:1:0:0:
255,49,76724,2,0,L|317:31,1,64.9999970245363,2|0,0:2|0:2,0:2:0:0:
304,139,76990,2,0,B|263:185|263:185|196:165,1,129.999994049073,10|2,0:2|0:2,0:2:0:0:
115,142,77388,1,2,0:2:0:0:
147,65,77521,2,0,L|128:-11,1,64.9999970245363,2|2,1:2|0:2,0:0:0:0:
62,78,77786,2,0,L|-4:96,1,64.9999970245363,2|2,0:2|0:2,0:0:0:0:
43,201,78052,6,0,P|51:233|63:277,1,64.9999970245363,14|0,0:2|0:2,0:2:0:0:
150,266,78317,2,0,P|219:273|293:295,1,129.999994049073,2|0,0:2|1:2,0:2:0:0:
277,288,78848,6,0,P|274:319|261:366,1,64.9999970245363,2|0,0:2|0:2,0:0:0:0:
357,373,79114,2,0,P|359:341|373:295,1,64.9999970245363,10|0,0:2|0:0,0:2:0:0:
345,219,79379,1,2,0:2:0:0:
345,219,79512,1,2,0:2:0:0:
345,219,79645,2,0,P|354:193|360:149,1,64.9999970245363,2|2,1:2|0:2,0:0:0:0:
442,96,79910,2,0,P|452:126|456:158,1,64.9999970245363,0|2,0:2|0:2,0:0:0:0:
347,66,80176,6,0,P|312:60|261:44,1,64.9999970245363,14|0,0:2|0:2,0:2:0:0:
227,125,80441,2,0,P|154:135|102:168,1,129.999994049073,2|2,0:2|3:3,0:2:0:0:
106,163,80972,6,0,P|133:224|120:289,2,129.999994049073,2|2|2,0:2|0:2|0:2,0:2:0:0:
13,178,81636,1,0,0:2:0:0:
13,178,81769,2,0,P|0:241|29:298,1,129.999994049073,2|2,0:3|0:3,0:0:0:0:
91,359,82167,1,2,0:3:0:0:
183,344,82300,6,0,P|216:332|254:321,1,64.9999970245363,2|0,0:3|0:2,0:2:0:0:
289,239,82565,2,0,P|352:231|408:261,1,129.999994049073,2|0,0:3|0:2,0:2:0:0:
409,262,83096,6,0,P|405:294|399:340,1,64.9999970245363,2|0,0:3|0:2,0:2:0:0:
511,269,83362,2,0,P|521:183|452:130,1,179.999994506836,2|0,0:3|0:2,0:2:0:0:
453,130,84158,6,0,L|409:141,1,44.999998626709,2|0,0:2|0:2,0:2:0:0:
341,214,84424,2,0,B|296:166|296:166|318:101,1,129.999994049073,2|2,0:3|0:3,0:0:0:0:
256,192,84955,12,0,88140,0:2:0:0:
