osu file format v14

[General]
AudioFilename: audio.mp3
AudioLeadIn: 0
PreviewTime: 35515
Countdown: 0
SampleSet: Soft
StackLeniency: 0.7
Mode: 0
LetterboxInBreaks: 0
WidescreenStoryboard: 1

[Editor]
DistanceSpacing: 0.1
BeatDivisor: 16
GridSize: 4
TimelineZoom: 1.1

[Metadata]
Title:time (TV Size)
TitleUnicode:time (TV Size)
Artist:SawanoHiroyuki[nZk]:ReoNa
ArtistUnicode:SawanoHiroyuki[nZk]:ReoNa
Creator:mnyui
Version:normal
Source:七つの大罪 憤怒の審判
Tags:澤野弘之 japanese pop j-pop jpop hiroyuki sawano nanatsu no taizai fundo no shinpan The Seven Deadly Sins: sins Dragon's Judgement of Fury 4th season 4 anime ending ed mir IV fedora-
BeatmapID:2834316
BeatmapSetID:1370492

[Difficulty]
HPDrainRate:3
CircleSize:3
OverallDifficulty:4
ApproachRate:5
SliderMultiplier:0.999999999999999
SliderTickRate:1

[Events]
//Background and Video events
0,0,"pogger.jpg",0,0
Video,0,"video.mp4"
//Break Periods
//Storyboard Layer 0 (Background)
//Storyboard Layer 1 (Fail)
//Storyboard Layer 2 (Pass)
//Storyboard Layer 3 (Foreground)
//Storyboard Layer 4 (Overlay)
//Storyboard Sound Samples

[TimingPoints]
937,631.578947368421,4,2,1,40,1,0
5989,-50,4,2,1,40,0,0
6305,-50,4,2,1,60,0,0
6621,-50,4,2,1,40,0,0
11357,-50,4,2,1,60,0,0
11516,-50,4,2,1,40,0,0
16095,-50,4,2,1,65,0,0
17041,-50,4,2,1,65,0,0
17358,-50,4,2,1,65,0,0
26515,-52.6315789473684,4,2,2,50,0,0
35673,-50,4,2,2,80,0,0
36305,-47.6190476190476,4,2,2,85,0,1
76726,-52.6315789473684,4,2,2,75,0,0
82410,-100,4,2,2,75,0,0
86200,-142.857142857143,4,2,2,75,0,0
86831,-142.857142857143,4,2,2,5,0,0

[Colours]
Combo1 : 173,173,173
Combo2 : 128,255,255
Combo3 : 255,255,170
Combo4 : 151,203,255
Combo5 : 241,174,141
Combo6 : 214,214,214

[HitObjects]
449,40,5989,85,0,1:2:0:0:
482,134,6305,1,0,0:0:0:0:
412,205,6621,2,0,P|365:212|313:179,1,99.9999999999999,2|2,1:2|0:0,0:0:0:0:
253,113,7252,2,0,P|204:106|161:130,1,99.9999999999999,2|2,1:2|0:0,0:0:0:0:
79,188,7884,1,10,0:0:0:0:
46,282,8200,1,2,0:0:0:0:
116,353,8515,70,0,L|221:330,1,99.9999999999999,2|2,1:2|0:0,0:0:0:0:
303,375,9147,2,0,L|315:312,1,50,2|8,1:2|0:0,0:0:0:0:
354,298,9463,2,0,B|348:253|348:253|343:245|343:245|335:187,1,99.9999999999999,2|0,0:0|1:2,0:0:0:0:
249,152,10095,1,2,0:0:0:0:
297,64,10411,1,10,0:0:0:0:
100,27,11042,6,0,P|75:71|102:128,1,99.9999999999999,0|0,1:2|0:0,0:0:0:0:
128,146,11515,1,2,0:2:0:0:
128,146,11673,2,0,P|153:187|140:234,1,99.9999999999999,2|2,1:2|0:0,0:0:0:0:
188,322,12305,2,0,P|241:298|292:315,1,99.9999999999999,2|2,1:2|0:0,0:0:0:0:
321,335,12779,1,0,0:2:0:0:
321,335,12937,2,0,P|374:359|425:342,1,99.9999999999999,10|2,0:0|0:0,0:0:0:0:
484,279,13568,69,2,1:2:0:0:
416,204,13884,1,2,0:0:0:0:
480,127,14200,2,0,P|485:92|430:52,1,99.9999999999999,2|2,1:2|0:0,0:0:0:0:
350,95,14831,1,2,1:2:0:0:
272,31,15148,1,2,0:0:0:0:
188,85,15463,1,10,0:0:0:0:
330,226,16095,5,4,1:2:0:0:
282,313,16410,2,0,L|222:302,1,50,2|2,0:0|0:2,0:0:0:0:
194,319,16726,2,0,B|168:272|168:272|199:214,1,99.9999999999999,2|0,1:2|0:0,0:0:0:0:
265,164,17358,2,0,P|282:118|264:72,1,99.9999999999999,2|2,1:2|0:0,0:0:0:0:
222,44,17831,2,0,B|174:58|174:58|171:65|171:65|118:82,1,99.9999999999999,2|2,1:2|0:0,0:0:0:0:
30,82,18463,70,0,L|62:193,1,99.9999999999999,2|2,0:0|0:0,0:0:0:0:
102,200,18937,2,0,L|80:310,1,99.9999999999999,2|0,0:0|1:2,0:0:0:0:
149,372,19568,2,0,L|211:359,1,50,2|2,0:0|0:0,0:0:0:0:
222,318,19884,2,0,P|285:310|318:327,1,99.9999999999999,2|2,1:2|0:0,0:0:0:0:
352,359,20358,1,2,1:2:0:0:
449,378,20673,1,2,0:0:0:0:
485,288,20990,6,0,B|477:244|477:244|474:241|474:241|462:173,1,99.9999999999999,2|2,0:0|0:0,0:0:0:0:
452,142,21463,1,2,0:2:0:0:
391,61,21779,1,0,1:2:0:0:
297,96,22094,2,0,L|287:155,1,50,2|2,0:0|0:0,0:0:0:0:
259,186,22411,2,0,L|276:301,1,99.9999999999999,2|2,1:2|0:0,0:0:0:0:
281,334,22884,1,2,1:2:0:0:
187,361,23200,1,2,0:0:0:0:
187,361,23358,70,0,P|131:374|76:352,1,99.9999999999999,2|2,0:0|1:2,0:0:0:0:
50,334,23831,2,0,L|69:180,1,150,2|0,0:0|1:2,0:0:0:0:
111,94,24621,2,0,L|48:76,2,50,2|2|2,0:0|0:0|1:2,0:0:0:0:
202,52,25252,1,2,0:0:0:0:
202,52,25410,2,0,P|262:58|292:104,1,99.9999999999999,2|2,1:2|1:2,0:0:0:0:
315,126,25884,1,2,0:0:0:0:
240,192,26200,6,0,L|263:297,1,99.9999999999999,0|0,1:2|0:0,0:0:0:0:
287,381,26831,1,2,1:2:0:0:
433,384,27305,1,2,0:0:0:0:
433,384,27463,2,0,P|468:322|444:256,1,142.499996194839,2|0,1:2|0:0,0:0:0:0:
414,222,28094,1,2,1:2:0:0:
482,44,28727,69,0,1:2:0:0:
327,154,29358,2,0,L|304:58,1,94.9999974632263,2|0,1:2|0:0,0:0:0:0:
274,32,29832,1,2,0:0:0:0:
274,32,29990,2,1,B|162:53,1,94.9999974632263,2|0,1:2|0:0,2:0:0:0:
85,49,30621,5,2,1:2:0:0:
10,223,31252,2,0,P|0:262|26:319,1,94.9999974632263,0|0,1:2|0:0,0:0:0:0:
87,381,31884,1,2,1:2:0:0:
193,286,32358,1,2,0:0:0:0:
193,286,32516,2,0,B|280:268|243:332|344:307,1,142.499996194839,2|2,1:2|0:0,0:0:0:0:
364,280,33147,1,2,1:2:0:0:
455,113,33779,69,0,1:2:0:0:
249,5,34569,1,2,0:0:0:0:
249,5,34727,1,2,0:0:0:0:
50,371,36305,22,0,P|93:365|122:311,1,104.999996795654,6|2,1:2|2:3,0:0:0:0:
97,274,36779,1,0,1:2:0:0:
97,274,36937,2,0,B|121:222|121:222|74:177,1,104.999996795654,10|2,2:0|1:3,0:0:0:0:
37,169,37410,2,0,L|24:50,1,104.999996795654,2|0,2:0|2:0,0:0:0:0:
55,21,37884,1,2,2:3:0:0:
156,33,38200,2,0,L|166:91,1,52.4999983978271,10|0,2:0|1:0,0:0:0:0:
206,116,38515,1,2,1:3:0:0:
310,109,38831,22,0,P|389:112|419:78,1,104.999996795654,0|2,1:2|2:3,0:0:0:0:
434,56,39305,1,0,1:2:0:0:
434,56,39463,2,0,L|458:163,1,104.999996795654,10|2,2:0|1:3,0:0:0:0:
486,257,40094,2,0,P|447:274|383:250,1,104.999996795654,2|2,2:0|1:3,0:0:0:0:
353,225,40568,1,2,1:2:0:0:
353,225,40726,1,8,2:0:0:0:
277,151,41042,1,2,2:3:0:0:
196,215,41358,70,0,L|205:279,1,52.4999983978271,6|0,1:2|0:0,0:0:0:0:
207,319,41673,1,2,2:3:0:0:
119,377,41989,2,0,L|58:366,1,52.4999983978271,10|0,2:0|0:0,0:0:0:0:
19,361,42305,1,2,1:3:0:0:
19,361,42463,2,0,P|6:310|42:250,1,104.999996795654,2|0,2:0|2:0,0:0:0:0:
69,233,42937,1,2,2:3:0:0:
164,190,43252,2,0,L|153:133,1,52.4999983978271,10|0,2:0|2:0,0:0:0:0:
114,103,43568,2,0,L|125:46,1,52.4999983978271,2|0,1:3|0:0,0:0:0:0:
162,15,43884,22,0,B|212:22|212:22|219:30|219:30|276:39,1,104.999996795654,0|2,1:2|0:3,0:0:0:0:
351,92,44515,2,0,L|414:76,1,52.4999983978271,10|0,2:0|0:0,0:0:0:0:
452,64,44831,1,2,1:3:0:0:
500,141,45147,1,2,2:0:0:0:
435,224,45463,2,0,L|446:279,1,52.4999983978271,2|0,1:3|1:0,0:0:0:0:
453,332,45779,1,10,2:0:0:0:
453,332,45937,2,0,L|326:319,1,104.999996795654,0|0,1:2|1:2,0:0:0:0:
296,329,46410,38,0,P|271:282|289:228,1,104.999996795654,6|2,1:2|2:3,0:0:0:0:
325,201,46884,1,2,1:2:0:0:
325,201,47042,2,0,B|334:149|334:149|330:141|330:141|337:98,1,104.999996795654,10|2,2:0|1:3,0:0:0:0:
161,7,47990,1,2,2:3:0:0:
72,70,48305,2,0,L|85:124,1,52.4999983978271,10|0,2:0|2:0,0:0:0:0:
124,155,48621,1,2,1:3:0:0:
124,155,48779,2,0,P|145:198|120:254,1,104.999996795654,2|0,1:2|0:0,0:0:0:0:
89,287,49253,1,2,1:3:0:0:
144,354,49568,22,0,B|196:340|196:340|199:344|199:344|245:355,1,104.999996795654,10|2,2:0|1:3,0:0:0:0:
297,341,50042,1,0,2:0:0:0:
297,341,50200,2,0,P|316:283|297:233,1,104.999996795654,2|2,1:2|1:3,0:0:0:0:
221,185,50832,1,10,2:0:0:0:
221,185,50989,2,0,P|161:197|127:239,1,104.999996795654,0|0,1:2|1:2,0:0:0:0:
95,266,51463,69,6,1:2:0:0:
8,206,51779,1,2,2:3:0:0:
70,122,52094,2,0,L|61:62,1,52.4999983978271,10|0,2:0|0:0,0:0:0:0:
52,18,52410,1,2,1:3:0:0:
56,22,52568,2,0,P|96:45|169:35,1,104.999996795654,2|0,2:0|2:0,0:0:0:0:
198,14,53042,1,2,2:3:0:0:
288,69,53358,21,10,2:0:0:0:
223,151,53674,1,2,1:3:0:0:
304,216,53989,2,0,B|295:268|295:268|297:273|297:273|286:328,1,104.999996795654,0|2,1:2|2:3,0:0:0:0:
320,360,54463,1,0,1:2:0:0:
324,364,54621,2,0,L|389:350,1,52.4999983978271,10|0,2:0|2:0,0:0:0:0:
426,340,54937,1,2,1:3:0:0:
482,251,55252,2,0,L|460:126,1,104.999996795654,2|2,2:0|1:3,0:0:0:0:
492,46,55884,37,8,2:0:0:0:
394,7,56200,2,0,L|326:31,1,52.4999983978271,2|2,2:2|0:2,0:0:0:0:
296,45,56515,1,6,1:2:0:0:
230,128,56832,1,2,2:3:0:0:
230,128,56990,2,0,P|166:125|126:83,1,104.999996795654,2|2,1:2|2:0,0:0:0:0:
95,66,57463,2,0,L|86:174,1,104.999996795654,2|2,1:3|2:0,0:0:0:0:
72,221,57937,1,2,2:0:0:0:
124,318,58253,1,2,1:2:0:0:
124,318,58411,22,0,P|162:337|226:326,1,104.999996795654,10|2,2:0|1:3,0:0:0:0:
262,294,58884,1,2,1:2:0:0:
262,294,59042,2,0,L|241:173,1,104.999996795654,0|2,1:2|2:3,0:0:0:0:
218,88,59674,69,8,2:0:0:0:
300,23,59989,1,2,1:3:0:0:
300,23,60147,2,0,L|426:45,1,104.999996795654,2|2,2:0|2:0,0:0:0:0:
465,133,60779,1,2,2:0:0:0:
465,133,60937,22,0,L|473:189,1,52.4999983978271,8|2,2:0|1:2,0:0:0:0:
485,235,61252,1,2,1:3:0:0:
471,339,61569,1,6,1:2:0:0:
377,379,61884,1,2,2:3:0:0:
377,379,62042,2,0,B|327:376|327:376|314:367|314:367|252:362,1,104.999996795654,2|2,1:2|2:0,0:0:0:0:
238,326,62516,1,2,1:3:0:0:
135,357,62832,1,2,2:0:0:0:
135,357,62990,2,0,P|90:365|47:319,1,104.999996795654,2|2,2:0|1:2,0:0:0:0:
36,277,63463,37,10,2:0:0:0:
101,194,63779,1,2,1:3:0:0:
101,194,63937,2,0,L|80:71,1,104.999996795654,2|0,2:0|0:0,0:0:0:0:
149,7,64569,1,0,1:2:0:0:
149,7,64727,21,8,2:0:0:0:
233,61,65042,1,2,1:3:0:0:
233,61,65200,2,0,L|300:46,1,52.4999983978271,2|0,2:0|2:0,0:0:0:0:
335,38,65515,1,2,2:0:0:0:
411,111,65831,2,0,B|398:176,1,52.4999983978271,2|10,1:2|2:0,0:0:0:0:
371,207,66147,2,0,L|389:331,1,104.999996795654,2|10,1:2|0:0,0:0:0:0:
365,359,66621,1,4,1:2:0:0:
279,300,66937,69,2,2:3:0:0:
192,358,67252,2,0,P|135:363|88:335,1,104.999996795654,10|2,2:0|1:3,0:0:0:0:
30,259,67884,2,0,L|34:141,1,104.999996795654,2|2,2:0|2:3,0:0:0:0:
72,56,68516,1,10,2:0:0:0:
156,120,68832,1,2,1:3:0:0:
244,63,69147,22,0,L|367:44,1,104.999996795654,2|2,1:2|2:3,0:0:0:0:
396,33,69621,1,0,1:2:0:0:
396,33,69779,1,8,2:0:0:0:
481,92,70094,2,0,P|504:137|485:185,1,104.999996795654,2|0,1:3|2:0,0:0:0:0:
412,259,70726,2,0,L|357:247,1,52.4999983978271,2|0,1:3|2:0,0:0:0:0:
328,205,71042,2,0,P|273:189|223:208,1,104.999996795654,10|10,2:0|2:3,0:0:0:0:
159,275,71674,37,4,1:2:0:0:
198,373,71989,2,0,L|247:355,1,52.4999983978271,2|0,2:3|1:2,0:0:0:0:
296,335,72305,2,0,L|403:352,1,104.999996795654,10|2,2:0|1:3,0:0:0:0:
484,289,72937,2,0,B|493:234|493:234|491:229|491:229|500:177,1,104.999996795654,2|2,2:0|1:3,0:0:0:0:
440,99,73568,2,0,L|383:113,1,52.4999983978271,10|0,2:0|2:0,0:0:0:0:
351,148,73884,2,0,L|301:136,1,52.4999983978271,2|0,1:3|1:0,0:0:0:0:
267,95,74200,2,0,B|216:81|216:81|168:109,1,104.999996795654,2|2,1:2|2:3,0:0:0:0:
76,62,74832,21,10,2:0:0:0:
3,138,75148,1,2,1:3:0:0:
55,342,75779,69,2,1:3:0:0:
138,278,76094,1,2,2:0:0:0:
228,334,76410,1,2,2:0:0:0:
311,287,76726,22,0,B|324:241|324:241|310:196,1,94.9999974632263,4|2,1:2|0:3,0:0:0:0:
267,165,77200,1,0,1:2:0:0:
267,165,77358,2,0,L|277:51,1,94.9999974632263,10|2,0:0|1:3,0:0:0:0:
354,17,77989,2,0,P|401:11|447:47,1,94.9999974632263,2|2,0:0|0:3,0:0:0:0:
485,120,78621,2,0,B|496:167|496:167|493:173|493:173|504:228,1,94.9999974632263,10|2,0:0|1:3,0:0:0:0:
467,302,79253,37,2,1:2:0:0:
376,278,79569,2,0,L|307:291,1,47.4999987316131,2|0,0:3|1:2,0:0:0:0:
297,323,79884,2,0,L|187:305,1,94.9999974632263,10|2,0:0|1:3,0:0:0:0:
146,233,80515,2,0,P|91:230|51:266,1,94.9999974632263,2|2,1:2|1:3,0:0:0:0:
14,271,80990,1,0,1:0:0:0:
14,271,81148,2,0,L|24:158,1,94.9999974632263,10|0,0:0|0:0,0:0:0:0:
35,83,81779,21,6,1:2:0:0:
128,199,82410,1,2,0:0:0:0:
246,106,83042,1,2,0:0:0:0:
366,195,83673,1,2,0:0:0:0:
485,117,84305,2,0,P|508:167|496:218,1,99.9999999999999,2|2,0:0|0:0,0:0:0:0:
370,284,85568,2,0,P|354:335|374:379,2,99.9999999999999,2|2|0,0:0|0:0|0:0,0:0:0:0:
