osu file format v14

[General]
AudioFilename: audio.mp3
AudioLeadIn: 0
PreviewTime: 35594
Countdown: 0
SampleSet: Soft
StackLeniency: 0.4
Mode: 2
LetterboxInBreaks: 0
WidescreenStoryboard: 1

[Editor]
DistanceSpacing: 1.5
BeatDivisor: 4
GridSize: 16
TimelineZoom: 1.4

[Metadata]
Title:time (TV Size)
TitleUnicode:time (TV Size)
Artist:SawanoHiroyuki[nZk]:ReoNa
ArtistUnicode:SawanoHiroyuki[nZk]:ReoNa
Creator:Secre
Version:salad
Source:七つの大罪 憤怒の審判
Tags:chickenbible Sharpay IV 澤野弘之 Hiroyuki Sawano nanatsu no taizai fundo no shinpan The Seven Deadly Sins: Dragon's Judgement of Fury 4th season 4 Pop Japanese JPop J-Pop Anime Ending ED
BeatmapID:3549851
BeatmapSetID:1672936

[Difficulty]
HPDrainRate:3
CircleSize:3.1
OverallDifficulty:6.4
ApproachRate:6.4
SliderMultiplier:2.4
SliderTickRate:2

[Events]
//Background and Video events
Video,0,"ed.mp4"
0,0,"reine_in_another_universe.jpg",0,0
//Break Periods
//Storyboard Layer 0 (Background)
//Storyboard Layer 1 (Fail)
//Storyboard Layer 2 (Pass)
//Storyboard Layer 3 (Foreground)
//Storyboard Layer 4 (Overlay)
//Storyboard Sound Samples

[TimingPoints]
937,631.578947368421,4,2,1,40,1,0
937,-100,4,2,1,25,0,0
5515,-100,4,2,1,25,0,0
5910,-100,4,2,1,5,0,0
5989,-100,4,2,1,40,0,0
8436,-100,4,2,1,5,0,0
8515,-100,4,2,1,40,0,0
10962,-100,4,2,1,5,0,0
11041,-100,4,2,1,40,0,0
14752,-100,4,2,1,5,0,0
14831,-100,4,2,1,40,0,0
16094,-100,4,2,1,60,0,0
18383,-100,4,2,1,5,0,0
18462,-100,4,2,1,60,0,0
19173,-100,4,2,1,5,0,0
19252,-100,4,2,1,60,0,0
26199,-100,4,2,1,50,0,0
26752,-100,4,2,1,5,0,0
26831,-100,4,2,1,50,0,0
35673,-100,4,2,1,65,0,0
36305,-100,4,2,1,75,0,1
36541,-100,4,2,1,5,0,1
36620,-100,4,2,1,75,0,1
37173,-100,4,2,1,5,0,1
37252,-100,4,2,1,75,0,1
40331,-100,4,2,1,5,0,1
40410,-100,4,2,1,75,0,1
41278,-100,4,2,1,5,0,1
41357,-100,4,2,1,75,0,1
42226,-100,4,2,1,5,0,1
42305,-100,4,2,1,75,0,1
47278,-100,4,2,1,5,0,1
47357,-100,4,2,1,75,0,1
49173,-100,4,2,1,5,0,1
49252,-100,4,2,1,75,0,1
50752,-100,4,2,1,5,0,1
50831,-100,4,2,1,75,0,1
52331,-100,4,2,1,5,0,1
52410,-100,4,2,1,75,0,1
55489,-100,4,2,1,5,0,1
55568,-100,4,2,1,75,0,1
56515,-100,4,2,1,70,0,0
66541,-100,4,2,1,5,0,0
66620,-100,4,2,1,70,0,0
68752,-100,4,2,1,5,0,0
68831,-100,4,2,1,70,0,0
70015,-100,4,2,1,5,0,0
70094,-100,4,2,1,70,0,0
71594,-100,4,2,1,5,0,0
71673,-100,4,2,1,70,0,0
76726,-100,4,2,1,70,0,0
78226,-100,4,2,1,5,0,0
78305,-100,4,2,1,70,0,0
82410,-100,4,2,1,50,0,0
86831,-100,4,2,1,25,0,0

[Colours]
Combo1 : 95,114,137
Combo2 : 184,94,232
Combo3 : 188,188,188

[HitObjects]
339,207,937,6,0,L|181:203,2,120,2|2|2,0:0|0:0|0:0,0:0:0:0:
171,112,2358,2,0,L|163:19,1,60,2|2,0:0|0:0,0:0:0:0:
284,36,2831,1,2,0:0:0:0:
89,102,3463,5,2,0:0:0:0:
305,83,4094,2,0,L|310:252,1,120,2|0,0:0|0:0,0:0:0:0:
148,169,5042,1,2,0:0:0:0:
264,107,5358,2,0,L|274:16,1,60,2|2,0:0|0:0,0:0:0:0:
96,110,5989,6,0,L|96:284,1,120,0|0,1:2|0:0,0:0:0:0:
326,221,6621,2,0,L|476:222,1,120,10|2,0:0|0:0,0:0:0:0:
212,134,7252,6,0,L|216:-7,1,120,2|2,1:2|0:0,0:0:0:0:
327,37,7884,2,0,L|470:40,1,120,10|2,0:0|0:0,0:0:0:0:
210,177,8515,6,0,L|56:185,2,120,2|2|10,1:2|0:0|0:0,0:0:0:0:
352,210,9463,6,0,P|420:195|344:98,1,240,2|2,0:0|0:0,0:0:0:0:
216,101,10410,2,0,L|43:99,1,120,10|0,0:0|0:0,0:0:0:0:
338,170,11042,6,0,L|340:24,1,120,0|0,1:2|0:0,0:0:0:0:
217,64,11673,2,0,L|76:61,1,120,10|2,0:0|0:0,0:0:0:0:
220,134,12305,6,0,L|219:0,1,120,2|2,1:2|0:0,0:0:0:0:
95,61,12937,2,0,L|95:227,1,120,10|2,0:0|0:0,0:0:0:0:
328,172,13568,6,0,L|452:170,1,120,2|2,1:2|0:0,0:0:0:0:
325,172,14200,2,0,L|180:170,1,120,10|2,0:0|0:0,0:0:0:0:
449,186,14831,6,0,L|453:26,1,120,2|2,1:2|0:0,0:0:0:0:
335,54,15463,2,0,L|464:52,1,120,10|0,0:0|0:0,0:0:0:0:
191,139,16094,6,0,L|185:299,1,120,4|2,1:2|0:0,0:0:0:0:
307,263,16726,2,0,L|452:262,1,120,10|0,0:0|0:0,0:0:0:0:
195,174,17358,6,0,L|195:29,1,120,2|2,1:2|0:0,0:0:0:0:
257,27,17831,1,2,1:2:0:0:
317,27,17989,2,0,L|318:170,1,120,8|0,0:0|0:0,0:0:0:0:
201,190,18621,6,0,L|64:187,1,120,0|2,1:2|0:0,0:0:0:0:
141,123,19094,1,0,0:0:0:0:
291,147,19252,2,0,L|292:-3,1,120,8|2,0:0|0:0,0:0:0:0:
172,99,19884,6,0,L|170:245,1,120,2|2,1:2|0:0,0:0:0:0:
235,216,20358,1,2,1:2:0:0:
385,69,20515,2,0,L|390:219,1,120,10|0,0:0|0:0,0:0:0:0:
145,284,21147,6,0,L|290:287,2,120,0|2|8,1:2|0:0|0:0,0:0:0:0:
28,191,22094,2,0,L|26:98,1,60,2|2,0:0|0:0,0:0:0:0:
91,111,22410,6,0,L|260:115,1,120,2|2,1:2|0:0,0:0:0:0:
210,113,22884,1,2,1:2:0:0:
92,193,23200,2,0,L|87:104,1,60,2|2,0:0|0:0,0:0:0:0:
322,153,23673,6,0,L|483:154,2,120,2|0|8,1:2|0:0|0:0,0:0:0:0:
203,201,24621,2,0,L|205:106,1,60,2|2,0:0|0:0,0:0:0:0:
267,114,24936,6,0,L|424:108,1,120,2|2,1:2|0:0,0:0:0:0:
386,109,25410,1,2,1:2:0:0:
266,145,25726,2,0,L|196:143,1,60,2|2,0:0|0:0,0:0:0:0:
441,201,26200,6,0,L|449:41,2,120,0|2|2,1:2|0:0|1:2,0:0:0:0:
268,174,27305,2,0,L|201:172,1,60,2|2,0:0|1:2,0:0:0:0:
434,186,28094,6,0,P|490:154|396:51,1,240,2|0,1:2|1:2,0:0:0:0:
192,108,29358,1,2,1:2:0:0:
350,104,29831,2,0,L|358:25,1,60,2|2,0:0|1:2,0:0:0:0:
133,221,30621,6,0,P|71:198|161:99,1,240,2|0,1:2|1:2,0:0:0:0:
341,132,31884,1,2,1:2:0:0:
175,125,32358,2,0,L|170:27,1,60,2|2,0:0|1:2,0:0:0:0:
402,88,33147,6,0,L|154:81,1,240,2|2,1:2|1:2,0:0:0:0:
256,192,34094,12,0,35358,0:0:0:0:
136,230,35673,6,0,L|133:86,1,120,2|2,0:0|0:0,0:0:0:0:
417,87,36305,6,0,L|248:78,2,120,6|2|10,1:2|0:0|0:0,0:0:0:0:
289,92,37252,2,0,L|200:89,1,60,2|2,1:2|0:0,0:0:0:0:
419,122,37884,5,2,0:0:0:0:
175,172,38200,2,0,L|168:-1,1,120,10|2,0:0|1:2,0:0:0:0:
412,91,38831,6,0,L|262:85,1,120,0|0,1:2|0:0,0:0:0:0:
421,198,39463,2,0,L|425:43,1,120,10|2,0:0|1:2,0:0:0:0:
305,60,40094,6,0,L|165:56,1,120,2|2,0:0|1:2,0:0:0:0:
249,127,40568,2,0,L|329:129,2,60,2|8|0,0:0|0:0|1:2,0:0:0:0:
186,119,41042,1,2,0:0:0:0:
447,215,41358,6,0,L|449:43,1,120,6|2,1:2|0:0,0:0:0:0:
214,64,41989,2,0,L|61:61,1,120,10|2,0:0|1:2,0:0:0:0:
161,120,42463,6,0,L|322:121,1,120,2|0,0:0|0:0,0:0:0:0:
280,120,42937,1,2,0:0:0:0:
44,166,43252,2,0,L|42:8,1,120,10|2,0:0|1:2,0:0:0:0:
283,87,43884,6,0,L|122:84,1,120,0|0,1:2|0:0,0:0:0:0:
279,175,44515,2,0,L|409:173,1,120,10|2,0:0|1:2,0:0:0:0:
276,175,45147,6,0,L|129:170,1,120,2|2,0:0|1:2,0:0:0:0:
399,187,45779,2,0,L|404:45,1,120,10|0,0:0|1:2,0:0:0:0:
123,86,46410,6,0,L|257:91,2,120,6|0|10,1:2|0:0|0:0,0:0:0:0:
368,232,47358,2,0,P|441:212|346:119,1,240,2|2,1:2|0:0,0:0:0:0:
267,95,48305,5,10,0:0:0:0:
391,98,48621,2,0,L|394:18,1,60,2|2,1:2|0:0,0:0:0:0:
324,17,48937,5,0,1:2:0:0:
192,60,49252,1,2,0:0:0:0:
449,71,49568,2,0,L|455:207,1,120,10|2,0:0|1:2,0:0:0:0:
325,205,50200,6,0,L|476:200,1,120,2|2,0:0|1:2,0:0:0:0:
191,172,50831,2,0,L|31:168,1,120,10|0,0:0|0:0,0:0:0:0:
343,173,51463,6,0,L|346:20,1,120,6|2,1:2|0:0,0:0:0:0:
216,52,52094,2,0,L|73:53,1,120,10|2,0:0|1:2,0:0:0:0:
157,112,52568,6,0,L|285:109,1,120,2|0,0:0|0:0,0:0:0:0:
337,105,53042,1,2,0:0:0:0:
87,212,53358,2,0,L|82:64,1,120,10|2,0:0|1:2,0:0:0:0:
321,125,53989,6,0,L|454:121,1,120,0|0,1:2|0:0,0:0:0:0:
170,172,54621,2,0,L|166:24,1,120,10|2,0:0|1:2,0:0:0:0:
440,39,55252,6,0,P|500:47|436:147,1,240,2|8,0:0|0:0,0:0:0:0:
313,139,56200,2,0,L|306:62,1,60,2|2,0:0|1:2,0:0:0:0:
449,46,56515,5,6,1:2:0:0:
449,46,56831,2,0,L|352:46,1,60,2|2,0:0|1:2,0:0:0:0:
270,71,57305,2,0,L|207:70,1,60,0|2,0:0|1:2,0:0:0:0:
342,145,57779,6,0,L|411:148,1,60,2|2,0:0|0:0,0:0:0:0:
281,76,58252,2,0,L|219:73,1,60,2|10,1:2|0:0,0:0:0:0:
105,164,58726,2,0,L|198:166,1,60,2|2,1:2|0:0,0:0:0:0:
324,177,59042,6,0,L|330:22,1,120,0|0,1:2|0:0,0:0:0:0:
88,118,59673,2,0,L|78:-21,1,120,8|2,0:0|1:2,0:0:0:0:
145,12,60147,1,2,0:0:0:0:
211,109,60305,6,0,L|375:105,1,120,0|0,0:0|1:2,0:0:0:0:
82,208,60937,2,0,L|73:104,2,60,8|2|2,0:0|1:2|0:0,0:0:0:0:
352,224,61568,6,0,L|201:220,1,120,6|2,1:2|0:0,0:0:0:0:
294,160,62042,2,0,L|364:163,2,60,2|8|2,1:2|0:0|0:0,0:0:0:0:
231,124,62515,1,2,1:2:0:0:
348,74,62831,6,0,L|422:74,1,60,2|2,0:0|0:0,0:0:0:0:
285,46,63305,2,0,L|195:46,1,60,2|10,1:2|0:0,0:0:0:0:
114,112,63779,2,0,L|189:108,1,60,2|2,1:2|0:0,0:0:0:0:
329,117,64094,6,0,L|480:123,1,120,0|0,1:2|0:0,0:0:0:0:
211,215,64726,2,0,L|72:215,1,120,8|2,0:0|1:2,0:0:0:0:
211,211,65358,6,0,L|367:215,1,120,0|0,0:0|1:2,0:0:0:0:
90,165,65989,2,0,L|87:23,1,120,10|2,0:0|0:0,0:0:0:0:
359,95,66621,5,4,1:2:0:0:
128,166,66937,2,0,L|7:164,2,120,2|10|2,0:0|0:0|1:2,0:0:0:0:
259,194,67884,6,0,L|417:197,1,120,2|0,0:0|0:0,0:0:0:0:
123,167,68515,2,0,L|124:32,1,120,10|2,0:0|1:2,0:0:0:0:
365,102,69147,6,0,L|215:99,2,120,2|2|8,1:2|0:0|0:0,0:0:0:0:
126,228,70094,6,0,P|61:205|154:95,1,240,2|2,1:2|1:2,0:0:0:0:
346,115,71042,2,0,L|498:117,1,120,10|2,0:0|0:0,0:0:0:0:
199,175,71673,5,4,1:2:0:0:
314,147,71989,1,2,0:0:0:0:
77,219,72305,2,0,L|72:60,1,120,10|2,0:0|1:2,0:0:0:0:
190,93,72937,6,0,L|47:93,1,120,2|0,0:0|0:0,0:0:0:0:
321,188,73568,2,0,L|494:189,1,120,10|2,0:0|1:2,0:0:0:0:
172,203,74200,6,0,L|21:201,2,120,2|2|10,1:2|0:0|0:0,0:0:0:0:
299,185,75147,2,0,L|301:45,1,120,2|0,1:2|0:0,0:0:0:0:
180,57,75779,5,2,1:2:0:0:
423,48,76094,2,0,L|429:198,1,120,2|2,0:0|0:0,0:0:0:0:
155,223,76726,6,0,L|306:221,1,120,4|0,1:2|0:0,0:0:0:0:
156,227,77358,2,0,L|151:102,1,120,10|0,0:0|1:2,0:0:0:0:
267,109,77989,6,0,L|273:-20,1,120,2|0,0:0|0:0,0:0:0:0:
42,115,78621,2,0,L|32:264,1,120,10|0,0:0|1:2,0:0:0:0:
157,253,79252,6,0,L|31:247,1,120,2|0,1:2|0:0,0:0:0:0:
268,257,79884,2,0,L|407:257,1,120,10|2,0:0|1:2,0:0:0:0:
266,257,80515,6,0,L|257:121,1,120,2|0,0:0|1:2,0:0:0:0:
487,186,81147,2,0,L|487:40,1,120,10|0,0:0|0:0,0:0:0:0:
368,92,81779,6,0,L|246:88,1,120,4|0,1:2|0:0,0:0:0:0:
136,147,82410,2,0,L|130:2,1,120,2|0,0:0|0:0,0:0:0:0:
251,36,83042,6,0,L|258:186,1,120,2|0,0:0|0:0,0:0:0:0:
137,226,83673,2,0,L|135:60,1,120,2|0,0:0|0:0,0:0:0:0:
360,102,84305,6,0,L|496:104,1,120,2|0,0:0|0:0,0:0:0:0:
252,178,84937,2,0,L|103:171,1,120,2|0,0:0|0:0,0:0:0:0:
253,179,85568,6,0,L|254:39,1,120,2|0,0:0|0:0,0:0:0:0:
31,167,86200,6,0,P|24:90|174:33,1,240,2|0,0:0|0:0,0:0:0:0:
