osu file format v14

[General]
AudioFilename: audio.mp3
AudioLeadIn: 0
PreviewTime: 35594
Countdown: 0
SampleSet: Soft
StackLeniency: 0.4
Mode: 2
LetterboxInBreaks: 0
WidescreenStoryboard: 1

[Editor]
DistanceSpacing: 1.5
BeatDivisor: 4
GridSize: 16
TimelineZoom: 1.4

[Metadata]
Title:time (TV Size)
TitleUnicode:time (TV Size)
Artist:SawanoHiroyuki[nZk]:ReoNa
ArtistUnicode:SawanoHiroyuki[nZk]:ReoNa
Creator:Secre
Version:eternity
Source:七つの大罪 憤怒の審判
Tags:chickenbible Sharpay IV 澤野弘之 Hiroyuki Sawano nanatsu no taizai fundo no shinpan The Seven Deadly Sins: Dragon's Judgement of Fury 4th season 4 Pop Japanese JPop J-Pop Anime Ending ED
BeatmapID:3417288
BeatmapSetID:1672936

[Difficulty]
HPDrainRate:5
CircleSize:3.9
OverallDifficulty:8.4
ApproachRate:8.4
SliderMultiplier:3.3
SliderTickRate:4

[Events]
//Background and Video events
Video,0,"ed.mp4"
0,0,"reine_in_another_universe.jpg",0,0
//Break Periods
//Storyboard Layer 0 (Background)
//Storyboard Layer 1 (Fail)
//Storyboard Layer 2 (Pass)
//Storyboard Layer 3 (Foreground)
//Storyboard Layer 4 (Overlay)
//Storyboard Sound Samples

[TimingPoints]
937,631.578947368421,4,2,1,40,1,0
937,-100,4,2,1,25,0,0
5515,-100,4,2,1,25,0,0
5910,-100,4,2,1,5,0,0
5989,-100,4,2,1,40,0,0
8436,-100,4,2,1,5,0,0
8515,-100,4,2,1,40,0,0
10962,-100,4,2,1,5,0,0
11041,-100,4,2,1,40,0,0
14752,-100,4,2,1,5,0,0
14831,-100,4,2,1,40,0,0
16094,-100,4,2,1,60,0,0
18383,-100,4,2,1,5,0,0
18462,-100,4,2,1,60,0,0
19173,-100,4,2,1,5,0,0
19252,-100,4,2,1,60,0,0
26199,-100,4,2,1,50,0,0
26752,-100,4,2,1,5,0,0
26831,-100,4,2,1,50,0,0
35673,-100,4,2,1,65,0,0
36305,-100,4,2,1,75,0,1
36541,-100,4,2,1,5,0,1
36620,-100,4,2,1,75,0,1
37173,-100,4,2,1,5,0,1
37252,-100,4,2,1,75,0,1
40331,-100,4,2,1,5,0,1
40410,-100,4,2,1,75,0,1
41278,-100,4,2,1,5,0,1
41357,-100,4,2,1,75,0,1
42226,-100,4,2,1,5,0,1
42305,-100,4,2,1,75,0,1
47278,-100,4,2,1,5,0,1
47357,-100,4,2,1,75,0,1
49173,-100,4,2,1,5,0,1
49252,-100,4,2,1,75,0,1
50752,-100,4,2,1,5,0,1
50831,-100,4,2,1,75,0,1
52331,-100,4,2,1,5,0,1
52410,-100,4,2,1,75,0,1
55489,-100,4,2,1,5,0,1
55568,-100,4,2,1,75,0,1
56515,-100,4,2,1,70,0,0
66541,-100,4,2,1,5,0,0
66620,-100,4,2,1,70,0,0
68752,-100,4,2,1,5,0,0
68831,-100,4,2,1,70,0,0
70015,-100,4,2,1,5,0,0
70094,-100,4,2,1,70,0,0
71594,-100,4,2,1,5,0,0
71673,-100,4,2,1,70,0,0
76726,-100,4,2,1,70,0,0
78226,-100,4,2,1,5,0,0
78305,-100,4,2,1,70,0,0
82410,-100,4,2,1,50,0,0
86831,-100,4,2,1,25,0,0

[Colours]
Combo1 : 95,114,137
Combo2 : 184,94,232
Combo3 : 188,188,188

[HitObjects]
389,219,937,5,2,0:0:0:0:
171,196,1252,2,0,L|361:183,1,165,2|2,0:0|0:0,0:0:0:0:
120,157,2358,6,0,L|116:59,1,82.5,2|2,0:0|0:0,0:0:0:0:
352,119,2831,2,0,L|175:115,1,165,2|0,0:0|0:0,0:0:0:0:
450,113,3463,5,2,0:0:0:0:
241,152,4094,2,0,L|408:143,1,165,2|0,0:0|0:0,0:0:0:0:
184,107,5042,5,2,0:0:0:0:
338,77,5358,2,0,L|344:197,1,82.5,2|2,0:0|0:0,0:0:0:0:
41,248,5989,6,0,L|238:243,1,165,0|0,1:2|0:0,0:0:0:0:
41,198,6621,2,0,L|33:94,1,82.5,10|0,0:0|0:0,0:0:0:0:
236,130,7252,5,2,1:2:0:0:
160,106,7410,2,0,L|156:14,1,82.5,0|2,0:0|0:0,0:0:0:0:
411,50,7884,2,0,L|412:234,1,165,10|2,0:0|0:0,0:0:0:0:
159,263,8515,6,0,L|336:261,1,165,2|2,1:2|0:0,0:0:0:0:
71,195,9147,2,0,L|66:92,1,82.5,10|0,0:0|0:0,0:0:0:0:
144,82,9463,1,2,0:0:0:0:
303,172,9779,6,0,L|117:171,1,165,0|2,1:2|0:0,0:0:0:0:
423,181,10410,2,0,L|431:87,1,82.5,10|0,0:0|0:0,0:0:0:0:
155,191,11042,6,0,L|355:189,1,165,0|0,1:2|0:0,0:0:0:0:
240,129,11515,1,2,1:2:0:0:
92,141,11673,2,0,L|85:46,1,82.5,10|0,0:0|0:0,0:0:0:0:
273,68,12305,5,2,1:2:0:0:
343,60,12463,2,0,L|346:167,1,82.5,0|2,0:0|0:0,0:0:0:0:
271,158,12779,1,2,1:2:0:0:
425,167,12937,2,0,L|429:78,1,82.5,10|0,0:0|0:0,0:0:0:0:
196,164,13568,6,0,L|389:164,1,165,2|2,1:2|0:0,0:0:0:0:
112,250,14200,1,10,0:0:0:0:
382,247,14515,1,2,0:0:0:0:
112,250,14831,6,0,L|108:81,1,165,2|2,1:2|0:0,0:0:0:0:
353,112,15463,2,0,L|173:102,1,165,10|0,0:0|0:0,0:0:0:0:
459,89,16094,6,0,L|456:186,1,82.5,4|0,1:2|0:0,0:0:0:0:
374,194,16410,2,0,L|277:188,1,82.5,2|0,0:0|1:2,0:0:0:0:
139,139,16726,2,0,L|133:46,1,82.5,10|0,0:0|0:0,0:0:0:0:
51,62,17042,2,0,L|153:53,1,82.5
285,68,17358,6,0,L|287:181,1,82.5,2|2,1:2|0:0,0:0:0:0:
207,162,17673,1,2,0:0:0:0:
360,160,17831,1,2,1:2:0:0:
207,162,17989,2,0,L|205:63,1,82.5,8|2,0:0|0:0,0:0:0:0:
288,66,18305,2,0,L|292:-51,1,82.5,0|2,0:0|0:0,0:0:0:0:
130,33,18621,5,0,1:2:0:0:
55,53,18778,1,2,0:0:0:0:
53,129,18936,1,2,0:0:0:0:
126,153,19094,1,0,0:0:0:0:
405,116,19252,2,0,L|408:307,1,165,8|2,0:0|0:0,0:0:0:0:
329,294,19726,1,2,0:0:0:0:
173,199,19884,6,0,L|171:89,1,82.5,2|0,1:2|0:0,0:0:0:0:
252,98,20200,1,2,0:0:0:0:
104,94,20358,1,2,1:2:0:0:
351,194,20515,2,0,L|352:93,1,82.5,10|2,0:0|0:0,0:0:0:0:
265,137,20831,2,0,L|264:45,1,82.5,0|2,0:0|0:0,0:0:0:0:
419,49,21147,5,0,1:2:0:0:
493,67,21304,1,2,0:0:0:0:
496,143,21462,1,2,0:0:0:0:
423,167,21620,1,0,1:2:0:0:
171,188,21779,2,0,L|171:82,1,82.5,8|0,0:0|0:0,0:0:0:0:
326,83,22094,2,0,L|424:85,1,82.5,2|2,0:0|0:0,0:0:0:0:
244,55,22410,6,0,P|159:62|105:135,1,165,2|2,1:2|0:0,0:0:0:0:
192,125,22884,1,2,1:2:0:0:
443,177,23042,2,0,L|445:67,1,82.5,8|2,0:0|0:0,0:0:0:0:
288,256,23358,2,0,L|396:253,1,82.5,2|0,0:0|0:0,0:0:0:0:
206,263,23673,5,2,1:2:0:0:
131,245,23830,1,2,0:0:0:0:
129,168,23988,1,0,0:0:0:0:
203,148,24146,1,0,1:2:0:0:
457,163,24305,2,0,L|457:64,1,82.5,8|0,0:0|0:0,0:0:0:0:
301,62,24621,2,0,L|195:61,1,82.5,2|2,0:0|0:0,0:0:0:0:
376,53,24936,6,0,P|460:87|475:172,1,165,2|2,1:2|0:0,0:0:0:0:
396,165,25410,1,2,1:2:0:0:
143,196,25568,2,0,L|142:93,1,82.5,8|2,0:0|0:0,0:0:0:0:
292,92,25884,2,0,L|407:94,1,82.5,2|0,0:0|0:0,0:0:0:0:
215,166,26200,6,0,L|13:163,1,165,0|2,1:2|0:0,0:0:0:0:
304,217,26831,2,0,L|480:219,1,165,2|0,1:2|0:0,0:0:0:0:
386,163,27305,1,2,0:0:0:0:
224,153,27463,6,0,L|110:152,1,82.5,2|2,1:2|0:0,0:0:0:0:
459,83,28094,2,0,L|465:282,1,165,2|0,1:2|0:0,0:0:0:0:
203,230,28726,6,0,L|386:231,1,165,0|0,1:2|0:0,0:0:0:0:
126,177,29358,2,0,P|81:103|166:92,1,165,2|2,1:2|0:0,0:0:0:0:
212,75,29831,1,2,0:0:0:0:
374,78,29989,6,0,L|380:257,1,165,2|0,1:2|0:0,0:0:0:0:
88,258,30621,2,0,L|200:253,1,82.5,2|2,1:2|0:0,0:0:0:0:
401,232,31252,6,0,L|212:230,1,165,0|2,1:2|0:0,0:0:0:0:
320,176,31726,1,2,0:0:0:0:
483,168,31884,1,2,1:2:0:0:
256,91,32358,6,0,L|155:88,1,82.5,2|2,0:0|1:2,0:0:0:0:
173,88,32673,1,0,0:0:0:0:
257,91,32831,2,0,L|260:193,1,82.5,0|2,0:0|0:0,0:0:0:0:
97,235,33147,2,0,L|95:51,1,165,2|0,1:2|0:0,0:0:0:0:
354,84,33779,5,2,1:2:0:0:
256,192,34094,8,0,35358,0:0:0:0:
369,237,35673,6,0,P|436:238|465:126,1,165,2|2,0:0|0:0,0:0:0:0:
95,255,36305,6,0,L|304:251,1,165,6|2,1:2|0:0,0:0:0:0:
176,191,36779,1,0,1:2:0:0:
349,185,36937,2,0,L|352:64,1,82.5,10|0,0:0|0:0,0:0:0:0:
196,79,37252,1,2,1:2:0:0:
348,77,37410,6,0,L|136:78,1,165,2|0,0:0|0:0,0:0:0:0:
348,149,37884,2,0,L|456:146,1,82.5,2|0,0:0|1:2,0:0:0:0:
175,171,38200,2,0,P|87:182|48:284,1,165,10|2,0:0|1:2,0:0:0:0:
127,253,38673,1,0,0:0:0:0:
378,258,38831,6,0,P|431:191|373:164,1,165,0|0,1:2|0:0,0:0:0:0:
306,161,39305,1,0,1:2:0:0:
57,178,39463,2,0,L|59:68,1,82.5,10|0,0:0|0:0,0:0:0:0:
227,70,39779,2,0,L|358:71,1,82.5,2|0,1:2|0:0,0:0:0:0:
147,170,40094,6,0,L|145:78,1,82.5,2|0,0:0|0:0,0:0:0:0:
309,73,40410,1,2,1:2:0:0:
145,69,40568,1,2,0:0:0:0:
399,70,40726,2,0,L|401:189,1,82.5,8|0,0:0|1:2,0:0:0:0:
235,190,41042,2,0,L|118:188,1,82.5,2|0,0:0|0:0,0:0:0:0:
418,224,41358,6,0,P|465:149|413:127,1,165,6|2,1:2|0:0,0:0:0:0:
347,122,41831,1,0,1:2:0:0:
99,192,41989,2,0,L|99:93,1,82.5,10|0,0:0|0:0,0:0:0:0:
268,94,42305,1,2,1:2:0:0:
97,96,42463,6,0,L|273:94,1,165,2|0,0:0|0:0,0:0:0:0:
106,174,42937,2,0,L|13:176,1,82.5,2|0,0:0|1:2,0:0:0:0:
270,124,43252,2,0,P|364:147|374:238,1,165,10|2,0:0|1:2,0:0:0:0:
301,217,43726,1,0,0:0:0:0:
52,181,43884,6,0,L|52:81,1,82.5,0|0,1:2|0:0,0:0:0:0:
211,90,44200,2,0,L|106:90,1,82.5,0|0,0:0|1:2,0:0:0:0:
384,89,44515,2,0,L|384:189,1,82.5,10|0,0:0|0:0,0:0:0:0:
131,233,44831,6,0,P|82:160|165:143,1,165,2|2,1:2|0:0,0:0:0:0:
217,124,45305,1,0,0:0:0:0:
385,128,45463,2,0,L|388:227,1,82.5,2|0,1:2|0:0,0:0:0:0:
142,205,45779,2,0,L|27:205,1,82.5,10|0,0:0|1:2,0:0:0:0:
59,205,46094,1,0,1:2:0:0:
439,241,46410,6,0,P|484:168|427:165,1,165,6|0,1:2|0:0,0:0:0:0:
358,163,46884,1,2,1:2:0:0:
97,188,47042,2,0,L|96:81,1,82.5,10|0,0:0|0:0,0:0:0:0:
267,69,47358,1,2,1:2:0:0:
342,71,47515,1,0,0:0:0:0:
345,151,47673,1,0,0:0:0:0:
269,166,47831,1,0,0:0:0:0:
99,229,47989,6,0,L|213:225,1,82.5,2|0,0:0|1:2,0:0:0:0:
440,124,48305,2,0,L|445:224,1,82.5,10|0,0:0|0:0,0:0:0:0:
287,221,48621,1,2,1:2:0:0:
444,206,48779,1,2,0:0:0:0:
190,190,48937,6,0,L|191:100,1,82.5,0|0,1:2|0:0,0:0:0:0:
356,86,49252,2,0,L|443:89,1,82.5,2|0,0:0|1:2,0:0:0:0:
160,189,49568,2,0,L|76:190,1,82.5,10|0,0:0|0:0,0:0:0:0:
250,150,49884,2,0,L|250:263,1,82.5,2|0,1:2|0:0,0:0:0:0:
78,249,50200,6,0,P|27:180|88:152,1,165,2|2,0:0|1:2,0:0:0:0:
155,146,50673,1,0,0:0:0:0:
405,139,50831,2,0,L|489:139,1,82.5,10|0,0:0|1:2,0:0:0:0:
487,139,51147,1,0,0:0:0:0:
112,139,51463,6,0,P|31:115|13:29,1,165,6|2,1:2|0:0,0:0:0:0:
87,44,51937,1,0,1:2:0:0:
336,215,52094,2,0,L|137:212,1,165,10|2,0:0|1:2,0:0:0:0:
336,215,52568,6,0,P|427:249|442:319,1,165,2|0,0:0|0:0,0:0:0:0:
274,283,53042,2,0,L|177:283,1,82.5,2|0,0:0|1:2,0:0:0:0:
453,270,53358,2,0,L|455:100,1,165,10|2,0:0|1:2,0:0:0:0:
378,94,53831,1,0,0:0:0:0:
128,173,53989,6,0,P|79:102|155:83,1,165,0|0,1:2|0:0,0:0:0:0:
195,75,54463,1,0,1:2:0:0:
443,102,54621,2,0,L|443:197,1,82.5,10|0,0:0|0:0,0:0:0:0:
274,212,54937,2,0,L|185:212,1,82.5,2|0,1:2|0:0,0:0:0:0:
359,231,55252,5,2,0:0:0:0:
432,209,55409,1,0,0:0:0:0:
432,133,55567,1,0,1:2:0:0:
358,112,55725,1,0,0:0:0:0:
99,136,55884,2,0,P|59:54|108:37,1,165,8|2,0:0|0:0,0:0:0:0:
188,32,56358,1,2,1:2:0:0:
439,187,56515,5,6,1:2:0:0:
306,259,56831,2,0,L|403:258,1,82.5,2|2,0:0|1:2,0:0:0:0:
233,188,57147,1,8,0:0:0:0:
156,147,57305,2,0,L|65:147,1,82.5,0|2,0:0|1:2,0:0:0:0:
225,90,57779,6,0,L|113:87,1,82.5,2|2,0:0|0:0,0:0:0:0:
303,120,58252,1,2,1:2:0:0:
140,155,58410,2,0,L|139:-16,1,165,10|2,0:0|1:2,0:0:0:0:
216,22,58884,1,2,0:0:0:0:
466,63,59042,6,0,L|475:248,1,165,0|0,1:2|0:0,0:0:0:0:
85,266,59673,2,0,L|284:260,1,165,8|2,0:0|1:2,0:0:0:0:
85,266,60147,2,0,L|80:175,1,82.5,2|0,0:0|0:0,0:0:0:0:
251,141,60463,6,0,P|341:163|345:244,1,165,2|2,0:0|0:0,0:0:0:0:
106,181,60937,2,0,L|11:181,1,82.5,8|2,0:0|1:2,0:0:0:0:
23,181,61252,1,2,0:0:0:0:
401,120,61568,5,6,1:2:0:0:
248,164,61884,2,0,L|345:160,1,82.5,2|2,0:0|1:2,0:0:0:0:
172,100,62200,1,8,0:0:0:0:
95,104,62358,2,0,L|94:13,1,82.5,2|2,0:0|1:2,0:0:0:0:
345,56,62831,6,0,L|441:57,1,82.5,2|2,0:0|0:0,0:0:0:0:
187,148,63305,1,2,1:2:0:0:
434,166,63463,2,0,L|439:-10,1,165,10|2,0:0|1:2,0:0:0:0:
360,14,63937,1,2,0:0:0:0:
106,212,64094,6,0,P|60:136|145:124,1,165,0|0,1:2|0:0,0:0:0:0:
186,98,64568,1,0,1:2:0:0:
438,99,64726,2,0,L|441:198,1,82.5,8|0,0:0|0:0,0:0:0:0:
275,193,65042,1,2,1:2:0:0:
440,187,65200,6,0,L|337:188,1,82.5,2|0,0:0|0:0,0:0:0:0:
188,261,65515,2,0,L|391:259,1,165,2|2,0:0|0:0,0:0:0:0:
101,217,65989,2,0,L|99:98,1,82.5,10|2,0:0|1:2,0:0:0:0:
270,104,66305,2,0,L|385:103,1,82.5,2|0,0:0|0:0,0:0:0:0:
82,225,66621,6,0,L|266:225,1,165,4|2,1:2|0:0,0:0:0:0:
160,162,67094,1,0,1:2:0:0:
414,176,67252,2,0,L|416:78,1,82.5,10|0,0:0|0:0,0:0:0:0:
251,66,67568,2,0,L|145:66,1,82.5,2|0,1:2|0:0,0:0:0:0:
336,65,67884,5,2,0:0:0:0:
416,72,68041,1,0,0:0:0:0:
487,123,68199,1,0,0:0:0:0:
487,205,68357,1,0,1:2:0:0:
225,186,68515,2,0,L|46:183,1,165,10|2,0:0|1:2,0:0:0:0:
447,238,69147,6,0,L|449:50,1,165,2|2,1:2|0:0,0:0:0:0:
366,67,69621,1,0,1:2:0:0:
112,96,69779,1,8,0:0:0:0:
366,67,70094,6,0,P|413:142|350:147,1,165,2|0,1:2|0:0,0:0:0:0:
285,160,70568,1,0,0:0:0:0:
119,162,70726,1,2,1:2:0:0:
498,75,71042,2,0,L|501:280,1,165,10|2,0:0|0:0,0:0:0:0:
417,253,71515,1,0,0:0:0:0:
154,202,71673,6,0,P|108:127|178:118,1,165,4|2,1:2|0:0,0:0:0:0:
236,108,72147,1,0,1:2:0:0:
487,103,72305,1,10,0:0:0:0:
236,108,72621,2,0,L|122:106,1,82.5,2|0,1:2|0:0,0:0:0:0:
316,113,72937,6,0,L|403:113,1,82.5,2|0,0:0|0:0,0:0:0:0:
316,113,73252,2,0,L|206:111,1,82.5,0|0,0:0|1:2,0:0:0:0:
485,224,73568,2,0,L|488:54,1,165,10|2,0:0|1:2,0:0:0:0:
409,49,74042,1,0,0:0:0:0:
152,202,74200,6,0,L|356:201,1,165,2|2,1:2|0:0,0:0:0:0:
316,201,74673,1,0,1:2:0:0:
66,202,74831,2,0,L|64:100,1,82.5,10|0,0:0|0:0,0:0:0:0:
325,66,75147,2,0,P|370:138|310:138,1,165,2|0,1:2|0:0,0:0:0:0:
174,210,75779,6,0,L|175:113,1,82.5,2|0,1:2|0:0,0:0:0:0:
337,121,76094,2,0,L|506:126,1,165,2|2,0:0|0:0,0:0:0:0:
103,239,76726,6,0,P|65:157|127:153,1,165,4|0,1:2|0:0,0:0:0:0:
191,150,77200,1,0,1:2:0:0:
445,234,77358,2,0,L|225:232,1,165,10|0,0:0|1:2,0:0:0:0:
445,233,77989,6,0,L|448:57,1,165,2|0,0:0|0:0,0:0:0:0:
60,163,78621,2,0,L|270:162,1,165,10|0,0:0|1:2,0:0:0:0:
308,160,79094,1,0,0:0:0:0:
60,163,79252,6,0,L|60:52,1,82.5,2|0,1:2|0:0,0:0:0:0:
142,79,79568,2,0,L|47:80,1,82.5,0|0,0:0|1:2,0:0:0:0:
315,85,79884,2,0,P|413:130|422:213,1,165,10|2,0:0|1:2,0:0:0:0:
183,253,80515,6,0,L|391:253,1,165,2|0,0:0|1:2,0:0:0:0:
348,253,80989,1,0,0:0:0:0:
97,197,81147,2,0,L|99:24,1,165,10|0,0:0|0:0,0:0:0:0:
260,126,81779,6,0,L|92:119,1,165,4|0,1:2|0:0,0:0:0:0:
175,187,82252,1,0,0:0:0:0:
336,199,82410,2,0,L|337:99,1,82.5,2|0,0:0|0:0,0:0:0:0:
258,114,82726,2,0,L|163:117,1,82.5
258,114,83042,5,2,0:0:0:0:
333,125,83199,1,0,0:0:0:0:
339,201,83357,1,0,0:0:0:0:
266,224,83515,1,0,0:0:0:0:
108,219,83673,2,0,L|106:48,1,165,2|0,0:0|0:0,0:0:0:0:
355,156,84305,6,0,L|167:153,1,165,2|0,0:0|0:0,0:0:0:0:
445,118,84937,2,0,L|448:315,1,165,2|0,0:0|0:0,0:0:0:0:
286,246,85568,6,0,L|288:140,1,82.5,2|0,0:0|0:0,0:0:0:0:
371,148,85884,2,0,L|372:36,1,82.5
210,45,86200,6,0,P|115:60|111:146,2,165,2|0|0,0:0|0:0|0:0,0:0:0:0:
