osu file format v14

[General]
AudioFilename: audio.mp3
AudioLeadIn: 0
PreviewTime: 35594
Countdown: 0
SampleSet: Soft
StackLeniency: 0.4
Mode: 2
LetterboxInBreaks: 0
WidescreenStoryboard: 1

[Editor]
DistanceSpacing: 1.5
BeatDivisor: 4
GridSize: 16
TimelineZoom: 1.4

[Metadata]
Title:time (TV Size)
TitleUnicode:time (TV Size)
Artist:SawanoHiroyuki[nZk]:ReoNa
ArtistUnicode:SawanoHiroyuki[nZk]:ReoNa
Creator:Secre
Version:cup
Source:七つの大罪 憤怒の審判
Tags:chickenbible Sharpay IV 澤野弘之 Hiroyuki Sawano nanatsu no taizai fundo no shinpan The Seven Deadly Sins: Dragon's Judgement of Fury 4th season 4 Pop Japanese JPop J-Pop Anime Ending ED
BeatmapID:3549881
BeatmapSetID:1672936

[Difficulty]
HPDrainRate:2
CircleSize:2.6
OverallDifficulty:5.4
ApproachRate:5.4
SliderMultiplier:2.2
SliderTickRate:2

[Events]
//Background and Video events
Video,0,"ed.mp4"
0,0,"reine_in_another_universe.jpg",0,0
//Break Periods
//Storyboard Layer 0 (Background)
//Storyboard Layer 1 (Fail)
//Storyboard Layer 2 (Pass)
//Storyboard Layer 3 (Foreground)
//Storyboard Layer 4 (Overlay)
//Storyboard Sound Samples

[TimingPoints]
937,631.578947368421,4,2,1,40,1,0
937,-100,4,2,1,25,0,0
5515,-100,4,2,1,25,0,0
5910,-100,4,2,1,5,0,0
5989,-100,4,2,1,40,0,0
8436,-100,4,2,1,5,0,0
8515,-100,4,2,1,40,0,0
10962,-100,4,2,1,5,0,0
11041,-100,4,2,1,40,0,0
14752,-100,4,2,1,5,0,0
14831,-100,4,2,1,40,0,0
16094,-100,4,2,1,60,0,0
18383,-100,4,2,1,5,0,0
18462,-100,4,2,1,60,0,0
19173,-100,4,2,1,5,0,0
19252,-100,4,2,1,60,0,0
26199,-100,4,2,1,50,0,0
26752,-100,4,2,1,5,0,0
26831,-100,4,2,1,50,0,0
35673,-100,4,2,1,65,0,0
36305,-100,4,2,1,75,0,1
36541,-100,4,2,1,5,0,1
36620,-100,4,2,1,75,0,1
37173,-100,4,2,1,5,0,1
37252,-100,4,2,1,75,0,1
40331,-100,4,2,1,5,0,1
40410,-100,4,2,1,75,0,1
41278,-100,4,2,1,5,0,1
41357,-100,4,2,1,75,0,1
42226,-100,4,2,1,5,0,1
42305,-100,4,2,1,75,0,1
47278,-100,4,2,1,5,0,1
47357,-100,4,2,1,75,0,1
49173,-100,4,2,1,5,0,1
49252,-100,4,2,1,75,0,1
50752,-100,4,2,1,5,0,1
50831,-100,4,2,1,75,0,1
52331,-100,4,2,1,5,0,1
52410,-100,4,2,1,75,0,1
55489,-100,4,2,1,5,0,1
55568,-100,4,2,1,75,0,1
56515,-100,4,2,1,70,0,0
66541,-100,4,2,1,5,0,0
66620,-100,4,2,1,70,0,0
68752,-100,4,2,1,5,0,0
68831,-100,4,2,1,70,0,0
70015,-100,4,2,1,5,0,0
70094,-100,4,2,1,70,0,0
71594,-100,4,2,1,5,0,0
71673,-100,4,2,1,70,0,0
76726,-100,4,2,1,70,0,0
78226,-100,4,2,1,5,0,0
78305,-100,4,2,1,70,0,0
82410,-100,4,2,1,50,0,0
86831,-100,4,2,1,25,0,0

[Colours]
Combo1 : 95,114,137
Combo2 : 184,94,232
Combo3 : 188,188,188

[HitObjects]
342,224,937,6,0,L|195:223,2,110,2|2|2,0:0|0:0|0:0,0:0:0:0:
181,150,2358,2,0,L|174:62,1,55,2|2,0:0|0:0,0:0:0:0:
287,50,2831,1,2,0:0:0:0:
125,117,3463,5,2,0:0:0:0:
309,148,4094,2,0,L|309:290,1,110,2|0,0:0|0:0,0:0:0:0:
156,225,5042,1,2,0:0:0:0:
261,154,5358,2,0,L|268:78,1,55,2|2,0:0|0:0,0:0:0:0:
106,110,5989,6,0,L|244:112,2,110,0|0|10,1:2|0:0|0:0,0:0:0:0:
318,214,7252,6,0,L|320:93,1,110,2|2,1:2|0:0,0:0:0:0:
211,126,7884,2,0,L|210:3,1,110,10|2,0:0|0:0,0:0:0:0:
325,54,8515,6,0,L|453:52,2,110,2|2|10,1:2|0:0|0:0,0:0:0:0:
214,59,9463,6,0,P|153:68|223:160,1,220,2|2,0:0|0:0,0:0:0:0:
316,157,10410,1,10,0:0:0:0:
125,167,11042,6,0,L|123:44,1,110,0|0,1:2|0:0,0:0:0:0:
231,59,11673,2,0,L|369:61,1,110,10|2,0:0|0:0,0:0:0:0:
228,58,12305,6,0,L|222:192,1,110,2|2,1:2|0:0,0:0:0:0:
331,177,12937,2,0,L|335:47,1,110,10|2,0:0|0:0,0:0:0:0:
225,64,13568,6,0,L|101:65,1,110,2|2,1:2|0:0,0:0:0:0:
225,64,14200,2,0,L|367:68,1,110,10|2,0:0|0:0,0:0:0:0:
224,65,14831,6,0,L|224:194,1,110,2|2,1:2|0:0,0:0:0:0:
331,185,15463,1,10,0:0:0:0:
116,188,16094,6,0,L|115:58,1,110,4|2,1:2|0:0,0:0:0:0:
226,65,16726,1,10,0:0:0:0:
414,192,17358,6,0,L|263:186,1,110,2|2,1:2|0:0,0:0:0:0:
200,159,17989,2,0,L|202:7,1,110,8|0,0:0|0:0,0:0:0:0:
312,46,18621,6,0,L|451:47,2,110,0|2|8,1:2|0:0|0:0,0:0:0:0:
105,208,19884,6,0,L|106:78,1,110,2|2,1:2|0:0,0:0:0:0:
221,94,20515,2,0,L|367:99,1,110,10|0,0:0|0:0,0:0:0:0:
216,90,21147,6,0,L|214:215,1,110,0|2,1:2|0:0,0:0:0:0:
322,196,21779,2,0,L|321:57,1,110,8|2,0:0|0:0,0:0:0:0:
212,79,22410,5,2,1:2:0:0:
105,150,22726,2,0,L|100:61,1,55,2|2,0:0|1:2,0:0:0:0:
213,68,23200,2,0,L|220:-7,1,55,2|2,0:0|0:0,0:0:0:0:
101,102,23673,6,0,L|97:255,1,110,2|0,1:2|0:0,0:0:0:0:
213,214,24305,1,8,0:0:0:0:
328,192,24621,2,0,L|328:111,1,55,2|2,0:0|0:0,0:0:0:0:
267,117,24936,5,2,1:2:0:0:
153,83,25252,2,0,L|151:-7,1,55,2|2,0:0|1:2,0:0:0:0:
269,30,25726,2,0,L|339:32,1,55,2|2,0:0|0:0,0:0:0:0:
201,150,26200,6,0,L|69:147,2,110,0|2|2,1:2|0:0|1:2,0:0:0:0:
360,146,27305,2,0,L|363:55,1,55,2|2,0:0|1:2,0:0:0:0:
178,224,28094,6,0,P|110:193|189:111,1,220,2|0,1:2|1:2,0:0:0:0:
365,100,29358,1,2,1:2:0:0:
217,126,29831,2,0,L|211:40,1,55,2|2,0:0|1:2,0:0:0:0:
419,38,30621,6,0,P|488:75|417:164,1,220,2|0,1:2|1:2,0:0:0:0:
213,151,31884,1,2,1:2:0:0:
357,107,32358,2,0,L|368:25,1,55,2|2,0:0|1:2,0:0:0:0:
187,40,33147,6,0,P|125:53|200:148,1,220,2|2,1:2|1:2,0:0:0:0:
256,192,34094,12,0,35358,0:0:0:0:
161,193,35673,6,0,L|162:49,1,110,2|2,0:0|0:0,0:0:0:0:
302,65,36305,6,0,L|454:66,2,110,6|2|10,1:2|0:0|0:0,0:0:0:0:
189,212,37252,6,0,P|113:187|203:124,1,220,2|2,1:2|0:0,0:0:0:0:
312,74,38200,2,0,L|317:211,1,110,10|2,0:0|1:2,0:0:0:0:
191,214,38831,5,0,1:2:0:0:
388,214,39463,2,0,L|388:74,1,110,10|2,0:0|1:2,0:0:0:0:
276,104,40094,6,0,L|131:106,1,110,2|2,0:0|1:2,0:0:0:0:
276,104,40726,2,0,L|282:225,1,110,8|2,0:0|0:0,0:0:0:0:
143,210,41358,6,0,L|141:81,1,110,6|2,1:2|0:0,0:0:0:0:
251,72,41989,1,10,0:0:0:0:
136,71,42305,6,0,P|67:88|156:153,1,220,2|2,1:2|0:0,0:0:0:0:
258,171,43252,2,0,L|386:174,1,110,10|2,0:0|1:2,0:0:0:0:
259,171,43884,6,0,L|257:48,1,110,0|0,1:2|0:0,0:0:0:0:
375,49,44515,2,0,L|256:46,2,110,10|2|2,0:0|1:2|0:0,0:0:0:0:
490,56,45463,5,2,1:2:0:0:
367,117,45779,2,0,L|237:110,1,110,10|0,0:0|1:2,0:0:0:0:
370,117,46410,6,0,L|493:125,2,110,6|0|10,1:2|0:0|0:0,0:0:0:0:
254,110,47358,2,0,P|189:122|265:207,1,220,2|2,1:2|0:0,0:0:0:0:
360,210,48305,5,10,0:0:0:0:
474,209,48621,2,0,L|476:130,1,55,2|2,1:2|0:0,0:0:0:0:
413,123,48937,5,0,1:2:0:0:
296,136,49252,2,0,L|135:137,2,110,2|10|2,0:0|0:0|1:2,0:0:0:0:
418,153,50200,6,0,L|428:19,1,110,2|2,0:0|1:2,0:0:0:0:
309,47,50831,2,0,L|184:44,1,110,10|0,0:0|0:0,0:0:0:0:
334,90,51463,6,0,L|334:222,1,110,6|2,1:2|0:0,0:0:0:0:
216,212,52094,1,10,0:0:0:0:
98,167,52410,6,0,P|45:152|123:48,1,220,2|2,1:2|0:0,0:0:0:0:
219,98,53358,2,0,L|363:101,1,110,10|2,0:0|1:2,0:0:0:0:
202,127,53989,6,0,L|205:248,1,110,0|0,1:2|0:0,0:0:0:0:
318,230,54621,2,0,L|473:231,1,110,10|2,0:0|1:2,0:0:0:0:
291,100,55252,6,0,P|206:95|128:228,1,220,2|8,0:0|0:0,0:0:0:0:
246,199,56200,1,2,0:0:0:0:
301,199,56357,1,2,1:2:0:0:
246,199,56515,5,6,1:2:0:0:
134,140,56831,2,0,L|134:64,1,55,2|2,0:0|1:2,0:0:0:0:
255,85,57305,2,0,L|254:0,1,55,0|2,0:0|1:2,0:0:0:0:
144,44,57779,6,0,L|145:-28,1,55,2|2,0:0|0:0,0:0:0:0:
264,35,58252,2,0,L|343:37,1,55,2|10,1:2|0:0,0:0:0:0:
320,33,58726,1,2,1:2:0:0:
210,134,59042,6,0,L|88:134,1,110,0|0,1:2|0:0,0:0:0:0:
209,142,59673,2,0,L|339:142,1,110,8|2,0:0|1:2,0:0:0:0:
210,139,60305,6,0,L|204:3,1,110,0|0,0:0|1:2,0:0:0:0:
323,62,60937,2,0,L|327:-52,1,110,8|2,0:0|0:0,0:0:0:0:
209,80,61568,5,6,1:2:0:0:
318,85,61884,2,0,L|320:156,1,55,2|2,0:0|1:2,0:0:0:0:
204,175,62358,2,0,L|202:84,1,55,2|2,0:0|1:2,0:0:0:0:
321,88,62831,6,0,L|320:22,1,55,2|2,0:0|0:0,0:0:0:0:
208,43,63305,2,0,L|123:42,1,55,2|10,1:2|0:0,0:0:0:0:
153,42,63779,1,2,1:2:0:0:
280,86,64094,6,0,L|431:86,2,110,0|0|8,1:2|0:0|0:0,0:0:0:0:
158,176,65042,2,0,L|152:103,1,55,2|2,1:2|0:0,0:0:0:0:
278,102,65515,6,0,L|406:107,1,110,2|2,0:0|0:0,0:0:0:0:
328,169,65989,1,10,0:0:0:0:
273,169,66146,1,2,1:2:0:0:
218,169,66304,1,2,0:0:0:0:
350,122,66621,5,4,1:2:0:0:
467,128,66937,2,0,L|466:248,1,110,2|10,0:0|0:0,0:0:0:0:
356,252,67568,1,2,1:2:0:0:
238,193,67884,6,0,L|240:75,1,110,2|0,0:0|0:0,0:0:0:0:
360,80,68515,2,0,L|230:78,1,110,10|2,0:0|1:2,0:0:0:0:
126,158,69147,6,0,L|123:13,1,110,2|2,1:2|0:0,0:0:0:0:
249,39,69779,1,8,0:0:0:0:
132,212,70094,6,0,P|58:183|146:115,1,220,2|2,1:2|1:2,0:0:0:0:
248,120,71042,2,0,L|365:127,1,110,10|2,0:0|0:0,0:0:0:0:
237,197,71673,5,4,1:2:0:0:
117,144,71989,2,0,L|5:146,2,110,2|10|2,0:0|0:0|1:2,0:0:0:0:
239,126,72937,6,0,L|247:1,1,110,2|0,0:0|0:0,0:0:0:0:
122,164,73568,2,0,L|119:27,1,110,10|2,0:0|1:2,0:0:0:0:
246,53,74200,6,0,L|391:53,2,110,2|2|10,1:2|0:0|0:0,0:0:0:0:
124,210,75147,6,0,P|69:185|142:93,1,220,2|2,1:2|1:2,0:0:0:0:
253,109,76094,2,0,L|249:244,1,110,2|2,0:0|0:0,0:0:0:0:
113,252,76726,6,0,L|231:247,1,110,4|0,1:2|0:0,0:0:0:0:
332,230,77358,2,0,L|335:101,1,110,10|0,0:0|1:2,0:0:0:0:
222,112,77989,6,0,L|220:-33,1,110,2|0,0:0|0:0,0:0:0:0:
333,62,78621,2,0,L|337:-50,1,110,10|0,0:0|1:2,0:0:0:0:
227,114,79252,6,0,L|103:116,1,110,2|0,1:2|0:0,0:0:0:0:
226,116,79884,2,0,L|358:119,1,110,10|2,0:0|1:2,0:0:0:0:
223,117,80515,6,0,L|218:-29,1,110,2|0,0:0|1:2,0:0:0:0:
331,24,81147,1,10,0:0:0:0:
135,191,81779,6,0,L|131:46,1,110,4|0,1:2|0:0,0:0:0:0:
237,57,82410,1,2,0:0:0:0:
401,121,83042,5,2,0:0:0:0:
181,130,83673,1,2,0:0:0:0:
340,85,84305,5,2,0:0:0:0:
129,65,84937,1,2,0:0:0:0:
301,62,85568,1,2,0:0:0:0:
94,126,86200,6,0,P|84:67|232:27,1,220,2|0,0:0|0:0,0:0:0:0:
