osu file format v14

[General]
AudioFilename: audio.mp3
AudioLeadIn: 0
PreviewTime: 35594
Countdown: 0
SampleSet: Soft
StackLeniency: 0.4
Mode: 0
LetterboxInBreaks: 0
WidescreenStoryboard: 1

[Editor]
DistanceSpacing: 1
BeatDivisor: 8
GridSize: 4
TimelineZoom: 1

[Metadata]
Title:time (TV Size)
TitleUnicode:time (TV Size)
Artist:SawanoHiroyuki[nZk]:ReoNa
ArtistUnicode:SawanoHiroyuki[nZk]:ReoNa
Creator:Erisu
Version:normal
Source:七つの大罪 憤怒の審判
Tags:IV 澤野弘之 Hiroyuki Sawano nanatsu no taizai fundo no shinpan The Seven Deadly Sins: Dragon's Judgement of Fury 4th season 4 Pop Japanese JPop J-Pop Anime Ending ED mayuzumi fuyuko sharpay mocaotic kaguya_sama
BeatmapID:2818297
BeatmapSetID:1362119

[Difficulty]
HPDrainRate:3
CircleSize:3
OverallDifficulty:4
ApproachRate:5
SliderMultiplier:0.999999999999999
SliderTickRate:1

[Events]
//Background and Video events
0,0,"bg.jpg",0,0
Video,0,"ed.mp4"
//Break Periods
//Storyboard Layer 0 (Background)
//Storyboard Layer 1 (Fail)
//Storyboard Layer 2 (Pass)
//Storyboard Layer 3 (Foreground)
//Storyboard Layer 4 (Overlay)
//Storyboard Sound Samples

[TimingPoints]
937,631.578947368421,4,2,1,40,1,0
5990,-55.5555555555556,4,2,1,50,0,0
16095,-47.6190476190476,4,2,1,60,0,0
26200,-50,4,2,1,45,0,0
35673,-50,4,2,1,65,0,0
36306,-45.4545454545455,4,2,1,75,0,0
56515,-45.4545454545455,4,2,1,70,0,0
82410,-55.5555555555556,4,2,1,50,0,0
86831,-55.5555555555556,4,2,1,25,0,0

[Colours]
Combo1 : 241,165,191
Combo2 : 198,138,85
Combo3 : 188,188,188
Combo4 : 95,114,137

[HitObjects]
28,59,5990,6,0,P|71:42|137:57,1,89.999997253418,0|0,1:2|0:0,0:0:0:0:
174,112,6621,2,0,P|220:112|276:74,1,89.999997253418,10|2,0:0|0:0,0:0:0:0:
315,23,7253,2,0,L|409:34,1,89.999997253418,2|2,1:2|0:0,0:0:0:0:
492,15,7884,1,10,0:0:0:0:
499,104,8200,1,2,0:0:0:0:
430,162,8516,6,0,L|438:271,2,89.999997253418,2|2|10,1:2|0:0|0:0,0:0:0:0:
388,143,9306,1,0,0:0:0:0:
388,143,9463,2,0,L|260:166,1,89.999997253418,2|0,0:0|1:2,0:0:0:0:
214,190,10095,1,2,0:0:0:0:
165,265,10411,1,10,0:0:0:0:
0,195,11042,6,0,L|19:284,1,89.999997253418,0|0,1:2|0:0,0:0:0:0:
38,323,11516,1,2,0:0:0:0:
38,323,11674,2,0,P|76:363|129:363,1,89.999997253418,10|2,0:0|0:0,0:0:0:0:
196,348,12306,2,0,L|303:337,1,89.999997253418,2|2,1:2|0:0,0:0:0:0:
322,313,12779,1,2,1:2:0:0:
322,313,12937,2,0,L|332:220,1,89.999997253418,10|2,0:0|0:0,0:0:0:0:
274,153,13569,5,2,1:2:0:0:
189,183,13884,1,2,0:0:0:0:
108,142,14200,2,0,L|124:47,2,89.999997253418,10|2|2,0:0|0:0|1:2,0:0:0:0:
49,210,15148,1,2,0:0:0:0:
105,279,15463,1,10,0:0:0:0:
282,166,16095,5,4,1:2:0:0:
353,243,16411,2,0,L|349:308,1,52.4999983978271,2|0,0:0|1:2,0:0:0:0:
327,343,16727,2,0,L|435:336,1,104.999996795654,10|0,0:0|0:0,0:0:0:0:
482,244,17358,6,0,L|486:127,1,104.999996795654,2|2,1:2|0:0,0:0:0:0:
452,97,17832,2,0,L|445:19,1,52.4999983978271,2|8,1:2|0:0,0:0:0:0:
407,9,18148,1,2,0:0:0:0:
303,26,18463,1,2,0:0:0:0:
237,107,18779,1,2,0:0:0:0:
237,107,18937,2,0,L|106:120,1,104.999996795654,2|8,0:0|0:0,0:0:0:0:
52,48,19569,6,0,L|46:118,1,52.4999983978271,2|2,0:0|0:0,0:0:0:0:
19,144,19884,2,0,L|34:285,1,104.999996795654,2|2,1:2|0:0,0:0:0:0:
67,285,20358,1,2,1:2:0:0:
156,339,20674,1,2,0:0:0:0:
245,283,20990,2,0,L|227:150,1,104.999996795654,2|2,0:0|0:0,0:0:0:0:
221,127,21463,1,2,0:0:0:0:
218,21,21779,5,8,0:0:0:0:
321,3,22095,2,0,L|399:11,1,52.4999983978271,2|2,0:0|0:0,0:0:0:0:
408,49,22411,2,0,L|401:172,1,104.999996795654,2|2,1:2|0:0,0:0:0:0:
382,202,22884,1,2,1:2:0:0:
382,307,23200,1,2,0:0:0:0:
382,307,23358,2,0,P|320:321|260:300,1,104.999996795654,2|2,0:0|1:2,0:0:0:0:
247,270,23832,2,0,L|126:284,1,104.999996795654,2|0,0:0|1:2,0:0:0:0:
108,241,24306,1,8,0:0:0:0:
101,136,24621,6,0,L|113:76,1,52.4999983978271,2|2,0:0|0:0,0:0:0:0:
147,46,24937,2,0,L|255:55,1,104.999996795654,2|2,1:2|0:0,0:0:0:0:
286,94,25411,1,2,1:2:0:0:
382,51,25727,1,2,0:0:0:0:
382,51,25884,1,2,0:0:0:0:
464,107,26200,6,0,L|480:-3,2,99.9999999999999,0|2|2,1:2|0:0|1:2,0:0:0:0:
397,242,27306,1,2,0:0:0:0:
397,242,27463,2,0,P|341:227|288:251,1,99.9999999999999,2|0,1:2|0:0,0:0:0:0:
351,327,28095,2,0,P|397:342|445:329,1,99.9999999999999,2|0,1:2|0:0,0:0:0:0:
492,240,28727,5,0,1:2:0:0:
398,63,29358,2,0,L|279:76,1,99.9999999999999,2|2,1:2|0:0,0:0:0:0:
270,115,29832,1,2,0:0:0:0:
270,115,29990,2,0,B|161:109|162:109,1,99.9999999999999,2|0,1:2|0:0,0:0:0:0:
87,52,30621,1,2,1:2:0:0:
11,237,31252,6,0,L|1:357,2,99.9999999999999,0|2|2,1:2|0:0|1:2,0:0:0:0:
153,299,32358,1,2,0:0:0:0:
153,299,32516,2,0,P|200:314|252:306,1,99.9999999999999,2|0,1:2|0:0,0:0:0:0:
310,227,33148,2,0,P|359:220|406:235,1,99.9999999999999,2|0,1:2|0:0,0:0:0:0:
480,302,33779,5,2,1:2:0:0:
328,118,34569,1,2,0:0:0:0:
328,118,34727,1,2,0:0:0:0:
100,112,36306,6,0,P|78:171|120:253,1,110.000003356934,6|2,1:2|0:0,0:0:0:0:
140,245,36779,1,0,1:2:0:0:
140,245,36937,1,10,0:0:0:0:
239,197,37253,1,2,1:2:0:0:
239,197,37411,2,0,L|354:206,1,110.000003356934,2|0,0:0|0:0,0:0:0:0:
388,243,37884,1,2,0:0:0:0:
476,308,38200,6,0,L|491:181,2,110.000003356934,10|2|0,0:0|1:2|1:2,0:0:0:0:
384,370,39148,2,0,L|322:358,1,55.0000016784668,0|0,0:0|1:2,0:0:0:0:
292,319,39463,2,0,L|174:335,1,110.000003356934,10|2,0:0|1:2,0:0:0:0:
78,297,40095,6,0,P|50:243|73:164,1,110.000003356934,2|2,0:0|1:2,0:0:0:0:
86,150,40568,2,0,L|81:94,1,55.0000016784668,2|8,0:0|0:0,0:0:0:0:
101,46,40884,1,0,1:2:0:0:
101,46,41042,1,2,0:0:0:0:
208,22,41358,6,0,L|295:31,1,55.0000016784668,6|0,1:2|0:0,0:0:0:0:
305,63,41674,1,2,0:0:0:0:
401,9,41990,1,10,0:0:0:0:
451,113,42306,1,2,1:2:0:0:
451,113,42463,2,0,P|487:164|483:236,1,110.000003356934,2|0,0:0|0:0,0:0:0:0:
463,258,42937,5,2,0:0:0:0:
389,340,43253,1,10,0:0:0:0:
294,283,43569,1,2,1:2:0:0:
188,313,43884,2,0,L|204:202,1,110.000003356934,0|0,1:2|0:0,0:0:0:0:
242,164,44358,1,0,1:2:0:0:
242,164,44516,6,0,P|300:154|351:182,2,110.000003356934,10|2|2,0:0|1:2|0:0,0:0:0:0:
193,64,45463,1,2,1:2:0:0:
88,48,45779,1,10,0:0:0:0:
88,48,45937,2,0,L|80:169,1,110.000003356934,0|0,1:2|1:2,0:0:0:0:
35,189,46411,6,0,P|22:251|42:298,1,110.000003356934,6|0,1:2|0:0,0:0:0:0:
70,333,46884,1,2,1:2:0:0:
70,333,47042,2,0,B|119:322|119:322|140:327|140:327|196:317,2,110.000003356934,10|2|0,0:0|1:2|0:0,0:0:0:0:
118,233,47990,1,2,0:0:0:0:
225,210,48306,6,0,L|297:221,1,55.0000016784668,10|0,0:0|0:0,0:0:0:0:
337,233,48621,1,2,1:2:0:0:
337,233,48779,2,0,P|345:170|315:110,1,110.000003356934,2|0,0:0|0:0,0:0:0:0:
283,95,49253,1,2,0:0:0:0:
185,43,49569,6,0,P|119:37|72:69,1,110.000003356934,10|2,0:0|1:2,0:0:0:0:
58,106,50042,1,0,0:0:0:0:
58,106,50200,2,0,L|68:236,1,110.000003356934,2|2,0:0|1:2,0:0:0:0:
135,302,50832,1,10,0:0:0:0:
135,302,50990,1,0,1:2:0:0:
282,227,51463,6,0,L|277:164,1,55.0000016784668,6|0,1:2|0:0,0:0:0:0:
249,124,51779,1,2,0:0:0:0:
251,13,52095,2,0,P|302:43|394:18,1,110.000003356934,10|2,0:0|1:2,0:0:0:0:
395,74,52569,2,0,P|439:49|503:59,1,110.000003356934,2|0,0:0|0:0,0:0:0:0:
510,108,53042,5,2,0:0:0:0:
498,217,53358,1,10,0:0:0:0:
406,278,53674,1,2,1:2:0:0:
299,248,53990,2,0,L|274:113,1,110.000003356934,0|0,1:2|0:0,0:0:0:0:
259,95,54463,1,0,1:2:0:0:
259,95,54621,6,0,L|176:108,1,55.0000016784668,10|0,0:0|0:0,0:0:0:0:
156,76,54937,1,2,1:2:0:0:
58,24,55253,2,0,L|45:156,1,110.000003356934,2|0,0:0|1:2,0:0:0:0:
33,242,55884,1,8,0:0:0:0:
132,296,56200,2,0,L|143:222,1,55.0000016784668,2|2,0:0|1:2,0:0:0:0:
170,196,56515,5,6,1:2:0:0:
271,251,56832,1,2,0:0:0:0:
271,251,56990,2,0,P|323:226|385:251,1,110.000003356934,2|0,1:2|0:0,0:0:0:0:
406,281,57463,2,0,L|415:154,1,110.000003356934,2|2,1:2|0:0,0:0:0:0:
419,116,57937,1,2,0:0:0:0:
360,29,58253,1,2,1:2:0:0:
360,29,58411,6,0,P|413:3|468:17,1,110.000003356934,10|2,0:0|1:2,0:0:0:0:
499,59,58884,1,2,0:0:0:0:
499,59,59042,1,0,1:2:0:0:
468,224,59516,1,0,1:2:0:0:
468,224,59674,1,8,0:0:0:0:
363,257,59990,6,0,L|349:186,2,55.0000016784668,2|2|0,1:2|0:0|0:0,0:0:0:0:
323,295,60463,1,2,0:0:0:0:
215,266,60779,1,2,0:0:0:0:
215,266,60937,2,0,L|206:146,1,110.000003356934,8|2,0:0|0:0,0:0:0:0:
108,106,61569,5,6,1:2:0:0:
141,1,61884,1,2,0:0:0:0:
141,1,62042,2,0,B|195:4|195:4|209:14|209:14|276:19,1,110.000003356934,2|2,1:2|0:0,0:0:0:0:
276,63,62516,1,2,1:2:0:0:
374,13,62832,1,2,0:0:0:0:
374,13,62990,2,0,L|384:142,1,110.000003356934,2|2,0:0|1:2,0:0:0:0:
417,165,63463,5,10,0:0:0:0:
363,261,63779,1,2,1:2:0:0:
363,261,63937,2,0,P|258:285|196:203,1,220.000006713867,2|0,0:0|1:2,0:0:0:0:
182,151,64727,1,8,0:0:0:0:
81,107,65042,5,2,1:2:0:0:
81,107,65200,2,0,L|67:166,1,55.0000016784668,2|0,0:0|0:0,0:0:0:0:
36,205,65516,2,0,L|59:322,1,110.000003356934,2|2,0:0|0:0,0:0:0:0:
106,348,65990,1,10,0:0:0:0:
106,348,66148,2,0,B|146:321|196:343|176:358|224:377|284:343,1,165.0000050354,2|4,1:2|1:2,0:0:0:0:
370,327,66937,6,0,L|377:256,1,55.0000016784668
357,219,67253,2,0,L|368:104,1,110.000003356934,10|2,0:0|1:2,0:0:0:0:
459,46,67884,2,0,L|470:161,1,110.000003356934,2|0,0:0|0:0,0:0:0:0:
484,264,68516,1,10,0:0:0:0:
393,326,68831,2,0,L|334:315,1,55.0000016784668,2|0,1:2|0:0,0:0:0:0:
289,289,69148,6,0,L|166:308,1,110.000003356934,2|2,1:2|0:0,0:0:0:0:
131,294,69621,1,0,1:2:0:0:
131,294,69779,1,8,0:0:0:0:
105,187,70094,2,0,B|55:201|55:201|41:200|41:200|-8:213,1,110.000003356934,2|0,1:2|0:0,0:0:0:0:
35,106,70727,1,2,1:2:0:0:
131,54,71042,2,0,L|203:65,1,55.0000016784668,10|0,0:0|1:2,0:0:0:0:
226,99,71358,1,2,0:0:0:0:
275,199,71674,5,4,1:2:0:0:
374,152,71989,2,0,P|398:131|407:90,1,55.0000016784668,2|0,0:0|1:2,0:0:0:0:
413,54,72306,2,0,B|351:41|351:41|279:71,1,110.000003356934,10|2,0:0|1:2,0:0:0:0:
252,154,72937,2,0,B|190:167|190:167|128:143,1,110.000003356934,2|0,0:0|0:0,0:0:0:0:
132,40,73569,1,10,0:0:0:0:
23,23,73884,6,0,L|31:88,1,55.0000016784668,2|0,1:2|0:0,0:0:0:0:
20,132,74200,2,0,P|11:204|40:257,1,110.000003356934,2|2,1:2|0:0,0:0:0:0:
60,278,74673,1,0,1:2:0:0:
60,278,74832,1,10,0:0:0:0:
161,319,75148,1,2,1:2:0:0:
377,280,75779,2,0,L|368:163,2,110.000003356934,2|10|2,1:2|0:0|0:0,0:0:0:0:
294,356,76727,6,0,B|249:359|249:359|234:366|234:366|177:373,1,110.000003356934,4|0,1:2|0:0,0:0:0:0:
129,349,77200,1,0,1:2:0:0:
129,349,77358,2,0,L|138:232,1,110.000003356934,10|0,0:0|1:2,0:0:0:0:
215,161,77990,2,0,P|229:101|192:41,1,110.000003356934,2|0,0:0|0:0,0:0:0:0:
107,19,78621,2,0,B|96:154,1,110.000003356934,10|0,0:0|1:2,0:0:0:0:
17,203,79253,5,2,1:2:0:0:
103,270,79569,2,0,L|169:276,1,55.0000016784668,0|0,0:0|1:2,0:0:0:0:
202,307,79884,2,0,L|331:297,1,110.000003356934,10|2,0:0|1:2,0:0:0:0:
376,209,80516,2,0,L|266:200,1,110.000003356934,2|0,0:0|1:2,0:0:0:0:
231,164,80990,1,0,0:0:0:0:
231,164,81147,2,0,P|219:110|247:50,1,110.000003356934,10|0,0:0|0:0,0:0:0:0:
337,13,81779,5,4,1:2:0:0:
459,144,82410,2,0,L|473:247,1,89.999997253418,2|0,0:0|0:0,0:0:0:0:
391,276,83042,2,0,L|377:173,1,89.999997253418,2|0,0:0|0:0,0:0:0:0:
352,100,83673,2,0,P|301:95|252:118,1,89.999997253418,2|0,0:0|0:0,0:0:0:0:
203,174,84305,6,0,P|152:179|103:156,1,89.999997253418,2|0,0:0|0:0,0:0:0:0:
44,110,84937,2,0,L|22:197,1,89.999997253418,2|0,0:0|0:0,0:0:0:0:
84,261,85568,2,0,L|106:348,1,89.999997253418,2|0,0:0|0:0,0:0:0:0:
196,351,86200,2,0,P|238:363|294:352,2,89.999997253418,2|0|0,0:0|0:0|0:0,0:0:0:0:
