osu file format v14

[General]
AudioFilename: audio.mp3
AudioLeadIn: 0
PreviewTime: 35594
Countdown: 0
SampleSet: Soft
StackLeniency: 0.4
Mode: 0
LetterboxInBreaks: 0
WidescreenStoryboard: 0

[Editor]
DistanceSpacing: 1.5
BeatDivisor: 8
GridSize: 16
TimelineZoom: 1.4

[Metadata]
Title:time (TV Size)
TitleUnicode:time (TV Size)
Artist:SawanoHiroyuki[nZk]:ReoNa
ArtistUnicode:SawanoHiroyuki[nZk]:ReoNa
Creator:Erisu
Version:illusion
Source:七つの大罪 憤怒の審判
Tags:IV 澤野弘之 Hiroyuki Sawano nanatsu no taizai fundo no shinpan The Seven Deadly Sins: Dragon's Judgement of Fury 4th season 4 Pop Japanese JPop J-Pop Anime Ending ED mayuzumi fuyuko sharpay mocaotic kaguya_sama
BeatmapID:2818296
BeatmapSetID:1362119

[Difficulty]
HPDrainRate:5.5
CircleSize:4
OverallDifficulty:8.5
ApproachRate:9
SliderMultiplier:1.9
SliderTickRate:1

[Events]
//Background and Video events
0,0,"bg.jpg",0,0
Video,0,"ed.mp4"
//Break Periods
//Storyboard Layer 0 (Background)
//Storyboard Layer 1 (Fail)
//Storyboard Layer 2 (Pass)
//Storyboard Layer 3 (Foreground)
//Storyboard Layer 4 (Overlay)
//Storyboard Sound Samples

[TimingPoints]
937,631.578947368421,4,2,1,40,1,0
937,-100,4,2,1,25,0,0
5515,-125,4,2,1,25,0,0
5910,-71.4285714285714,4,2,1,5,0,0
5989,-58.8235294117647,4,2,1,40,0,0
8436,-58.8235294117647,4,2,1,5,0,0
8515,-58.8235294117647,4,2,1,40,0,0
10962,-58.8235294117647,4,2,1,5,0,0
11041,-58.8235294117647,4,2,1,40,0,0
14752,-58.8235294117647,4,2,1,5,0,0
14831,-58.8235294117647,4,2,1,40,0,0
16094,-50,4,2,1,60,0,0
18383,-50,4,2,1,5,0,0
18462,-50,4,2,1,60,0,0
19173,-50,4,2,1,5,0,0
19252,-50,4,2,1,60,0,0
26199,-71.4285714285714,4,2,1,50,0,0
26752,-71.4285714285714,4,2,1,5,0,0
26831,-71.4285714285714,4,2,1,50,0,0
35673,-71.4285714285714,4,2,1,65,0,0
36305,-35.7142857142857,4,2,1,75,0,1
36541,-35.7142857142857,4,2,1,5,0,1
36620,-41.6666666666667,4,2,1,75,0,1
37173,-41.6666666666667,4,2,1,5,0,1
37252,-41.6666666666667,4,2,1,75,0,1
40331,-41.6666666666667,4,2,1,5,0,1
40410,-41.6666666666667,4,2,1,75,0,1
41278,-41.6666666666667,4,2,1,5,0,1
41357,-41.6666666666667,4,2,1,75,0,1
42226,-41.6666666666667,4,2,1,5,0,1
42305,-41.6666666666667,4,2,1,75,0,1
47278,-41.6666666666667,4,2,1,5,0,1
47357,-41.6666666666667,4,2,1,75,0,1
49173,-41.6666666666667,4,2,1,5,0,1
49252,-41.6666666666667,4,2,1,75,0,1
50752,-41.6666666666667,4,2,1,5,0,1
50831,-41.6666666666667,4,2,1,75,0,1
52331,-41.6666666666667,4,2,1,5,0,1
52410,-41.6666666666667,4,2,1,75,0,1
55489,-41.6666666666667,4,2,1,5,0,1
55568,-41.6666666666667,4,2,1,75,0,1
56515,-45.4545454545455,4,2,1,70,0,0
66541,-45.4545454545455,4,2,1,5,0,0
66620,-45.4545454545455,4,2,1,70,0,0
68752,-45.4545454545455,4,2,1,5,0,0
68831,-45.4545454545455,4,2,1,70,0,0
70015,-45.4545454545455,4,2,1,5,0,0
70094,-45.4545454545455,4,2,1,70,0,0
71594,-45.4545454545455,4,2,1,5,0,0
71673,-45.4545454545455,4,2,1,70,0,0
76726,-50,4,2,1,70,0,0
78226,-50,4,2,1,5,0,0
78305,-50,4,2,1,70,0,0
82410,-71.4285714285714,4,2,1,50,0,0
86831,-71.4285714285714,4,2,1,25,0,0

[Colours]
Combo1 : 241,165,191
Combo2 : 198,138,85
Combo3 : 188,188,188
Combo4 : 95,114,137

[HitObjects]
84,54,937,5,2,0:0:0:0:
196,156,1252,1,2,0:0:0:0:
328,68,1568,2,0,P|325:160|322:257,1,190,2|0,0:0|0:0,0:0:0:0:
356,352,2358,1,2,0:0:0:0:
356,352,2515,1,2,0:0:0:0:
189,331,2831,2,0,B|155:311|155:311|186:197,1,142.5,2|0,0:0|0:0,0:0:0:0:
112,150,3463,6,0,L|70:292,1,142.5,2|0,0:0|0:0,0:0:0:0:
224,225,4094,1,2,0:0:0:0:
224,225,4410,6,0,L|182:81,1,142.5
272,105,5042,1,2,0:0:0:0:
21,195,5358,1,2,0:0:0:0:
69,101,5515,6,0,B|73:80|46:62|46:62|57:96|46:118,1,95,2|0,0:0|0:0,0:0:0:0:
48,109,5990,6,0,B|83:85|146:113|117:125|158:158|224:134,1,161.500003080368,0|0,1:2|0:0,0:0:0:0:
197,140,6463,1,0,1:2:0:0:
322,36,6621,2,0,L|340:134,1,80.750001540184,10|0,0:0|0:0,0:0:0:0:
437,187,6937,2,0,L|421:271,1,80.750001540184,2|0,0:0|0:0,0:0:0:0:
338,357,7253,1,2,1:2:0:0:
338,357,7411,1,0,0:0:0:0:
279,243,7569,6,0,P|234:238|183:279,1,80.750001540184,2|0,0:0|0:0,0:0:0:0:
55,362,7884,2,0,P|100:367|151:326,1,80.750001540184,10|0,0:0|0:0,0:0:0:0:
55,257,8200,2,0,L|64:136,1,121.125002310276,2|0,0:0|0:0,0:0:0:0:
116,60,8516,6,0,B|82:43|82:43|36:50,1,80.750001540184,2|0,1:2|0:0,0:0:0:0:
175,148,8832,2,0,B|213:155|213:155|255:136,1,80.750001540184,2|0,0:0|0:0,0:0:0:0:
382,77,9148,2,0,L|391:169,1,80.750001540184,10|0,0:0|0:0,0:0:0:0:
266,35,9463,6,0,P|180:14|104:83,1,161.500003080368,2|0,0:0|1:2,0:0:0:0:
0,284,10095,2,0,L|10:170,1,80.750001540184,2|0,0:0|1:2,0:0:0:0:
112,273,10411,1,10,0:0:0:0:
112,273,10569,2,0,B|151:319|202:314|202:314|234:259|304:286,1,201.87500385046
347,320,11042,6,0,B|391:249|299:223|361:137,1,161.500003080368,0|0,1:2|0:0,0:0:0:0:
440,133,11516,1,2,1:2:0:0:
333,24,11674,2,0,P|278:11|241:37,1,80.750001540184,10|0,0:0|0:0,0:0:0:0:
193,138,11990,2,0,L|283:126,1,80.750001540184,2|0,0:0|0:0,0:0:0:0:
121,21,12306,6,0,L|101:210,1,161.500003080368,2|2,1:2|0:0,0:0:0:0:
54,301,12779,1,2,1:2:0:0:
177,283,12937,2,0,L|290:293,1,80.750001540184,10|0,0:0|0:0,0:0:0:0:
355,358,13253,2,0,L|468:348,1,80.750001540184,2|0,0:0|0:0,0:0:0:0:
470,258,13569,6,0,L|486:78,2,161.500003080368,2|2|10,1:2|0:0|0:0,0:0:0:0:
389,189,14358,1,0,0:1:0:0:
389,189,14516,2,0,B|333:190|333:190|313:179|313:179|249:182,1,121.125002310276,2|0,0:0|0:0,0:0:0:0:
200,155,14832,6,0,L|185:55,1,80.750001540184,2|0,1:2|0:0,0:0:0:0:
69,55,15148,2,0,B|54:155,1,80.750001540184,2|0,0:0|0:0,0:0:0:0:
89,235,15463,2,0,B|158:208|231:255|175:272|257:322|347:281,1,242.250004620552,10|0,0:0|0:0,0:0:0:0:
397,135,16095,6,0,L|389:268,1,95,4|0,1:2|0:0,0:0:0:0:
493,340,16411,1,2,0:0:0:0:
429,237,16569,1,0,1:2:0:0:
387,369,16727,1,10,0:0:0:0:
387,369,16806,1,2,0:0:0:0:
387,369,16884,2,0,B|301:367|301:367|280:355|280:355|168:349,1,190
25,251,17358,6,0,L|31:354,1,95,2|2,1:2|0:0,0:0:0:0:
142,215,17674,1,2,0:0:0:0:
142,215,17832,2,0,L|148:112,1,95,2|8,1:2|0:0,0:0:0:0:
76,52,18148,2,0,P|141:18|220:55,1,142.5,2|0,0:0|0:0,0:0:0:0:
260,96,18463,6,0,L|277:205,1,95,2|0,0:0|1:2,0:0:0:0:
357,243,18779,1,2,0:0:0:0:
417,158,18937,2,0,B|460:191|460:191|450:285,1,142.5,2|0,0:0|0:0,0:0:0:0:
478,323,19253,2,0,L|489:217,1,95,8|0,0:0|0:0,0:0:0:0:
357,243,19569,1,2,0:0:0:0:
357,243,19727,1,2,0:0:0:0:
478,323,19884,6,0,B|420:365|354:346|354:346|385:343|405:316,1,190,2|2,1:2|0:0,0:0:0:0:
241,369,20358,2,0,L|223:267,1,95,2|10,1:2|0:0,0:0:0:0:
79,375,20674,2,0,L|95:281,1,95,2|0,0:0|0:0,0:0:0:0:
178,125,20990,6,0,P|227:111|284:146,1,95,2|0,0:0|1:2,0:0:0:0:
107,207,21306,1,2,0:0:0:0:
30,57,21463,2,0,L|20:172,1,95,2|0,0:0|1:2,0:0:0:0:
141,14,21779,2,0,B|250:-6|211:57|337:31,1,190,8|2,0:0|0:0,0:0:0:0:
468,109,22253,5,2,0:0:0:0:
325,33,22410,2,0,L|345:136,1,95,2|0,1:2|0:0,0:0:0:0:
281,241,22727,1,2,0:0:0:0:
365,337,22884,2,0,L|461:347,1,95,2|8,1:2|0:0,0:0:0:0:
492,214,23200,1,2,0:0:0:0:
492,214,23358,2,0,L|380:223,1,95,2|0,0:0|0:0,0:0:0:0:
270,317,23674,5,2,1:2:0:0:
198,222,23832,2,0,B|198:160|163:140|163:140|152:92|174:65|232:64,1,190,2|0,0:0|1:2,0:0:0:0:
118,210,24306,1,8,0:0:0:0:
118,210,24463,1,0,0:0:0:0:
204,66,24621,5,2,0:0:0:0:
64,50,24779,1,2,0:0:0:0:
16,174,24937,2,0,L|7:276,1,95,2|0,1:2|0:0,0:0:0:0:
151,332,25253,1,2,0:0:0:0:
224,194,25411,6,0,L|207:88,1,95,2|8,1:2|0:0,0:0:0:0:
380,133,25727,1,2,0:0:0:0:
380,133,25884,2,0,L|363:239,1,95,2|0,0:0|0:0,0:0:0:0:
290,368,26200,5,0,1:2:0:0:
290,368,26516,2,0,L|176:358,1,99.7499969558717,2|0,0:0|0:0,0:0:0:0:
148,332,26832,2,0,P|161:264|126:197,1,132.999995941162,2|0,1:2|0:0,0:0:0:0:
46,152,27306,1,2,0:0:0:0:
46,152,27463,1,2,1:2:0:0:
119,78,27621,2,0,L|269:90,1,132.999995941162,2|0,0:0|0:0,0:0:0:0:
359,36,28094,1,2,1:2:0:0:
359,36,28727,6,0,L|371:185,1,132.999995941162,0|0,1:2|0:0,0:0:0:0:
509,310,29358,2,0,L|513:163,1,132.999995941162,2|2,1:2|0:0,0:0:0:0:
431,255,29832,1,2,0:0:0:0:
431,255,29990,2,0,B|351:264|351:264|317:253|317:253|232:267,1,199.499993911743,2|0,1:2|0:0,0:0:0:0:
123,210,30621,1,2,1:2:0:0:
123,210,30779,2,0,B|93:275|93:275|115:362,1,132.999995941162,2|0,0:0|0:0,0:0:0:0:
217,193,31253,5,0,1:2:0:0:
217,193,31569,1,2,0:0:0:0:
148,125,31727,1,2,0:0:0:0:
218,52,31884,2,0,P|288:39|352:84,1,132.999995941162,2|0,1:2|0:0,0:0:0:0:
432,150,32358,1,2,0:0:0:0:
432,150,32515,2,0,L|441:12,1,132.999995941162,2|0,1:2|0:0,0:0:0:0:
331,106,32989,1,2,0:0:0:0:
331,106,33147,2,0,L|339:238,1,132.999995941162,2|0,1:2|0:0,0:0:0:0:
277,368,33779,5,2,1:2:0:0:
186,76,34569,5,2,0:0:0:0:
186,76,34727,1,2,0:0:0:0:
397,222,35674,5,2,0:0:0:0:
260,132,35990,1,2,0:0:0:0:
37,302,36306,6,0,B|85:273|144:296|107:313|173:343|230:312,1,199.499993911743,6|0,1:2|0:0,0:0:0:0:
282,252,36621,1,2,0:0:0:0:
120,172,36779,1,0,1:2:0:0:
322,326,36937,2,0,P|361:263|320:178,1,170.999994781494,10|0,0:0|0:0,0:0:0:0:
260,132,37253,1,2,1:2:0:0:
494,8,37411,6,0,B|511:92|511:92|491:140|491:140|520:258,1,227.999993041992,2|0,0:0|0:0,0:0:0:0:
356,32,37884,2,0,P|300:29|257:80,1,113.999996520996,2|0,0:0|1:2,0:0:0:0:
51,10,38200,2,0,P|75:59|129:74,1,113.999996520996,10|0,0:0|0:0,0:0:0:0:
290,156,38516,1,2,1:2:0:0:
128,180,38674,1,0,0:0:0:0:
228,0,38832,6,0,B|285:111|161:107|237:227,1,227.999993041992,0|0,1:2|0:0,0:0:0:0:
231,2,39306,1,0,1:2:0:0:
341,214,39463,2,0,P|328:157|361:88,1,113.999996520996,10|0,0:0|0:0,0:0:0:0:
479,299,39779,2,0,P|496:245|483:190,1,113.999996520996,2|0,1:2|0:0,0:0:0:0:
371,306,40095,6,0,B|315:282|261:312|261:312|242:296|242:296|200:329|131:306,1,227.999993041992,2|2,0:0|1:2,0:0:0:0:
114,335,40490,1,2,0:0:0:0:
118,339,40569,1,2,0:0:0:0:
174,181,40727,1,8,0:0:0:0:
33,279,40885,1,0,1:2:0:0:
125,94,41042,2,0,P|194:33|292:82,1,170.999994781494,2|0,0:0|0:0,0:0:0:0:
335,103,41358,6,0,L|357:-12,1,113.999996520996,6|0,1:2|0:0,0:0:0:0:
209,114,41674,2,0,B|206:173|206:173|236:223,1,113.999996520996,2|0,0:0|1:2,0:0:0:0:
400,300,41990,2,0,B|363:259|312:266|312:266|290:307|228:305,1,170.999994781494,10|0,0:0|0:0,0:0:0:0:
179,278,42306,1,2,1:2:0:0:
34,157,42463,6,0,P|42:284|51:393,1,227.999993041992,2|0,0:0|0:0,0:0:0:0:
171,164,42937,2,0,L|178:277,1,113.999996520996,2|0,0:0|1:2,0:0:0:0:
357,127,43253,2,0,L|254:77,1,113.999996520996,10|0,0:0|0:0,0:0:0:0:
391,279,43569,1,2,1:2:0:0:
471,115,43727,1,0,0:0:0:0:
290,230,43884,6,0,B|230:195|159:231|205:260|132:309|54:258,1,227.999993041992,0|0,1:2|0:0,0:0:0:0:
290,230,44358,1,0,1:2:0:0:
108,90,44516,2,0,B|98:153|98:153|119:210,1,113.999996520996,10|0,0:0|0:0,0:0:0:0:
395,78,44832,2,0,B|405:141|405:141|384:198,1,113.999996520996,2|0,1:2|0:0,0:0:0:0:
186,30,45148,2,0,L|308:21,1,113.999996520996,2|0,0:0|0:0,0:0:0:0:
242,228,45463,2,0,P|206:173|226:105,1,113.999996520996,2|0,1:2|0:0,0:0:0:0:
400,226,45779,5,10,0:0:0:0:
244,326,45937,1,0,1:2:0:0:
102,210,46095,1,0,1:2:0:0:
258,109,46253,1,0,1:2:0:0:
20,45,46411,6,0,P|14:166|14:293,1,227.999993041992,6|0,1:2|0:0,0:0:0:0:
154,38,46884,1,2,1:2:0:0:
154,38,46963,1,2,0:0:0:0:
154,38,47042,2,0,B|226:12|226:12|339:63,1,170.999994781494,10|0,0:0|0:0,0:0:0:0:
376,106,47358,2,0,B|420:123|430:163|430:163|468:80|409:1,1,227.999993041992,2|0,1:2|0:0,0:0:0:0:
351,179,47832,1,0,0:0:0:0:
500,267,47990,6,0,P|440:302|379:283,1,113.999996520996,2|0,0:0|1:2,0:0:0:0:
296,105,48306,2,0,P|264:151|269:206,1,113.999996520996,10|0,0:0|0:0,0:0:0:0:
386,24,48621,1,2,1:2:0:0:
386,24,48700,1,2,0:0:0:0:
386,24,48779,1,2,0:0:0:0:
200,66,48937,2,0,B|161:116|161:116|211:262,1,170.999994781494,0|0,1:2|0:0,0:0:0:0:
180,289,49253,6,0,L|140:180,1,113.999996520996,2|0,0:0|1:2,0:0:0:0:
359,375,49569,2,0,L|399:266,1,113.999996520996,10|0,0:0|0:0,0:0:0:0:
279,117,49884,1,2,1:2:0:0:
266,277,50042,1,0,0:0:0:0:
431,190,50200,1,2,0:0:0:0:
421,28,50358,1,0,0:0:0:0:
337,178,50516,2,0,P|240:189|196:114,1,170.999994781494,2|0,1:2|0:0,0:0:0:0:
128,116,50831,1,10,0:0:0:0:
22,300,50990,2,0,L|-2:180,1,113.999996520996,0|0,1:2|0:0,0:0:0:0:
148,309,51306,1,0,1:2:0:0:
52,95,51463,6,0,B|73:35|73:35|136:-8,1,113.999996520996,6|0,1:2|0:0,0:0:0:0:
285,146,51779,2,0,B|270:83|270:83|214:31,1,113.999996520996,2|0,0:0|1:2,0:0:0:0:
169,232,52095,2,0,B|244:230|244:230|273:245|273:245|379:242,1,170.999994781494,10|0,0:0|0:0,0:0:0:0:
401,195,52411,1,2,1:2:0:0:
501,371,52569,6,0,L|506:131,1,227.999993041992,2|0,0:0|0:0,0:0:0:0:
316,34,53042,2,0,P|261:67|264:147,1,113.999996520996,2|0,0:0|1:2,0:0:0:0:
334,326,53358,2,0,P|332:261|262:224,1,113.999996520996,10|0,0:0|0:0,0:0:0:0:
90,177,53674,2,0,P|146:208|213:165,1,113.999996520996,2|0,1:2|0:0,0:0:0:0:
16,17,53990,2,0,B|22:110|22:110|1:153|1:153|10:252,1,227.999993041992,0|0,1:2|0:0,0:0:0:0:
16,17,54463,1,0,1:2:0:0:
251,163,54621,6,0,B|192:146|192:146|128:173,1,113.999996520996,10|0,0:0|0:0,0:0:0:0:
300,307,54937,2,0,B|360:294|360:294|403:239,1,113.999996520996,2|0,1:2|0:0,0:0:0:0:
500,72,55253,2,0,B|396:37|396:37|391:73|357:84,1,170.999994781494,2|0,0:0|0:0,0:0:0:0:
293,134,55569,2,0,L|276:4,1,113.999996520996,0|0,1:2|0:0,0:0:0:0:
488,171,55884,2,0,L|471:300,1,113.999996520996,8|0,0:0|1:2,0:0:0:0:
292,321,56200,1,2,0:0:0:0:
206,95,56358,1,2,1:2:0:0:
206,95,56437,1,2,0:0:0:0:
206,95,56516,6,0,P|183:155|199:227,1,104.500003189087,6|0,1:2|0:0,0:0:0:0:
30,68,56832,5,2,0:0:0:0:
35,172,56990,2,0,L|29:49,1,104.500003189087,2|8,1:2|0:0,0:0:0:0:
162,179,57306,5,0,0:0:0:0:
156,283,57464,2,0,L|162:160,1,104.500003189087,2|0,1:2|0:0,0:0:0:0:
284,57,57779,5,2,0:0:0:0:
289,161,57937,2,0,L|283:38,1,104.500003189087,2|0,0:0|0:0,0:0:0:0:
416,168,58253,5,2,1:2:0:0:
410,272,58411,2,0,L|416:149,1,104.500003189087,10|0,0:0|0:0,0:0:0:0:
498,19,58727,1,2,1:2:0:0:
510,231,58884,1,2,0:0:0:0:
373,57,59042,6,0,B|217:31|308:126|134:86,1,209.000006378174,0|0,1:2|0:0,0:0:0:0:
373,57,59516,1,0,1:2:0:0:
209,207,59674,2,0,B|202:267|202:267|228:319,1,104.500003189087,8|0,0:0|0:0,0:0:0:0:
379,197,59990,1,2,1:2:0:0:
426,376,60148,6,0,L|441:254,1,104.500003189087,2|0,0:0|0:0,0:0:0:0:
288,134,60463,2,0,L|303:256,1,104.500003189087,2|0,0:0|1:2,0:0:0:0:
474,120,60779,1,2,0:0:0:0:
256,23,60937,1,8,0:0:0:0:
300,237,61095,1,2,1:2:0:0:
300,237,61174,1,2,0:0:0:0:
300,237,61253,2,0,L|288:134,1,104.500003189087,2|0,0:0|1:2,0:0:0:0:
84,242,61569,6,0,L|71:345,1,104.500003189087,6|0,1:2|0:0,0:0:0:0:
211,315,61884,5,2,0:0:0:0:
311,319,62042,2,0,P|260:329|203:309,1,104.500003189087,2|8,1:2|0:0,0:0:0:0:
141,177,62358,5,2,0:0:0:0:
41,173,62516,2,0,P|92:163|149:183,1,104.500003189087,2|0,1:2|0:0,0:0:0:0:
269,103,62832,5,2,0:0:0:0:
369,107,62990,2,0,P|318:117|261:97,1,104.500003189087,2|0,0:0|0:0,0:0:0:0:
151,18,63306,5,2,1:2:0:0:
51,14,63464,2,0,P|102:4|159:24,1,104.500003189087,10|0,0:0|0:0,0:0:0:0:
281,190,63779,1,2,1:2:0:0:
313,6,63937,1,2,0:0:0:0:
121,123,64095,6,0,B|144:160|126:205|126:205|149:246|149:246|119:290|156:357,1,209.000006378174,0|0,1:2|0:0,0:0:0:0:
121,123,64569,1,0,1:2:0:0:
312,308,64727,2,0,L|197:285,1,104.500003189087,8|0,0:0|0:0,0:0:0:0:
238,49,65042,5,2,1:2:0:0:
395,248,65200,1,2,0:0:0:0:
395,2,65358,1,0,0:0:0:0:
287,217,65515,2,0,L|309:105,1,104.500003189087,2|0,0:0|1:2,0:0:0:0:
510,221,65832,5,2,0:0:0:0:
510,221,65910,1,2,0:0:0:0:
510,221,65990,1,10,0:0:0:0:
414,348,66147,1,2,1:2:0:0:
261,290,66306,2,0,P|174:326|94:280,1,156.750004783631,2|0,0:0|0:0,0:0:0:0:
56,261,66621,6,0,L|42:132,1,104.500003189087,4|0,1:2|0:0,0:0:0:0:
179,48,66937,2,0,P|232:81|249:161,1,104.500003189087,2|0,0:0|1:2,0:0:0:0:
419,157,67253,2,0,P|375:184|323:183,1,104.500003189087,10|0,0:0|0:0,0:0:0:0:
203,312,67569,2,0,P|201:260|227:215,1,104.500003189087,2|0,1:2|0:0,0:0:0:0:
395,27,67884,2,0,B|353:144|481:115|412:256,1,209.000006378174,2|0,0:0|0:0,0:0:0:0:
305,292,68358,1,0,1:2:0:0:
260,70,68516,6,0,B|197:76|197:76|153:59|153:59|69:77,1,156.750004783631,10|0,0:0|0:0,0:0:0:0:
40,110,68831,1,2,1:2:0:0:
260,70,68990,1,0,0:0:0:0:
116,262,69148,2,0,P|87:223|102:144,1,104.500003189087,2|0,1:2|0:0,0:0:0:0:
261,305,69463,2,0,P|290:266|275:187,1,104.500003189087,2|0,0:0|1:2,0:0:0:0:
333,22,69779,2,0,P|422:11|458:87,1,156.750004783631,8|0,0:0|0:0,0:0:0:0:
437,128,70095,6,0,B|414:218|414:218|430:246|430:246|410:361,1,209.000006378174,2|0,1:2|0:0,0:0:0:0:
505,195,70569,1,0,0:0:0:0:
322,136,70727,2,0,B|262:126|262:126|207:153,1,104.500003189087,2|0,1:2|0:0,0:0:0:0:
69,301,71042,2,0,B|129:311|129:311|184:284,1,104.500003189087,10|0,0:0|1:2,0:0:0:0:
40,205,71358,2,0,L|64:30,1,156.750004783631,2|0,0:0|0:0,0:0:0:0:
129,9,71674,6,0,P|190:12|233:50,1,104.500003189087,4|0,1:2|0:0,0:0:0:0:
409,32,71990,2,0,P|383:76|337:100,1,104.500003189087,2|0,0:0|1:2,0:0:0:0:
187,221,72306,2,0,L|166:107,1,104.500003189087,10|0,0:0|0:0,0:0:0:0:
346,290,72621,2,0,L|367:176,1,104.500003189087,2|0,1:2|0:0,0:0:0:0:
237,292,72937,6,0,B|174:332|127:294|147:271|83:253|38:300,1,209.000006378174,2|0,0:0|0:0,0:0:0:0:
183,384,73411,1,0,1:2:0:0:
103,228,73569,2,0,L|123:94,1,104.500003189087,10|0,0:0|0:0,0:0:0:0:
35,12,73884,1,2,1:2:0:0:
35,12,73963,1,2,0:0:0:0:
35,12,74042,1,0,0:0:0:0:
184,68,74200,6,0,B|243:63|243:63|305:100,1,104.500003189087,2|0,1:2|0:0,0:0:0:0:
401,196,74516,2,0,B|343:202|343:202|303:177,1,104.500003189087,2|0,0:0|1:2,0:0:0:0:
484,41,74832,2,0,L|494:167,1,104.500003189087,10|0,0:0|0:0,0:0:0:0:
404,383,75148,2,0,B|424:320|378:286|378:286|354:246|405:190,1,209.000006378174,2|0,1:2|0:0,0:0:0:0:
249,351,75621,1,2,0:0:0:0:
249,351,75700,1,2,0:0:0:0:
249,351,75779,6,0,B|252:293|252:293|231:233,1,104.500003189087,2|0,1:2|0:0,0:0:0:0:
37,262,76095,2,0,B|34:204|34:204|49:160,1,104.500003189087,10|0,0:0|1:2,0:0:0:0:
100,82,76411,1,2,0:0:0:0:
100,82,76727,6,0,B|182:74|182:74|211:82|211:82|304:77,1,190,4|0,1:2|0:0,0:0:0:0:
223,190,77200,1,0,1:2:0:0:
365,123,77358,2,0,L|381:235,1,95,10|0,0:0|0:0,0:0:0:0:
275,249,77674,2,0,L|261:154,1,95,0|0,1:2|0:0,0:0:0:0:
307,321,77990,2,0,B|248:370|248:370|141:362,1,142.5,2|0,0:0|0:0,0:0:0:0:
110,310,78306,6,0,P|85:263|96:209,1,95,0|0,0:0|1:2,0:0:0:0:
307,321,78621,2,0,P|332:274|321:220,1,95,10|0,0:0|0:0,0:0:0:0:
202,84,78937,1,0,1:2:0:0:
202,237,79095,1,0,0:0:0:0:
316,76,79253,6,0,B|352:48|411:62|411:62|441:95|502:80,1,190,2|0,1:2|0:0,0:0:0:0:
316,76,79727,1,0,1:2:0:0:
416,210,79884,2,0,L|406:318,1,95,10|0,0:0|0:0,0:0:0:0:
286,366,80200,1,2,1:2:0:0:
286,366,80358,1,0,0:0:0:0:
269,235,80516,6,0,L|148:263,1,95,2|0,0:0|0:0,0:0:0:0:
3,362,80832,2,0,L|95:383,1,95,0|0,1:2|0:0,0:0:0:0:
198,170,81148,1,10,0:0:0:0:
28,238,81306,2,0,L|15:33,1,190,0|0,1:2|1:2,0:0:0:0:
198,170,81779,5,4,1:2:0:0:
198,170,82411,2,0,P|257:148|329:187,1,132.999995941162,2|0,0:0|0:0,0:0:0:0:
441,123,83042,2,0,B|466:162|466:162|422:268,1,132.999995941162,2|0,0:0|0:0,0:0:0:0:
310,296,83674,2,0,B|251:300|251:300|238:292|238:292|178:298,1,132.999995941162,2|0,0:0|0:0,0:0:0:0:
90,198,84306,6,0,B|152:203|152:203|165:194|165:194|230:201,1,132.999995941162,2|0,0:0|0:0,0:0:0:0:
352,193,84937,2,0,P|346:131|336:54,1,132.999995941162,2|0,0:0|0:0,0:0:0:0:
489,13,85568,2,0,P|483:74|474:153,1,132.999995941162,2|0,0:0|0:0,0:0:0:0:
364,312,86200,2,0,B|394:301|435:317|410:328|451:347|491:333,2,132.999995941162,2|0|0,0:0|0:0|0:0,0:0:0:0:
