osu file format v14

[General]
AudioFilename: audio.mp3
AudioLeadIn: 0
PreviewTime: 35515
Countdown: 0
SampleSet: Soft
StackLeniency: 0.5
Mode: 0
LetterboxInBreaks: 0
WidescreenStoryboard: 1

[Editor]
Bookmarks: 22884,26200,43252,64094,76726,80515,81779
DistanceSpacing: 1.2
BeatDivisor: 12
GridSize: 4
TimelineZoom: 2.6

[Metadata]
Title:time (TV Size)
TitleUnicode:time (TV Size)
Artist:SawanoHiroyuki[nZk]:ReoNa
ArtistUnicode:SawanoHiroyuki[nZk]:ReoNa
Creator:-Nenu- 3
Version:hard
Source:七つの大罪 憤怒の審判
Tags:澤野弘之 japanese pop j-pop jpop hiroyuki sawano nanatsu no taizai fundo no shinpan The Seven Deadly Sins: sins Dragon's Judgement of Fury 4th season 4 anime ending ed kayi kayineo
BeatmapID:3604378
BeatmapSetID:1760336

[Difficulty]
HPDrainRate:4.5
CircleSize:3.6
OverallDifficulty:6.5
ApproachRate:7.5
SliderMultiplier:2.8
SliderTickRate:1

[Events]
//Background and Video events
0,0,"75604142_p3_waifu2x_art_noise3_scale_tta_1.jpg",0,0
//Break Periods
//Storyboard Layer 0 (Background)
//Storyboard Layer 1 (Fail)
//Storyboard Layer 2 (Pass)
//Storyboard Layer 3 (Foreground)
//Storyboard Layer 4 (Overlay)
//Storyboard Sound Samples

[TimingPoints]
937,631.578947368421,4,2,1,40,1,0
5989,-100,4,2,1,50,0,0
6463,-100,4,2,1,40,0,0
6621,-100,4,2,1,50,0,0
7726,-100,4,2,1,60,0,0
7884,-100,4,2,1,50,0,0
10725,-100,4,2,1,60,0,0
11042,-100,4,2,1,50,0,0
12779,-100,4,2,1,60,0,0
12937,-100,4,2,1,50,0,0
13725,-100,4,2,1,40,0,0
13884,-100,4,2,1,50,0,0
14041,-100,4,2,1,40,0,0
14200,-100,4,2,1,50,0,0
14672,-100,4,2,1,40,0,0
14831,-100,4,2,1,50,0,0
15778,-100,4,2,1,60,0,0
16094,-90.9090909090909,4,1,1,60,0,0
16251,-90.9090909090909,4,2,1,40,0,0
16410,-90.9090909090909,4,1,1,60,0,0
16568,-90.9090909090909,4,2,1,40,0,0
16726,-90.9090909090909,4,1,1,60,0,0
17515,-90.9090909090909,4,2,1,60,0,0
17673,-90.9090909090909,4,1,1,60,0,0
18304,-90.9090909090909,4,2,1,60,0,0
18463,-90.9090909090909,4,1,1,60,0,0
18778,-90.9090909090909,4,2,1,60,0,0
18937,-90.9090909090909,4,1,1,60,0,0
21936,-90.9090909090909,4,2,1,40,0,0
22094,-90.9090909090909,4,1,1,60,0,0
23831,-90.9090909090909,4,2,1,60,0,0
24305,-90.9090909090909,4,1,1,60,0,0
26200,-125,4,2,1,50,0,0
27305,-125,4,2,1,60,0,0
27463,-125,4,2,1,50,0,0
27936,-125,4,2,1,40,0,0
28094,-125,4,2,1,50,0,0
28409,-125,4,2,1,40,0,0
28726,-125,4,2,1,50,0,0
29041,-125,4,2,1,40,0,0
29358,-125,4,2,1,50,0,0
29831,-125,4,2,1,60,0,0
29989,-125,4,2,1,50,0,0
31094,-125,4,2,1,40,0,0
31252,-125,4,2,1,50,0,0
32199,-125,4,2,1,60,0,0
32515,-111.111111111111,4,2,1,50,0,0
33620,-125,4,2,1,40,0,0
33779,-125,4,2,1,50,0,0
35673,-125,4,2,1,50,0,0
35909,-125,4,2,1,5,0,0
35989,-100,4,2,1,60,0,0
36226,-100,4,2,1,5,0,0
36305,-83.3333333333333,4,2,3,80,0,0
37094,-83.3333333333333,4,2,3,60,0,0
37252,-83.3333333333333,4,2,3,80,0,0
37725,-83.3333333333333,4,2,3,60,0,0
37884,-83.3333333333333,4,2,3,80,0,0
38041,-83.3333333333333,4,2,3,60,0,0
38200,-83.3333333333333,4,2,3,80,0,0
39620,-83.3333333333333,4,2,3,40,0,0
39779,-83.3333333333333,4,2,3,80,0,0
39936,-83.3333333333333,4,2,3,60,0,0
40094,-83.3333333333333,4,2,3,80,0,0
41199,-83.3333333333333,4,2,3,60,0,0
41358,-83.3333333333333,4,2,3,80,0,0
42225,-83.3333333333333,4,2,3,5,0,0
42305,-83.3333333333333,4,2,3,80,0,0
42778,-83.3333333333333,4,2,3,60,0,0
42937,-83.3333333333333,4,2,3,80,0,0
43252,-83.3333333333333,4,2,4,80,0,0
43568,-83.3333333333333,4,2,3,80,0,0
43884,-100,4,2,3,80,0,0
44358,-83.3333333333333,4,2,3,80,0,0
44751,-83.3333333333333,4,2,3,5,0,0
44831,-83.3333333333333,4,2,3,80,0,0
44988,-83.3333333333333,4,2,3,60,0,0
45147,-83.3333333333333,4,2,3,80,0,0
45304,-83.3333333333333,4,2,3,60,0,0
45463,-83.3333333333333,4,2,3,80,0,0
47279,-83.3333333333333,4,2,3,5,0,0
47358,-83.3333333333333,4,2,3,80,0,0
49804,-83.3333333333333,4,2,3,5,0,0
49884,-83.3333333333333,4,2,3,80,0,0
50041,-83.3333333333333,4,2,3,60,0,0
50200,-83.3333333333333,4,2,3,80,0,0
50673,-83.3333333333333,4,2,3,60,0,0
50831,-83.3333333333333,4,2,3,80,0,0
52883,-83.3333333333333,4,2,3,60,0,0
53042,-83.3333333333333,4,2,3,80,0,0
54857,-83.3333333333333,4,2,3,40,0,0
54937,-83.3333333333333,4,2,3,80,0,0
55252,-83.3333333333333,4,2,4,80,0,0
55725,-83.3333333333333,4,2,4,40,0,0
55884,-83.3333333333333,4,2,3,80,0,0
56751,-83.3333333333333,4,2,3,40,0,0
56831,-83.3333333333333,4,2,3,80,0,0
57699,-83.3333333333333,4,2,3,40,0,0
57779,-83.3333333333333,4,2,3,80,0,0
58410,-83.3333333333333,4,2,4,80,0,0
58725,-83.3333333333333,4,2,3,80,0,0
62672,-83.3333333333333,4,2,3,60,0,0
62831,-83.3333333333333,4,2,3,80,0,0
63463,-83.3333333333333,4,2,4,80,0,0
63778,-83.3333333333333,4,2,3,80,0,0
64883,-83.3333333333333,4,2,3,60,0,0
65042,-83.3333333333333,4,2,3,80,0,0
66857,-83.3333333333333,4,2,3,5,0,0
66937,-83.3333333333333,4,2,3,80,0,0
68199,-83.3333333333333,4,2,3,40,0,0
68515,-83.3333333333333,4,2,3,80,0,0
70409,-83.3333333333333,4,2,3,60,0,0
70568,-83.3333333333333,4,2,3,80,0,0
70883,-83.3333333333333,4,2,3,40,0,0
71042,-83.3333333333333,4,2,3,80,0,0
71357,-83.3333333333333,4,2,3,60,0,0
71673,-83.3333333333333,4,2,3,80,0,0
71989,-83.3333333333333,4,2,4,80,0,0
72541,-83.3333333333333,4,2,4,5,0,0
72621,-83.3333333333333,4,2,4,80,0,0
72778,-83.3333333333333,4,2,4,60,0,0
72937,-83.3333333333333,4,2,4,80,0,0
73252,-83.3333333333333,4,2,4,60,0,0
73568,-83.3333333333333,4,2,4,80,0,0
73725,-83.3333333333333,4,2,4,60,0,0
73884,-83.3333333333333,4,2,3,80,0,0
74041,-83.3333333333333,4,2,3,60,0,0
74200,-83.3333333333333,4,2,3,80,0,0
75147,-83.3333333333333,4,2,4,80,0,0
75304,-83.3333333333333,4,2,3,80,0,0
75779,-83.3333333333333,4,2,3,60,0,0
76726,-100,4,2,3,70,0,0
78462,-100,4,2,3,60,0,0
78621,-100,4,2,3,70,0,0
80989,-100,4,2,3,60,0,0
81068,-100,4,2,3,40,0,0
81147,-100,4,2,3,70,0,0
81779,-100,4,2,1,50,0,0

[Colours]
Combo1 : 252,193,143
Combo2 : 143,207,235
Combo3 : 90,67,121
Combo4 : 18,45,99
Combo5 : 132,105,167
Combo6 : 164,34,68

[HitObjects]
28,129,5989,6,0,L|171:97,1,140,2|6,3:2|0:3,0:0:0:0:
225,39,6463,1,0,0:0:0:0:
225,39,6621,2,0,B|257:66|257:66|306:76|361:105,1,140,2|2,1:2|0:0,0:0:0:0:
483,200,7252,6,0,B|409:211|439:252|365:273,1,140,2|6,3:2|0:3,0:0:0:0:
300,220,7726,1,0,0:0:0:0:
300,220,7884,2,0,B|271:240|271:240|218:245|158:256,1,140,10|2,0:0|0:0,0:0:0:0:
117,82,8515,6,0,P|197:101|282:127,1,140,2|2,3:2|0:0,0:0:0:0:
412,65,9147,5,2,1:2:0:0:
412,65,9305,1,10,0:0:0:0:
458,135,9463,2,0,P|415:222|397:286,1,140,6|0,0:3|3:0,0:0:0:0:
241,301,10094,1,0,0:0:0:0:
241,301,10410,2,0,B|330:311|294:352|386:368,1,140,10|0,0:0|0:0,0:0:0:0:
496,259,11042,6,0,P|466:184|443:115,1,140,2|4,3:2|0:3,0:0:0:0:
362,82,11515,1,6,0:3:0:0:
362,82,11673,2,0,P|315:123|214:134,1,140,2|2,1:2|0:0,0:0:0:0:
94,222,12305,6,0,B|122:217|122:217|161:238|227:263,1,140,2|6,3:2|0:3,0:0:0:0:
299,223,12779,1,0,0:0:0:0:
299,223,12937,2,0,B|371:198|346:169|428:139,1,140,10|2,0:0|0:0,0:0:0:0:
433,311,13568,6,0,P|394:300|368:289,1,70,2|0,3:2|0:0,0:0:0:0:
295,334,13884,2,0,P|256:346|230:357,1,70,2|0,0:0|0:0,0:0:0:0:
170,296,14200,1,2,1:2:0:0:
170,296,14358,1,10,0:0:0:0:
189,214,14515,2,0,P|225:233|251:244,1,70,6|0,0:3|0:0,0:0:0:0:
332,220,14831,6,0,P|361:145|378:59,1,140,6|2,3:2|0:0,0:0:0:0:
205,98,15463,2,0,B|127:104|163:49|70:49,1,140,10|0,0:0|0:0,0:0:0:0:
55,232,16094,6,0,B|70:247|70:247|68:268|76:305,1,77.0000023498536,2|0,3:2|0:0,0:0:0:0:
164,325,16410,1,6,0:3:0:0:
164,325,16568,1,0,0:0:0:0:
211,245,16726,2,0,B|293:253|269:306|364:317,1,154.000004699707,2|0,0:2|0:0,0:0:0:0:
503,218,17358,6,0,P|464:213|428:201,1,77.0000023498536,2|0,3:2|0:0,0:0:0:0:
396,114,17673,1,2,0:2:0:0:
396,114,17831,1,2,0:2:0:0:
324,172,17989,1,10,2:0:0:0:
324,172,18147,2,0,B|313:162|313:162|288:161|239:149,1,77.0000023498536,2|0,0:2|0:0,0:0:0:0:
225,61,18463,2,0,P|189:72|140:84,2,77.0000023498536,2|0|0,0:2|3:2|0:0,0:0:0:0:
316,29,18937,1,2,0:2:0:0:
333,227,19252,6,0,P|347:191|354:153,1,77.0000023498536,2|10,0:2|2:0,0:0:0:0:
448,176,19567,1,2,0:2:0:0:
448,176,19726,1,2,0:2:0:0:
418,267,19884,2,0,P|345:249|285:308,1,154.000004699707,2|2,3:2|0:1,0:0:0:0:
220,359,20358,2,0,P|176:347|130:338,2,77.0000023498536,2|8|2,0:2|2:0|0:2,0:0:0:0:
245,175,20989,5,2,0:2:0:0:
245,175,21147,2,0,P|210:165|160:157,1,77.0000023498536,2|2,3:2|0:2,0:0:0:0:
102,94,21463,1,2,0:2:0:0:
279,47,21779,6,0,P|314:63|366:72,1,77.0000023498536,8|0,2:0|0:0,0:0:0:0:
442,53,22094,1,2,0:2:0:0:
442,53,22252,1,2,0:2:0:0:
472,140,22410,2,0,P|399:155|353:242,1,154.000004699707,2|2,3:2|0:2,0:0:0:0:
272,258,22884,2,0,P|217:236|180:231,1,77.0000023498536,2|8,0:2|2:0,0:0:0:0:
116,230,23200,1,2,0:2:0:0:
116,230,23358,1,2,0:2:0:0:
145,48,23673,5,2,3:2:0:0:
144,48,23831,2,0,B|165:34|165:34|225:22|303:-5,1,154.000004699707,0|2,0:0|0:2,0:0:0:0:
344,75,24305,6,0,P|307:59|258:44,1,77.0000023498536,2|10,0:2|2:0,0:0:0:0:
213,120,24621,1,2,0:2:0:0:
213,120,24779,1,2,0:2:0:0:
121,125,24936,2,0,P|52:176|72:264,1,154.000004699707,2|2,3:2|0:1,0:0:0:0:
139,274,25410,2,0,P|181:289|213:306,2,77.0000023498536,2|8|2,0:2|2:0|0:2,0:0:0:0:
53,237,25884,1,2,0:2:0:0:
209,303,26200,6,0,L|230:192,2,112,0|4|2,3:0|0:3|3:0,0:0:0:0:
457,370,27305,5,0,0:0:0:0:
409,314,27463,1,2,3:0:0:0:
409,314,27621,2,0,L|391:188,1,112,4|0,0:3|0:0,0:0:0:0:
420,124,28094,6,0,P|388:180|320:183,1,112,2|0,3:0|0:0,0:0:0:0:
211,107,28726,2,0,P|233:195|241:227,1,112,4|0,1:3|0:0,0:0:0:0:
257,371,29358,6,0,P|281:298|304:260,1,112,2|4,3:0|0:3,0:0:0:0:
355,213,29831,1,2,0:0:0:0:
355,213,29989,1,2,3:0:0:0:
362,12,30621,5,2,3:0:0:0:
362,12,30779,2,0,P|386:84|411:130,1,112,4|0,0:3|0:0,0:0:0:0:
449,178,31252,1,0,3:0:0:0:
330,297,31568,5,4,0:3:0:0:
264,253,31726,1,4,0:3:0:0:
205,305,31884,2,0,P|221:215|231:179,1,112,2|0,1:3|0:0,0:0:0:0:
277,135,32358,1,2,0:0:0:0:
231,54,32515,1,2,3:0:0:0:
231,54,32673,2,0,P|311:109|350:106,1,125.999996154785,4|4,0:3|0:3,0:0:0:0:
330,197,33147,2,0,P|399:174|520:146,1,188.999994232178,2|0,3:0|0:0,0:0:0:0:
512,147,33779,5,4,1:3:0:0:
59,40,34568,5,4,1:3:0:0:
59,40,34726,1,4,1:3:0:0:
348,320,35673,6,0,P|293:341|261:357,1,84,2|0,0:0|0:0,0:0:0:0:
229,339,35989,6,0,P|198:322|211:242,1,105,2|0,0:0|0:2,0:0:0:0:
244,249,36305,6,0,B|148:236|200:185|77:165,1,167.999994873047,6|2,3:2|0:1,0:0:0:0:
17,227,36779,1,2,1:2:0:0:
56,329,36937,2,0,P|101:279|102:235,1,83.9999974365235,10|0,0:0|0:0,0:0:0:0:
169,187,37252,1,2,1:2:0:0:
244,249,37410,2,0,P|335:299|422:319,1,167.999994873047,2|0,0:0|0:0,0:0:0:0:
490,276,37884,2,0,P|496:242|515:188,1,83.9999974365235,2|0,0:0|0:0,0:0:0:0:
458,108,38200,2,0,B|360:117|405:184|290:201,2,167.999994873047,10|2|2,0:0|3:1|3:2,0:0:0:0:
458,108,39147,5,2,0:1:0:0:
384,38,39305,1,2,1:2:0:0:
291,78,39463,2,0,B|272:64|272:64|248:65|201:52,1,83.9999974365235,10|0,0:0|0:0,0:0:0:0:
150,135,39779,2,0,B|137:142|137:142|106:140|69:159,1,83.9999974365235,2|0,1:2|0:0,0:0:0:0:
140,232,40094,2,0,B|179:300|271:276|261:199|212:191,1,167.999994873047,2|2,0:0|1:2,0:0:0:0:
256,302,40568,2,0,B|353:301|315:349|431:352,1,167.999994873047,2|0,0:0|1:0,0:0:0:0:
487,282,41042,2,0,P|479:253|456:188,1,83.9999974365235,2|0,0:1|0:0,0:0:0:0:
482,102,41358,6,0,P|437:169|344:170,1,167.999994873047,2|2,3:2|0:1,0:0:0:0:
287,100,41831,1,2,1:2:0:0:
204,41,41989,2,0,B|187:62|187:62|142:78|86:107,1,125.999996154785,10|0,0:0|3:0,0:0:0:0:
96,101,42305,1,2,3:2:0:0:
175,164,42463,2,0,P|255:212|277:307,1,167.999994873047,2|0,0:0|0:0,0:0:0:0:
187,322,42937,2,0,B|101:318|133:376|13:386,2,167.999994873047,2|14|2,0:0|0:0|0:1,0:0:0:0:
348,369,43884,6,0,L|375:220,1,140,2|2,3:2|0:1,0:0:0:0:
406,318,44358,1,2,1:2:0:0:
495,273,44515,2,0,B|484:264|465:251|465:251|465:211|447:159,1,125.999996154785,10|0,0:0|0:0,0:0:0:0:
445,107,44831,2,0,P|412:140|361:147,1,83.9999974365235,2|0,1:2|0:0,0:0:0:0:
307,74,45147,2,0,P|261:58|216:47,1,83.9999974365235,2|0,0:0|0:0,0:0:0:0:
127,68,45463,2,0,P|176:195|191:241,2,167.999994873047,2|10|2,1:2|0:0|0:1,0:0:0:0:
127,68,46410,6,0,B|226:42|226:177|166:141,1,167.999994873047,6|2,3:2|0:1,0:0:0:0:
244,74,46884,1,0,1:0:0:0:
305,153,47042,2,0,P|404:174|442:183,1,125.999996154785,8|0,0:0|3:0,0:0:0:0:
468,148,47358,2,0,B|438:176|438:176|460:232|473:309,1,167.999994873047,2|2,1:2|0:1,0:0:0:0:
471,298,47989,2,0,B|375:303|416:366|322:380,2,167.999994873047,2|10|2,0:0|0:0|0:1,0:0:0:0:
369,306,48779,1,2,0:0:0:0:
317,223,48937,6,0,P|341:127|350:57,1,167.999994873047,2|2,3:2|0:1,0:0:0:0:
264,5,49410,1,0,1:0:0:0:
198,81,49568,2,0,L|69:57,1,125.999996154785,10|0,0:0|0:0,0:0:0:0:
32,28,49884,2,0,B|57:53|57:53|59:94|67:111,1,83.9999974365235,2|0,1:2|0:0,0:0:0:0:
107,192,50200,2,0,P|206:206|239:261,1,167.999994873047,2|2,0:0|1:2,0:0:0:0:
142,288,50673,1,0,0:0:0:0:
219,352,50831,2,0,B|316:334|401:324,1,167.999994873047,10|2,0:0|0:1,0:0:0:0:
486,142,51463,6,0,B|381:158|405:198|332:218,1,167.999994873047,2|2,3:2|3:1,0:0:0:0:
257,155,51937,1,0,1:0:0:0:
172,208,52094,2,0,P|201:129|219:32,1,167.999994873047,10|2,0:0|1:2,0:0:0:0:
309,5,52568,2,0,P|365:24|375:126,1,167.999994873047,2|0,0:0|0:0,0:0:0:0:
342,216,53042,1,2,0:0:0:0:
342,216,53358,2,0,P|435:270|477:314,2,167.999994873047,10|2|2,0:0|3:1|3:2,0:0:0:0:
68,345,54305,5,0,0:0:0:0:
68,345,54463,1,2,1:2:0:0:
120,258,54621,2,0,P|97:207|71:135,1,125.999996154785,10|0,0:0|0:0,0:0:0:0:
72,141,54937,1,2,1:2:0:0:
236,20,55252,6,0,B|367:21|346:106|456:140,1,251.999992309571,6|0,0:0|0:0,0:0:0:0:
370,201,55884,1,10,0:0:0:0:
370,201,56200,5,2,0:1:0:0:
450,139,56358,1,2,0:0:0:0:
476,43,56515,2,0,B|443:57|443:57|392:40|341:39,1,125.999996154785,6|0,3:2|0:0,0:0:0:0:
354,39,56831,1,2,0:0:0:0:
285,113,56989,2,0,B|270:102|270:102|226:90|195:81,1,83.9999974365235,2|10,1:2|0:0,0:0:0:0:
14,21,57463,6,0,L|56:159,1,125.999996154785,2|0,1:2|0:0,0:0:0:0:
50,141,57779,1,2,0:0:0:0:
150,159,57937,2,0,P|86:255|64:302,1,167.999994873047,2|2,0:0|0:0,0:0:0:0:
156,343,58410,2,0,B|177:338|177:338|232:361|315:384,1,167.999994873047,14|2,0:0|0:1,0:0:0:0:
354,316,58884,1,2,0:0:0:0:
393,196,59042,2,0,B|298:210|341:257|243:294,1,167.999994873047,2|2,3:2|0:1,0:2:0:0:
354,316,59515,1,2,1:2:0:0:
448,267,59673,2,0,P|427:108|425:82,1,167.999994873047,10|2,0:0|1:2,0:0:0:0:
498,28,60147,1,2,0:0:0:0:
426,100,60305,6,0,B|382:125|382:125|328:95|251:90,1,167.999994873047,2|0,0:1|1:0,0:0:0:0:
174,122,60779,1,2,0:0:0:0:
98,189,60937,1,10,0:0:0:0:
120,286,61094,1,2,1:2:0:0:
213,323,61252,1,2,0:0:0:0:
213,323,61568,6,0,B|245:313|245:313|311:322|374:365,1,167.999994873047,6|2,3:2|0:0,0:0:0:0:
459,316,62042,2,0,B|455:302|442:289|442:289|437:264|435:237,1,83.9999974365235,2|8,1:2|0:0,0:0:0:0:
373,156,62358,1,2,0:0:0:0:
449,93,62515,2,0,B|435:79|435:79|427:50|407:20,1,83.9999974365235,2|0,1:2|0:0,0:0:0:0:
308,4,62831,1,2,0:0:0:0:
221,56,62989,2,0,P|246:161|257:232,1,167.999994873047,2|2,0:0|0:0,0:0:0:0:
172,282,63463,2,0,B|75:296|114:346|20:382,1,167.999994873047,14|2,0:0|0:1,0:0:0:0:
83,284,63937,1,2,0:0:0:0:
47,192,64094,6,0,P|113:204|202:148,1,167.999994873047,2|2,3:2|0:1,0:0:0:0:
225,57,64568,1,2,1:2:0:0:
315,100,64726,2,0,B|331:115|331:115|375:118|398:139,1,83.9999974365235,10|0,0:0|0:0,0:0:0:0:
441,222,65042,1,2,1:2:0:0:
362,285,65200,2,0,P|351:234|343:192,2,83.9999974365235,2|2|2,0:0|0:1|0:0,0:0:0:0:
442,345,65673,6,0,P|406:377|361:378,1,83.9999974365235,0|2,1:0|0:0,0:0:0:0:
285,326,65989,1,10,0:0:0:0:
186,346,66147,1,2,1:2:0:0:
112,276,66305,1,2,0:0:0:0:
112,276,66621,6,0,B|120:238|120:238|90:135,1,125.999996154785,6|0,3:2|0:0,0:0:0:0:
61,115,66937,2,0,B|91:133|91:133|155:125|210:182,2,167.999994873047,2|10|2,0:1|0:0|1:2,0:0:0:0:
248,40,67884,2,0,P|294:29|417:-4,1,167.999994873047,2|0,0:0|0:0,0:0:0:0:
512,166,68515,1,10,0:0:0:0:
512,166,68831,1,2,0:0:0:0:
393,311,69147,6,0,B|296:310|345:240|193:254,1,167.999994873047,2|2,3:2|0:1,0:0:0:0:
152,302,69621,1,2,1:2:0:0:
68,246,69779,2,0,B|83:222|83:222|86:188|105:127,1,83.9999974365235,10|0,0:0|0:0,0:0:0:0:
122,70,70094,2,0,P|173:118|285:119,1,167.999994873047,2|0,1:2|0:0,0:0:0:0:
357,171,70568,1,2,0:0:0:0:
425,96,70726,2,0,B|451:114|451:114|494:125|520:151,1,83.9999974365235,2|0,1:2|0:0,0:0:0:0:
442,218,71042,2,0,P|411:362|405:393,2,167.999994873047,10|2|0,0:0|0:0|3:0,0:0:0:0:
258,128,71989,5,2,0:1:0:0:
187,56,72147,1,0,1:0:0:0:
89,79,72305,2,0,P|126:179|138:230,1,125.999996154785,10|0,0:0|0:0,0:0:0:0:
181,199,72621,2,0,P|170:241|162:284,1,83.9999974365235,0|0,1:2|0:0,0:0:0:0:
65,309,72937,2,0,B|157:311|136:356|230:358,1,167.999994873047,2|0,0:0|0:0,0:0:0:0:
416,300,73568,2,0,P|404:253|384:201,1,83.9999974365235,14|0,0:0|0:0,0:0:0:0:
483,175,73884,2,0,P|451:138|420:92,1,83.9999974365235,2|0,0:1|0:0,0:0:0:0:
313,97,74200,6,0,B|295:106|295:106|250:94|218:94,1,83.9999974365235,2|0,3:2|0:0,0:0:0:0:
159,164,74515,1,2,0:1:0:0:
60,118,74673,1,0,1:0:0:0:
0,187,74831,2,0,P|24:245|31:274,1,83.9999974365235,10|0,0:0|0:0,0:0:0:0:
130,272,75147,6,0,P|106:330|99:359,1,83.9999974365235,6|0,1:2|0:0,0:0:0:0:
92,47,75779,5,2,0:0:0:0:
92,47,76094,1,2,0:0:0:0:
92,47,76410,1,2,0:0:0:0:
214,207,76726,6,0,P|302:186|375:171,1,140,6|2,3:2|0:1,0:0:0:0:
407,112,77200,1,2,1:2:0:0:
465,172,77358,2,0,B|483:209|483:209|450:243|435:311,1,140,10|0,0:0|1:0,0:0:0:0:
291,376,77989,2,0,P|208:334|96:350,1,210,2|0,0:1|0:0,0:0:0:0:
47,280,78621,2,0,L|89:139,1,140,10|2,0:0|0:1,0:0:0:0:
205,26,79252,6,0,B|292:36|263:81|357:88,1,140,2|2,3:2|0:1,0:0:0:0:
398,34,79726,1,2,0:0:0:0:
448,101,79884,2,0,B|449:125|449:125|416:165|402:241,1,140,10|0,0:0|1:0,0:0:0:0:
241,186,80515,2,0,B|231:200|231:200|270:258|287:326,1,140,2|2,0:1|1:2,0:0:0:0:
366,355,80989,1,0,3:0:0:0:
366,355,81068,1,0,3:0:0:0:
366,355,81147,2,0,P|215:342|151:388,1,210,10|2,0:0|0:0,0:0:0:0:
92,336,81779,5,4,0:3:0:0:
475,255,82410,5,10,0:0:0:0:
387,324,83042,5,2,0:0:0:0:
286,275,83673,5,10,0:0:0:0:
189,331,84305,5,4,0:3:0:0:
99,263,84937,5,10,0:0:0:0:
14,336,85569,5,6,0:0:0:0:
384,209,86200,5,10,0:0:0:0:
