osu file format v14

[General]
AudioFilename: audio.mp3
AudioLeadIn: 0
PreviewTime: 179690
Countdown: 0
SampleSet: Soft
StackLeniency: 0.7
Mode: 0
LetterboxInBreaks: 0
WidescreenStoryboard: 0

[Editor]
Bookmarks: 38003,72702,98726,133425,156557,179690,228846,251979
DistanceSpacing: 0.2
BeatDivisor: 8
GridSize: 4
TimelineZoom: 3.599999

[Metadata]
Title:narrative
TitleUnicode:narrative
Artist:SawanoHiroyuki[nZk]:LiSA
ArtistUnicode:SawanoHiroyuki[nZk]:LiSA
Creator:Agatsu
Version:Collab
Source:機動戦士ガンダムNT
Tags:kalibe deca mobile suit gundam nt female vocalist japanese anime 澤野弘之 remember
BeatmapID:2288339
BeatmapSetID:1094928

[Difficulty]
HPDrainRate:5
CircleSize:4
OverallDifficulty:8
ApproachRate:9
SliderMultiplier:1.8
SliderTickRate:1

[Events]
//Background and Video events
0,0,"69166464_p0.jpg",0,0
//Break Periods
//Storyboard Layer 0 (Background)
//Storyboard Layer 1 (Fail)
//Storyboard Layer 2 (Pass)
//Storyboard Layer 3 (Foreground)
//Storyboard Layer 4 (Overlay)
//Storyboard Sound Samples

[TimingPoints]
227,722.89156626506,4,2,1,50,1,0
227,-71.4285714285714,4,2,1,50,0,0
11071,-71.4285714285714,4,2,1,55,0,0
11794,-71.4285714285714,4,2,1,70,0,0
11974,722.89156626506,4,2,1,80,1,0
11974,-52.6315789473684,4,2,1,80,0,0
12967,-52.6315789473684,4,2,1,5,0,0
13058,-52.6315789473684,4,2,1,80,0,0
14413,-52.6315789473684,4,2,1,5,0,0
14503,-52.6315789473684,4,2,1,80,0,0
20196,-52.6315789473684,4,2,1,5,0,0
20287,-52.6315789473684,4,2,1,80,0,0
21642,-52.6315789473684,4,2,1,5,0,0
21732,-52.6315789473684,4,2,1,80,0,0
31762,-52.6315789473684,4,2,1,5,0,0
31853,-52.6315789473684,4,2,1,80,0,0
33208,-52.6315789473684,4,2,1,5,0,0
33299,-52.6315789473684,4,2,1,80,0,0
34293,-52.6315789473684,4,2,1,5,0,0
34383,-52.6315789473684,4,2,1,80,0,0
34925,-100,4,2,1,80,0,0
35106,-100,4,2,1,50,0,0
37275,-71.4285714285714,4,2,1,50,0,0
37997,-62.5,4,2,1,55,0,0
40256,-62.5,4,2,1,5,0,0
40347,-62.5,4,2,1,55,0,0
46040,-62.5,4,2,1,5,0,0
46130,-55.5555555555556,4,2,1,55,0,0
46672,-62.5,4,2,1,55,0,0
47666,-62.5,4,2,1,5,0,0
47756,-55.5555555555556,4,2,1,55,0,0
48479,-62.5,4,2,1,55,0,0
48931,-62.5,4,2,1,5,0,0
49022,-62.5,4,2,1,55,0,0
49564,-52.6315789473684,4,2,1,70,0,0
49835,-52.6315789473684,4,2,1,5,0,0
49925,-58.8235294117647,4,2,1,70,0,0
52003,-58.8235294117647,4,2,1,5,0,0
52094,-58.8235294117647,4,2,1,70,0,0
52455,-52.6315789473684,4,2,1,70,0,0
54624,-76.9230769230769,4,2,1,70,0,0
55347,-52.6315789473684,4,2,1,70,0,0
56341,-52.6315789473684,4,2,1,5,0,0
56431,-58.8235294117647,4,2,1,70,0,0
57787,-58.8235294117647,4,2,1,5,0,0
57877,-58.8235294117647,4,2,1,70,0,0
58238,-52.6315789473684,4,2,1,70,0,0
59232,-52.6315789473684,4,2,1,5,0,0
59323,-52.6315789473684,4,2,1,70,0,0
59775,-52.6315789473684,4,2,1,5,0,0
59865,-52.6315789473684,4,2,1,70,0,0
61130,-100,4,2,1,50,0,0
64473,-100,4,2,1,5,0,0
64564,-100,4,2,1,50,0,0
68359,-83.3333333333333,4,2,1,50,0,0
68811,-100,4,2,1,5,0,0
68901,-83.3333333333333,4,2,1,50,0,0
70528,-66.6666666666667,4,2,1,50,0,0
72335,-66.6666666666667,4,2,1,60,0,0
72696,-55.5555555555556,4,2,1,80,0,0
73690,-55.5555555555556,4,2,1,5,0,0
73781,-55.5555555555556,4,2,1,80,0,0
75859,-55.5555555555556,4,2,1,5,0,0
75949,-55.5555555555556,4,2,1,80,0,0
80196,-55.5555555555556,4,2,1,5,0,0
80287,-55.5555555555556,4,2,1,80,0,0
80919,-55.5555555555556,4,2,1,5,0,0
81009,-55.5555555555556,4,2,1,80,0,0
83901,-133.333333333333,4,2,1,80,0,0
84172,-133.333333333333,4,2,1,5,0,0
84262,-55.5555555555556,4,2,1,80,0,0
85256,-55.5555555555556,4,2,1,5,0,0
85347,-55.5555555555556,4,2,1,80,0,0
88148,-55.5555555555556,4,2,1,5,0,0
88238,-55.5555555555556,4,2,1,80,0,0
90317,-55.5555555555556,4,2,1,5,0,0
90407,-55.5555555555556,4,2,1,80,0,0
95015,-55.5555555555556,4,2,1,5,0,0
95106,-55.5555555555556,4,2,1,80,0,0
95287,-71.4285714285714,4,2,1,50,0,0
95648,-100,4,2,1,50,0,0
97997,-142.857142857143,4,2,1,50,0,0
98630,-100,4,2,1,5,0,0
98720,-58.8235294117647,4,2,1,70,0,0
101160,-58.8235294117647,4,2,1,5,0,0
101250,-58.8235294117647,4,2,1,70,0,0
107305,-58.8235294117647,4,2,1,5,0,0
107395,-58.8235294117647,4,2,1,70,0,0
109925,-71.4285714285714,4,2,1,70,0,0
110287,-58.8235294117647,4,2,1,70,0,0
117064,-58.8235294117647,4,2,1,5,0,0
117154,-58.8235294117647,4,2,1,70,0,0
121762,-58.8235294117647,4,2,1,5,0,0
121853,-71.4285714285714,4,2,3,55,0,0
133058,-66.6666666666667,4,2,1,60,0,0
133419,-52.6315789473684,4,2,1,80,0,0
136582,-52.6315789473684,4,2,1,5,0,0
136672,-52.6315789473684,4,2,1,80,0,0
140196,-52.6315789473684,4,2,1,5,0,0
140287,-52.6315789473684,4,2,1,80,0,0
144624,-133.333333333333,4,2,1,80,0,0
144895,-133.333333333333,4,2,1,5,0,0
144985,-52.6315789473684,4,2,1,80,0,0
145437,-52.6315789473684,4,2,1,5,0,0
145528,-52.6315789473684,4,2,1,80,0,0
145979,-52.6315789473684,4,2,1,5,0,0
146070,-52.6315789473684,4,2,1,80,0,0
147425,-52.6315789473684,4,2,1,5,0,0
147515,-52.6315789473684,4,2,1,80,0,0
148148,-52.6315789473684,4,2,1,5,0,0
148238,-52.6315789473684,4,2,1,80,0,0
148600,-47.6190476190476,4,2,1,80,0,0
148961,-52.6315789473684,4,2,1,80,0,0
151040,-52.6315789473684,4,2,1,5,0,0
151130,-52.6315789473684,4,2,1,80,0,0
151491,-47.6190476190476,4,2,1,80,0,0
151762,-52.6315789473684,4,2,1,5,0,0
151853,-52.6315789473684,4,2,1,80,0,0
154112,-52.6315789473684,4,2,1,5,0,0
154202,-52.6315789473684,4,2,1,80,0,0
158630,-52.6315789473684,4,2,1,5,0,0
158720,-52.6315789473684,4,2,1,80,0,0
159714,-52.6315789473684,4,2,1,5,0,0
159805,-52.6315789473684,4,2,1,80,0,0
160979,-52.6315789473684,4,2,1,5,0,0
161070,-52.6315789473684,4,2,1,80,0,0
162606,-52.6315789473684,4,2,1,5,0,0
162696,-52.6315789473684,4,2,1,80,0,0
163329,-52.6315789473684,4,2,1,5,0,0
163419,-52.6315789473684,4,2,1,80,0,0
166762,-52.6315789473684,4,2,1,5,0,0
166853,-52.6315789473684,4,2,1,80,0,0
170558,-52.6315789473684,4,2,1,5,0,0
170648,-52.6315789473684,4,2,1,80,0,0
174172,-52.6315789473684,4,2,1,5,0,0
174262,-52.6315789473684,4,2,1,80,0,0
174895,-52.6315789473684,4,2,1,5,0,0
174985,-52.6315789473684,4,2,1,80,0,0
178329,-52.6315789473684,4,2,1,5,0,0
178419,-52.6315789473684,4,2,1,80,0,0
179684,-58.8235294117647,4,2,1,70,0,0
183570,-58.8235294117647,4,2,1,5,0,0
183660,-58.8235294117647,4,2,1,70,0,0
189353,-58.8235294117647,4,2,1,5,0,0
189443,-58.8235294117647,4,2,1,70,0,0
191250,-71.4285714285714,4,2,1,55,0,0
204805,-71.4285714285714,4,2,1,70,0,0
205347,-125,4,2,1,70,0,0
205618,-125,4,2,1,5,0,0
205708,-52.6315789473684,4,2,1,80,0,0
206702,-52.6315789473684,4,2,1,5,0,0
206793,-52.6315789473684,4,2,1,80,0,0
208148,-52.6315789473684,4,2,1,5,0,0
208238,-52.6315789473684,4,2,1,80,0,0
208871,-52.6315789473684,4,2,1,5,0,0
208961,-52.6315789473684,4,2,1,80,0,0
213208,-52.6315789473684,4,2,1,5,0,0
213299,-52.6315789473684,4,2,1,80,0,0
213931,-52.6315789473684,4,2,1,5,0,0
214022,-52.6315789473684,4,2,1,80,0,0
214654,-52.6315789473684,4,2,1,5,0,0
214744,-52.6315789473684,4,2,1,80,0,0
218269,-52.6315789473684,4,2,1,5,0,0
218359,-52.6315789473684,4,2,1,80,0,0
219714,-52.6315789473684,4,2,1,5,0,0
219805,-52.6315789473684,4,2,1,80,0,0
223329,-52.6315789473684,4,2,1,5,0,0
223419,-52.6315789473684,4,2,1,80,0,0
225136,-52.6315789473684,4,2,1,5,0,0
225226,-52.6315789473684,4,2,1,80,0,0
227485,-52.6315789473684,4,2,1,5,0,0
227576,-52.6315789473684,4,2,1,80,0,0
229112,-52.6315789473684,4,2,1,5,0,0
229202,-52.6315789473684,4,2,1,80,0,0
231371,-47.6190476190476,4,2,1,80,0,0
231732,-47.6190476190476,4,2,1,80,0,0
232455,-52.6315789473684,4,2,1,80,0,0
232726,-52.6315789473684,4,2,1,5,0,0
232817,-52.6315789473684,4,2,1,80,0,0
234895,-52.6315789473684,4,2,1,5,0,0
234985,-52.6315789473684,4,2,1,80,0,0
235618,-52.6315789473684,4,2,1,5,0,0
235708,-52.6315789473684,4,2,1,80,0,0
237515,-47.6190476190476,4,2,1,80,0,0
238148,-47.6190476190476,4,2,1,80,0,0
240407,-52.6315789473684,4,2,1,80,0,0
244293,-52.6315789473684,4,2,1,5,0,0
244383,-52.6315789473684,4,2,1,80,0,0
248630,-52.6315789473684,4,2,1,5,0,0
248720,-47.6190476190476,4,2,1,80,0,0
249353,-47.6190476190476,4,2,1,5,0,0
249443,-52.6315789473684,4,2,1,80,0,0
251973,-52.6315789473684,4,2,1,65,0,0
252335,-52.6315789473684,4,2,1,60,0,0
252696,-52.6315789473684,4,2,1,55,0,0
253058,-52.6315789473684,4,2,1,50,0,0
253419,-52.6315789473684,4,2,1,45,0,0
253781,-52.6315789473684,4,2,1,40,0,0
254142,-52.6315789473684,4,2,1,35,0,0
254503,-52.6315789473684,4,2,1,30,0,0
254865,-52.6315789473684,4,2,1,25,0,0
255226,-52.6315789473684,4,2,1,20,0,0
255588,-52.6315789473684,4,2,1,15,0,0
255949,-52.6315789473684,4,2,1,10,0,0
256311,-52.6315789473684,4,2,1,5,0,0

[Colours]
Combo1 : 208,126,218
Combo2 : 133,164,222
Combo3 : 132,120,197
Combo4 : 220,151,118

[HitObjects]
192,0,227,6,0,L|213:64,1,62.9999980773926,2|0,0:0|0:0,0:0:0:0:
80,186,588,1,0,0:0:0:0:
109,63,769,2,0,L|76:199,1,125.999996154785,2|0,0:0|0:0,0:0:0:0:
171,273,1311,2,0,B|202:268|202:268|237:272,1,62.9999980773926,2|0,0:0|0:0,0:0:0:0:
341,299,1672,2,0,B|269:281|269:281|223:291|193:329|218:363,1,188.999994232178,2|2,0:0|0:0,0:0:0:0:
215,371,2576,5,0,0:0:0:0:
348,308,2756,1,0,0:0:0:0:
305,237,3118,5,2,0:0:0:0:
441,320,3299,2,0,P|442:285|423:258,1,62.9999980773926,0|0,0:0|0:0,0:0:0:0:
512,115,3660,2,0,L|380:142,1,125.999996154785,2|0,0:0|0:0,0:0:0:0:
258,59,4202,2,0,P|258:21|283:-9,1,62.9999980773926,2|0,0:0|0:0,0:0:0:0:
339,47,4564,5,2,0:0:0:0:
242,180,4744,2,0,P|279:182|315:150,1,62.9999980773926,0|0,0:0|0:0,0:0:0:0:
135,118,5106,2,0,B|193:120|227:186|182:230|182:230|146:238,1,188.999994232178,2|0,0:0|0:0,0:0:0:0:
143,242,6009,6,0,L|64:226,1,62.9999980773926,2|0,0:0|0:0,0:0:0:0:
138,336,6371,1,0,0:0:0:0:
264,280,6552,1,2,0:0:0:0:
272,285,6913,2,0,L|286:360,1,62.9999980773926,2|0,0:0|0:0,0:0:0:0:
393,279,7275,5,0,0:0:0:0:
453,354,7455,2,0,P|396:338|393:279,1,125.999996154785,2|0,0:0|0:0,0:0:0:0:
490,132,7997,2,0,B|510:209|480:187|496:277,1,125.999996154785,2|0,0:0|0:0,0:0:0:0:
398,132,8540,1,2,0:0:0:0:
392,124,8901,6,0,L|412:55,1,62.9999980773926,2|0,0:0|0:0,0:0:0:0:
271,116,9262,1,0,0:0:0:0:
408,220,9443,2,0,P|349:234|314:182,1,125.999996154785,2|0,0:0|0:0,0:0:0:0:
197,295,9985,2,0,L|180:355,1,62.9999980773926,2|0,0:0|0:0,0:0:0:0:
269,324,10347,5,2,0:0:0:0:
149,216,10528,2,0,P|179:203|216:209,1,62.9999980773926,0|0,0:0|0:0,0:0:0:0:
53,332,10889,1,2,0:0:0:0:
217,202,11070,2,0,B|140:181|140:181|94:189|60:237|105:276,1,188.999994232178,2|0,0:3|0:0,0:0:0:0:
217,202,11793,1,2,0:3:0:0:
331,365,11974,6,0,B|316:271|398:307|359:184,1,170.999995433807,14|0,0:1|0:0,0:0:0:0:
446,45,12515,1,0,0:0:0:0:
268,35,12696,2,0,P|293:-6|377:16,1,128.249996575356,2|0,1:0|0:0,0:0:0:0:
371,7,13058,1,8,0:1:0:0:
214,140,13238,6,0,B|173:111|123:124|123:124|90:158|39:155,1,170.999995433807,4|0,0:3|0:0,0:0:0:0:
209,250,13781,2,0,P|243:257|289:210,1,85.4999977169037,8|0,0:3|0:0,0:0:0:0:
463,131,14142,2,0,B|445:165|445:165|463:216|463:216|448:254,1,128.249996575356,2|0,1:0|0:0,0:0:0:0:
447,256,14503,1,8,0:1:0:0:
297,120,14684,1,8,0:1:0:0:
97,206,14865,6,0,P|133:275|208:250,1,170.999995433807,10|0,0:1|0:0,0:0:0:0:
87,83,15407,1,0,0:0:0:0:
219,245,15588,2,0,P|227:202|201:166,1,85.4999977169037,2|0,1:0|0:0,0:0:0:0:
83,380,15949,2,0,B|101:336|67:301|67:301|32:266|50:223,1,170.999995433807,8|2,0:1|0:1,0:0:0:0:
232,35,16491,5,4,0:3:0:0:
232,35,16582,1,4,0:3:0:0:
232,35,16672,2,0,L|139:53,1,85.4999977169037,8|0,0:1|0:0,0:0:0:0:
391,183,17034,1,2,1:0:0:0:
230,167,17214,2,0,B|322:138|305:223|390:183,1,170.999995433807,8|0,0:1|0:0,0:0:0:0:
496,364,17756,6,0,P|432:385|380:305,1,170.999995433807,14|0,0:1|0:0,0:0:0:0:
460,280,18299,1,0,0:0:0:0:
236,374,18479,2,0,P|235:338|275:300,1,85.4999977169037,2|0,1:0|0:0,0:0:0:0:
168,111,18841,5,8,0:1:0:0:
275,306,19022,2,0,P|282:252|239:129,1,170.999995433807,4|0,0:3|0:0,0:0:0:0:
95,291,19564,2,0,P|53:296|19:264,1,85.4999977169037,8|0,0:3|0:0,0:0:0:0:
111,43,19925,2,0,B|100:70|100:70|114:105|114:105|93:167,1,128.249996575356,2|0,1:0|0:0,0:0:0:0:
91,172,20287,1,8,0:1:0:0:
276,71,20467,1,8,0:1:0:0:
356,159,20648,6,0,B|316:178|254:150|257:95|257:95|287:55,1,170.999995433807,10|0,0:1|0:0,0:0:0:0:
486,3,21190,1,4,0:3:0:0:
486,3,21281,1,4,0:3:0:0:
486,3,21371,2,0,B|464:73|522:60|499:143,1,128.249996575356,2|0,1:0|0:0,0:0:0:0:
501,134,21732,5,8,0:1:0:0:
371,294,21913,2,0,P|427:293|445:264,1,85.4999977169037,4|2,0:3|0:1,0:0:0:0:
306,156,22275,1,0,0:0:0:0:
448,267,22455,2,0,B|367:239|372:325|269:278,1,170.999995433807,8|2,0:1|1:0,0:0:0:0:
134,171,22997,5,8,0:1:0:0:
276,290,23178,1,8,0:3:0:0:
108,357,23359,1,4,0:3:0:0:
181,101,23540,6,0,B|178:131|178:131|184:160|184:160|172:271,1,170.999995433807,14|0,0:1|0:0,0:0:0:0:
294,126,24082,1,0,0:0:0:0:
130,22,24262,2,0,P|170:1|212:14,1,85.4999977169037,2|0,1:0|0:0,0:0:0:0:
10,209,24624,5,8,0:1:0:0:
117,145,24805,2,0,B|51:131|51:131|-5:152|-7:190|13:214,1,170.999995433807,4|0,0:3|0:0,0:0:0:0:
204,368,25347,2,0,P|210:337|177:288,1,85.4999977169037,8|0,0:3|0:0,0:0:0:0:
20,327,25708,2,0,B|-17:365|-17:365|114:351,1,170.999995433807,2|8,1:0|0:1,0:0:0:0:
235,205,26250,1,8,0:1:0:0:
426,297,26431,6,0,P|351:322|314:253,1,170.999995433807,10|0,0:1|0:0,0:0:0:0:
468,129,26973,1,0,0:0:0:0:
320,242,27154,2,0,P|349:216|406:228,1,85.4999977169037,2|0,1:0|0:0,0:0:0:0:
348,384,27515,1,8,0:1:0:0:
214,181,27696,6,0,B|275:184|293:243|271:279|271:279|229:299,1,170.999995433807,4|0,0:3|0:0,0:0:0:0:
74,130,28238,2,0,L|90:37,1,85.4999977169037,8|0,0:1|0:0,0:0:0:0:
88,45,28509,1,8,0:3:0:0:
88,45,28600,1,2,1:0:0:0:
202,194,28781,2,0,B|119:173|124:249|27:211,1,170.999995433807,8|0,0:1|0:0,0:0:0:0:
229,72,29323,6,0,L|414:45,1,170.999995433807,10|0,0:1|0:0,0:0:0:0:
229,72,29865,1,0,0:0:0:0:
370,245,30046,2,0,P|308:272|253:196,1,170.999995433807,2|8,1:0|0:1,0:0:0:0:
370,245,30588,6,0,L|391:340,1,85.4999977169037,4|2,0:3|0:1,0:0:0:0:
272,308,30949,1,0,0:0:0:0:
427,153,31130,2,0,P|382:130|338:149,1,85.4999977169037,8|0,0:3|0:0,0:0:0:0:
183,260,31491,2,0,B|183:195|147:208|152:138,1,128.249996575356,2|0,1:0|0:0,0:0:0:0:
156,130,31853,1,8,0:1:0:0:
42,265,32034,1,8,0:1:0:0:
272,339,32214,6,0,B|205:355|205:355|147:327|160:279|195:245,1,170.999995433807,10|0,0:1|0:0,0:0:0:0:
308,121,32756,1,0,0:0:0:0:
183,260,32937,2,0,B|180:229|180:229|188:204|188:204|174:111,1,128.249996575356,2|0,1:0|0:0,0:0:0:0:
177,126,33299,1,8,0:1:0:0:
39,3,33479,6,0,B|-4:17|-4:17|136:41,1,170.999995433807,8|0,0:3|0:0,0:0:0:0:
347,43,34022,2,0,P|311:3|244:20,1,128.249996575356,8|0,0:1|0:0,0:0:0:0:
239,25,34383,5,2,1:0:0:0:
385,145,34564,1,8,0:1:0:0:
217,217,34744,5,4,0:3:0:0:
347,43,34925,2,0,L|409:34,1,45,4|2,0:3|0:0,0:0:0:0:
417,21,35287,5,0,0:0:0:0:
441,89,35467,1,0,0:0:0:0:
465,157,35648,1,0,0:0:0:0:
386,306,35829,5,2,0:0:0:0:
438,251,36009,1,0,0:0:0:0:
511,266,36190,1,0,0:0:0:0:
373,331,36371,5,2,0:0:0:0:
255,298,36552,1,0,0:0:0:0:
272,373,36732,1,0,0:0:0:0:
316,248,36913,5,2,0:0:0:0:
177,278,37094,1,0,0:0:0:0:
316,248,37275,2,0,B|423:228|397:314|501:278,1,188.999994232178
257,93,37997,6,0,B|291:121|291:172|291:172|256:186|241:224,1,144,2|0,0:0|0:0,0:0:0:0:
218,279,38540,1,0,0:0:0:0:
290,357,38720,2,0,P|302:308|287:278,1,72,2|0,0:0|0:0,0:0:0:0:
7,273,39082,5,0,0:0:0:0:
0,256,39262,2,0,B|42:269|42:269|96:322|96:322|149:339,1,144,2|0,0:0|0:0,0:0:0:0:
138,332,39805,1,0,0:0:0:0:
246,152,39985,2,0,B|237:128|243:95|243:95|200:114|205:144,1,108,2|0,0:0|0:0,0:0:0:0:
202,153,40347,2,0,P|282:132|422:117,1,216,2|2,0:0|0:0,0:0:0:0:
482,157,41070,1,0,0:0:0:0:
488,298,41250,1,0,0:0:0:0:
388,236,41431,1,0,0:0:0:0:
311,302,41612,2,0,P|274:309|235:323,1,72,2|0,0:0|0:0,0:0:0:0:
21,254,41973,5,0,0:0:0:0:
96,174,42154,2,0,B|113:216|113:216|96:265|96:265|116:338,1,144,2|0,0:0|0:0,0:0:0:0:
123,333,42696,1,0,0:0:0:0:
206,233,42877,1,2,0:0:0:0:
206,233,43238,2,0,B|247:244|247:244|317:227|284:159,1,144,2|0,0:0|0:0,0:0:0:0:
263,140,43781,1,2,0:0:0:0:
372,78,43961,1,0,0:0:0:0:
509,206,44142,2,0,B|491:199|491:199|464:172|464:172|435:157,1,72,2|0,0:0|0:0,0:0:0:0:
369,157,44503,2,0,P|373:202|380:249,1,72,0|0,0:0|0:0,0:0:0:0:
477,375,44865,5,2,0:0:0:0:
493,287,45046,2,0,B|406:295|449:343|342:337,1,144,0|0,0:0|0:0,0:0:0:0:
258,366,45588,1,0,0:0:0:0:
96,311,45769,2,0,P|137:287|223:305,1,108,2|0,0:0|0:0,0:0:0:0:
212,296,46130,2,0,B|253:305|328:261|294:202|245:199|233:227,1,161.999995056153,2|0,0:0|0:0,0:0:0:0:
3,220,46672,6,0,P|11:254|14:303,1,72,2|0,0:0|0:0,0:0:0:0:
18,142,47034,2,0,B|59:109|114:160|114:160|125:183|125:183|183:250|240:198,1,252,2|0,0:0|0:0,0:0:0:0:
244,190,47757,2,0,B|263:136|127:74|75:294|234:353,1,323.999990112305,2|0,0:0|0:0,0:0:0:0:
309,249,48660,2,0,B|359:239|359:239|364:242|364:242|438:228,1,108,2|0,0:0|0:0,0:0:0:0:
430,221,49022,1,0,0:0:0:0:
377,85,49202,2,0,B|393:90|393:90|418:78,3,36,0|0|0|0,3:0|3:0|3:0|3:0,0:0:0:0:
323,149,49564,6,0,P|331:101|265:55,1,128.249996575356,12|0,0:1|0:0,0:0:0:0:
263,60,49925,1,2,0:1:0:0:
171,147,50106,1,0,0:0:0:0:
0,8,50287,2,0,B|47:15|47:15|91:52|91:52|146:61,1,153.000002918243,0|2,1:2|0:1,0:0:0:0:
79,134,50829,2,0,P|85:186|77:313,1,153.000002918243
258,301,51371,1,10,0:1:0:0:
180,249,51552,1,0,0:0:0:0:
1,356,51732,2,0,B|16:314|16:314|98:337,1,114.750002188683,0|0,1:0|0:0,0:0:0:0:
102,356,52094,2,0,P|137:360|174:316,1,76.5000014591217,2|0,0:1|0:0,0:0:0:0:
429,189,52455,6,0,B|399:166|399:166|343:167|343:167|359:220|310:249,1,170.999995433807,8|2,0:1|0:1,0:0:0:0:
398,281,52997,1,0,0:0:0:0:
203,256,53178,2,0,B|220:262|220:262|256:295|256:295|294:303,1,85.4999977169037,0|0,1:2|0:0,0:0:0:0:
321,63,53540,1,2,0:1:0:0:
265,4,53720,2,0,P|218:22|201:158,1,170.999995433807,0|8,0:0|0:1,0:0:0:0:
325,237,54262,1,10,0:1:0:0:
325,237,54624,2,0,P|286:229|203:211,1,116.999994644165,0|2,1:0|0:1,0:0:0:0:
339,241,55347,6,0,B|299:198|340:97|410:120,1,170.999995433807,8|2,0:1|0:1,0:0:0:0:
419,295,55889,1,0,0:0:0:0:
227,316,56070,2,0,B|255:310|255:310|326:337|326:337|355:329,1,128.249996575356,0|0,1:2|0:0,0:0:0:0:
349,351,56431,2,0,P|342:294|403:192,1,153.000002918243,2|0,0:1|0:0,0:0:0:0:
474,119,56973,1,0,0:0:0:0:
357,79,57154,2,0,P|312:90|273:94,1,76.5000014591217,10|0,0:1|0:0,0:0:0:0:
50,253,57515,6,0,P|29:223|73:172,1,114.750002188683,0|0,1:0|0:0,0:0:0:0:
84,174,57877,1,2,0:1:0:0:
158,214,58058,1,0,0:0:0:0:
317,346,58238,6,0,B|311:326|311:326|326:299|326:299|294:153,1,170.999995433807,8|2,0:1|0:1,0:0:0:0:
288,163,58781,1,0,0:0:0:0:
440,108,58961,1,0,1:0:0:0:
501,227,59142,2,0,P|472:237|450:241,1,42.7499988584519,0|0,0:0|0:0,0:0:0:0:
400,300,59323,2,0,B|361:188|498:226|436:99,1,213.749994292259,2|0,0:1|0:0,0:0:0:0:
430,88,59865,1,8,0:1:0:0:
329,149,60046,1,2,0:1:0:0:
430,88,60226,1,8,0:1:0:0:
238,41,60407,5,0,1:0:0:0:
320,63,60588,2,0,B|306:53|306:53|244:75|244:75|233:132|161:145,1,170.999995433807
112,171,61130,6,0,P|76:138|128:70,1,135,2|0,0:0|0:0,0:0:0:0:
235,235,62214,2,0,B|262:241|262:241|302:274|301:268|331:280,1,90,0|2,0:0|0:0,0:0:0:0:
329,267,63118,1,0,0:0:0:0:
407,203,63660,1,0,0:0:0:0:
329,128,64022,6,0,B|273:109|283:134|217:111,1,112.5,2|0,0:0|0:0,0:0:0:0:
205,99,64564,2,0,P|213:152|214:241,1,135,0|2,0:0|0:0,0:0:0:0:
91,312,65467,2,0,B|127:307|127:307|189:321|189:321|235:316,1,135
394,284,66913,6,0,B|454:258|454:258|376:264,2,135,2|0|0,0:0|0:0|0:0,0:0:0:0:
309,267,68359,2,0,B|226:255|262:314|167:292,1,135,2|0,0:0|0:0,0:0:0:0:
165,290,68901,2,0,P|157:258|176:116,1,161.999995056153,0|2,0:0|0:0,0:0:0:0:
178,121,69805,1,0,0:0:0:0:
338,220,70528,2,0,B|379:228|379:228|476:192|408:92,1,202.500007724762,0|2,0:0|0:0,0:0:0:0:
256,192,71160,12,0,72154,0:0:0:0:
284,37,72335,6,0,P|287:54|290:79,1,33.7500012874604,2|0,0:3|0:0,0:0:0:0:
303,51,72515,2,0,P|305:73|303:101,1,33.7500012874604,2|0,0:3|0:0,0:0:0:0:
160,192,72696,6,0,B|74:217|74:217|21:186|46:148,1,161.999995056153,14|0,0:1|0:0,0:0:0:0:
272,224,73238,1,0,0:0:0:0:
140,88,73419,6,0,P|196:76|232:133,1,121.499996292114,2|0,1:0|0:0,0:0:0:0:
272,224,73781,2,0,L|252:321,1,80.9999975280763,8|0,0:1|0:0,0:0:0:0:
404,160,74142,2,0,L|471:140,2,40.4999987640381,2|8|4,0:1|0:3|0:3,0:0:0:0:
308,140,74503,5,0,0:0:0:0:
464,312,74684,2,0,P|441:285|371:293,1,80.9999975280763,8|2,0:3|1:0,0:0:0:0:
32,220,75226,5,8,0:1:0:0:
154,168,75407,1,8,0:1:0:0:
78,28,75588,2,0,B|74:94|37:77|35:151,1,121.499996292114,10|0,0:1|0:0,0:0:0:0:
36,140,75949,2,0,L|122:159,1,80.9999975280763
245,337,76311,2,0,B|260:300|260:300|252:253,1,80.9999975280763,2|0,1:0|0:0,0:0:0:0:
497,138,76672,2,0,P|448:123|391:211,1,161.999995056153,8|2,0:1|0:1,0:0:0:0:
389,201,77214,1,0,0:0:0:0:
265,128,77395,2,0,P|224:123|185:105,1,80.9999975280763,8|0,0:1|0:0,0:0:0:0:
126,61,77666,1,8,0:3:0:0:
117,53,77756,5,2,1:0:0:0:
270,118,77937,2,0,B|210:139|210:139|165:186|218:255,1,161.999995056153,8|0,0:1|0:0,0:0:0:0:
20,320,78479,6,0,B|85:309|96:393|186:351,1,161.999995056153,10|0,0:1|0:0,0:0:0:0:
340,252,79022,2,0,L|444:234,1,80.9999975280763,0|2,0:0|1:0,0:0:0:0:
429,245,79473,5,4,0:3:0:0:
429,245,79564,2,0,P|446:282|409:346,1,80.9999975280763,8|0,0:1|0:0,0:0:0:0:
240,212,79925,2,0,B|228:156|228:156|312:120,1,121.499996292114,2|0,0:1|0:0,0:0:0:0:
296,122,80287,2,0,L|279:18,1,80.9999975280763
112,248,80648,2,0,P|62:266|27:192,1,121.499996292114,2|0,1:0|0:0,0:0:0:0:
64,144,81009,5,8,0:1:0:0:
41,51,81190,1,8,0:1:0:0:
280,28,81371,5,10,0:1:0:0:
208,276,81732,2,0,P|213:236|242:210,1,80.9999975280763
396,104,82094,5,2,1:0:0:0:
208,276,82455,2,0,P|168:270|142:241,1,80.9999975280763,8|0,0:1|0:0,0:0:0:0:
32,88,82817,5,2,0:1:0:0:
164,136,82997,2,0,L|212:124,2,40.4999987640381,4|8|8,0:3|0:3|0:1,0:0:0:0:
24,292,83359,2,0,L|4:348,2,40.4999987640381,4|8|2,0:3|0:3|1:0,0:0:0:0:
392,280,83720,5,8,0:1:0:0:
236,144,83901,2,0,L|243:198,1,50.6250019311906,8|0,0:3|0:0,0:0:0:0:
165,249,84262,6,0,B|226:238|226:238|253:243|253:243|333:229,1,161.999995056153,14|0,0:1|0:0,0:0:0:0:
324,230,84805,1,0,0:0:0:0:
492,68,84985,2,0,P|439:46|420:118,1,121.499996292114,2|0,1:0|0:0,0:0:0:0:
476,168,85347,5,8,0:1:0:0:
334,343,85528,2,0,B|312:344|275:359|275:359|223:324|249:268,1,161.999995056153,8|0,0:3|0:0,0:0:0:0:
132,136,86070,2,0,L|34:110,1,80.9999975280763,4|0,0:3|0:0,0:0:0:0:
280,184,86431,5,2,1:0:0:0:
164,244,86612,1,0,0:0:0:0:
312,104,86793,5,8,0:1:0:0:
464,152,86973,1,8,0:1:0:0:
312,104,87154,2,0,P|288:68|304:16,1,80.9999975280763,10|0,0:1|0:0,0:0:0:0:
144,228,87515,2,0,L|46:259,1,80.9999975280763,4|0,0:3|0:0,0:0:0:0:
66,252,87787,1,8,0:3:0:0:
66,252,87877,2,0,B|137:234|123:278|204:255,1,121.499996292114,2|0,1:0|0:0,0:0:0:0:
283,207,88238,5,8,0:1:0:0:
88,76,88419,2,0,B|64:112|64:112|76:160,1,80.9999975280763,4|2,0:3|0:1,0:0:0:0:
216,72,88781,2,0,L|288:56,2,40.4999987640381,4|8|8,0:3|0:3|0:1,0:0:0:0:
36,352,89323,5,2,1:0:0:0:
200,288,89503,1,8,0:1:0:0:
120,204,89684,5,0,0:0:0:0:
24,156,89865,1,0,0:0:0:0:
184,44,90046,6,0,B|248:28|248:28|284:96,1,121.499996292114,10|0,0:1|0:0,0:0:0:0:
263,97,90407,2,0,L|354:112,1,80.9999975280763,4|0,0:3|0:0,0:0:0:0:
422,124,90678,1,8,0:3:0:0:
433,127,90769,1,2,1:0:0:0:
288,232,90949,1,0,0:0:0:0:
498,334,91130,5,8,0:1:0:0:
380,201,91311,2,0,P|372:237|368:297,1,80.9999975280763,0|2,0:0|0:1,0:0:0:0:
256,360,91672,2,0,L|188:380,2,40.4999987640381,4|8|4,0:3|0:3|0:3,0:0:0:0:
472,248,92034,5,8,0:3:0:0:
472,248,92124,1,4,0:3:0:0:
472,248,92214,1,2,1:0:0:0:
304,184,92395,1,0,0:0:0:0:
236,236,92576,5,8,0:1:0:0:
120,288,92756,1,8,0:1:0:0:
4,216,92937,2,0,P|0:156|88:108,1,161.999995056153,10|0,0:1|0:0,0:0:0:0:
396,316,93660,6,0,P|353:319|320:297,1,80.9999975280763,2|0,1:0|0:0,0:0:0:0:
152,128,94022,2,0,P|109:124|76:146,1,80.9999975280763,8|0,0:1|0:0,0:0:0:0:
16,192,94293,1,8,0:3:0:0:
12,200,94383,5,2,1:0:0:0:
236,128,94564,1,0,1:0:0:0:
128,208,94744,2,0,B|176:216|176:216|200:240|200:240|252:248,1,121.499996292114,8|0,0:1|0:0,0:0:0:0:
328,292,95106,5,2,1:0:0:0:
468,184,95287,2,0,L|400:200,1,62.9999980773926,8|0,0:1|0:0,0:0:0:0:
156,232,95648,6,0,L|100:220,1,45,4|2,0:3|0:0,0:0:0:0:
99,220,96009,5,0,0:0:0:0:
156,262,96190,1,0,0:0:0:0:
224,254,96371,1,0,0:0:0:0:
304,180,96552,5,2,0:0:0:0:
370,142,96732,1,0,0:0:0:0:
436,182,96913,1,0,0:0:0:0:
428,340,97094,5,2,0:0:0:0:
352,280,97275,1,0,0:0:0:0:
456,320,97455,1,0,0:0:0:0:
288,324,97636,5,2,0:0:0:0:
168,360,97817,1,0,0:0:0:0:
288,324,97997,6,0,B|240:318|240:318|236:320|236:320|166:313,1,110.249996635437,0|0,0:0|0:0,0:0:0:0:
78,323,98720,6,0,B|70:253|127:255|111:177,1,153.000002918243,12|2,0:1|0:1,0:0:0:0:
32,21,99262,1,0,0:0:0:0:
106,170,99443,2,0,B|116:115|100:145|114:79,1,76.5000014591217,0|0,1:0|0:0,0:0:0:0:
214,199,99805,5,2,0:1:0:0:
380,154,99985,2,0,P|346:107|261:128,1,153.000002918243,0|0,0:0|0:0,0:0:0:0:
386,248,100528,6,0,P|423:247|450:220,1,76.5000014591217,10|0,0:1|0:0,0:0:0:0:
499,0,100889,2,0,B|485:32|485:32|502:85|502:85|487:128,1,114.750002188683,0|0,1:0|0:0,0:0:0:0:
490,115,101250,1,2,0:1:0:0:
372,28,101431,1,0,0:0:0:0:
263,126,101612,6,0,B|184:114|192:173|102:145,1,153.000002918243,8|2,0:1|0:1,0:0:0:0:
268,257,102154,1,0,0:0:0:0:
109,145,102335,2,0,B|169:135|169:135|222:160|203:203|183:221,1,153.000002918243,0|2,1:0|0:1,0:0:0:0:
28,374,102877,6,0,B|32:352|32:352|32:338|32:338|41:292,1,76.5000014591217,0|0,0:0|0:0,0:0:0:0:
148,370,103238,1,8,0:1:0:0:
284,263,103419,2,0,P|221:238|186:313,1,153.000002918243,10|0,0:1|1:0,0:0:0:0:
310,341,103961,1,0,0:0:0:0:
419,223,104142,2,0,P|454:221|488:246,1,76.5000014591217,2|0,0:1|0:0,0:0:0:0:
318,154,104503,6,0,B|287:131|281:76|324:46|324:46|371:58,1,153.000002918243,8|2,0:1|0:1,0:0:0:0:
512,163,105046,1,0,0:0:0:0:
354,60,105226,2,0,B|433:47|430:108|509:71,1,153.000002918243,0|2,1:0|0:1,0:0:0:0:
364,182,105769,6,0,L|346:278,1,76.5000014591217
452,233,106130,1,0,0:0:0:0:
289,352,106311,2,0,P|328:301|412:323,1,153.000002918243,10|0,0:1|1:0,0:0:0:0:
247,249,106853,1,0,0:0:0:0:
129,327,107034,2,0,P|71:333|36:286,1,114.750002188683,2|0,0:1|0:0,0:0:0:0:
113,238,107395,6,0,B|206:224|206:224|217:290,1,153.000002918243,8|2,0:1|0:1,0:0:0:0:
424,309,107937,2,0,B|410:363|428:337|413:406,1,76.5000014591217,0|0,0:0|1:0,0:0:0:0:
356,262,108299,1,0,0:0:0:0:
494,142,108479,2,0,P|426:124|417:205,1,153.000002918243,2|0,0:1|0:0,0:0:0:0:
494,152,109022,5,8,0:1:0:0:
385,49,109202,1,2,0:1:0:0:
307,12,109383,5,8,0:1:0:0:
204,84,109564,1,0,1:0:0:0:
153,159,109744,5,0,0:0:0:0:
39,216,109925,2,0,B|60:145,1,62.9999980773926,2|0,0:1|0:0,0:0:0:0:
161,291,110287,6,0,B|85:287|96:341|4:321,1,153.000002918243,12|2,0:1|0:1,0:0:0:0:
161,291,110829,1,0,0:0:0:0:
273,362,111009,2,0,P|357:376|394:325,1,153.000002918243,0|2,1:0|0:1,0:0:0:0:
310,168,111552,2,0,P|287:200|291:244,1,76.5000014591217,0|0,0:0|0:0,0:0:0:0:
396,176,111913,1,0,0:0:0:0:
276,15,112094,6,0,B|234:33|234:33|349:58,1,153.000002918243,10|0,0:1|1:0,0:0:0:0:
482,127,112636,1,0,0:0:0:0:
345,61,112817,2,0,B|367:57|367:57|378:58|378:58|435:49,1,76.5000014591217,2|0,0:1|0:0,0:0:0:0:
452,257,113178,6,0,B|412:269|412:269|368:247|369:198|403:168,1,153.000002918243,8|2,0:1|0:1,0:0:0:0:
501,327,113720,1,0,0:0:0:0:
397,168,113901,2,0,P|442:162|477:184,1,76.5000014591217,0|0,1:0|0:0,0:0:0:0:
352,318,114262,1,2,0:1:0:0:
238,215,114443,6,0,B|160:204|164:262|71:235,1,153.000002918243,0|8,0:0|0:1,0:0:0:0:
228,121,114985,2,0,P|256:116|300:143,1,76.5000014591217,10|0,0:1|0:0,0:0:0:0:
445,47,115347,5,0,1:0:0:0:
301,146,115528,1,0,0:0:0:0:
433,137,115708,5,2,0:1:0:0:
346,64,115889,1,0,0:0:0:0:
244,243,116070,6,0,P|288:259|370:176,1,153.000002918243,8|2,0:1|0:1,0:0:0:0:
284,340,116612,1,0,0:0:0:0:
137,218,116793,2,0,B|141:281|108:266|111:344,1,114.750002188683,0|0,1:0|0:0,0:0:0:0:
114,336,117154,1,2,0:1:0:0:
95,142,117335,6,0,B|129:123|129:123|170:139,1,76.5000014591217
274,215,117696,1,0,0:0:0:0:
359,138,117877,2,0,B|265:158|265:158|274:215,1,153.000002918243,10|0,0:1|1:0,0:0:0:0:
173,340,118419,1,0,0:0:0:0:
269,222,118600,2,0,L|251:300,1,76.5000014591217,2|0,0:1|0:0,0:0:0:0:
455,366,118961,6,0,P|463:321|377:293,1,153.000002918243,8|2,0:1|0:1,0:0:0:0:
474,108,119503,2,0,P|498:144|491:187,1,76.5000014591217,0|0,0:0|1:0,0:0:0:0:
397,137,119865,1,0,0:0:0:0:
497,0,120046,6,0,B|419:-3|432:56|336:35,1,153.000002918243,2|0,0:1|0:0,0:0:0:0:
212,135,120588,1,8,0:1:0:0:
346,40,120769,2,0,L|255:26,1,76.5000014591217,10|0,0:1|0:0,0:0:0:0:
188,8,121040,1,8,0:3:0:0:
177,6,121130,5,0,1:0:0:0:
313,137,121311,1,0,0:0:0:0:
121,158,121491,6,0,P|160:119|214:137,1,114.750002188683,2|0,0:1|0:0,0:0:0:0:
184,211,121853,6,0,B|147:209|147:209|132:215|132:215|56:209,1,125.999996154785,14|0,0:1|0:0,0:0:0:0:
146,325,122395,2,0,B|176:315|176:315|208:324,1,62.9999980773926,2|8,0:0|0:1,0:0:0:0:
469,191,122937,6,0,L|455:260,1,62.9999980773926
378,362,123299,2,0,B|345:334|348:259|417:242|417:242|455:267,1,188.999994232178,10|2,0:1|0:0,0:0:0:0:
461,340,124022,1,8,0:1:0:0:
255,224,124383,6,0,B|240:222|240:222|224:225|224:225|179:218,1,62.9999980773926
172,312,124744,2,0,B|189:212|106:235|136:132,1,188.999994232178,10|2,0:1|0:0,0:0:0:0:
102,57,125467,2,0,P|155:40|204:94,1,125.999996154785,8|0,0:1|0:0,0:0:0:0:
384,212,126190,6,0,P|437:229|486:175,1,125.999996154785,10|0,0:1|0:0,0:0:0:0:
320,158,126732,2,0,P|303:185|303:220,1,62.9999980773926,2|8,0:0|0:1,0:0:0:0:
493,6,127275,6,0,L|427:14,1,62.9999980773926
328,77,127636,2,0,B|264:70|270:120|181:98,1,125.999996154785,10|0,0:1|0:0,0:0:0:0:
98,202,128178,1,2,0:0:0:0:
199,110,128359,2,0,L|183:245,1,125.999996154785,8|0,0:1|0:0,0:0:0:0:
0,363,129082,6,0,P|73:373|108:334,1,125.999996154785,10|0,0:1|0:0,0:0:0:0:
184,235,129624,2,0,P|257:225|292:264,1,125.999996154785,2|0,0:0|0:0,0:0:0:0:
385,357,130166,2,0,B|432:354|432:354|451:358|451:358|525:354,1,125.999996154785,0|2,0:0|0:0,0:0:0:0:
512,363,131250,6,0,B|449:352|449:352|411:310|433:258|475:243,1,188.999994232178,0|2,0:0|0:0,0:0:0:0:
256,192,131883,12,0,132877,0:0:0:0:
253,370,133058,6,0,P|256:353|259:328,1,33.7500012874604,2|0,0:3|0:0,0:0:0:0:
272,356,133238,2,0,P|274:334|272:306,1,33.7500012874604,2|0,0:3|0:0,0:0:0:0:
432,197,133419,6,0,B|329:171|383:248|246:191,1,170.999995433807,14|0,0:1|0:0,0:0:0:0:
259,185,133961,1,0,0:0:0:0:
93,335,134142,2,0,P|107:288|114:230,1,85.4999977169037,2|0,1:0|0:0,0:0:0:0:
227,47,134503,5,8,0:1:0:0:
121,89,134684,2,0,P|184:125|310:104,1,170.999995433807,4|0,0:3|0:0,0:0:0:0:
357,72,135226,5,0,0:0:0:0:
453,160,135407,1,0,0:0:0:0:
500,62,135588,5,2,1:0:0:0:
338,166,135769,1,0,0:0:0:0:
401,247,135949,2,0,B|424:252|424:252|453:278|453:278|494:289,1,85.4999977169037,8|8,0:1|0:1,0:0:0:0:
190,206,136311,6,0,B|165:210|165:210|103:259|170:310,1,128.249996575356,10|0,0:1|0:0,0:0:0:0:
164,302,136672,2,0,P|197:305|283:318,1,85.4999977169037,4|0,0:3|0:0,0:0:0:0:
354,130,137034,1,2,1:0:0:0:
209,12,137214,1,0,0:0:0:0:
280,240,137395,2,0,B|311:141|217:176|268:67,1,170.999995433807,8|2,0:1|0:1,0:0:0:0:
317,14,137937,1,0,0:0:0:0:
402,68,138118,1,8,0:1:0:0:
488,17,138299,1,4,0:3:0:0:
512,271,138479,5,2,1:0:0:0:
443,158,138660,2,0,B|403:162|403:162|343:212|343:212|285:216,1,170.999995433807,8|4,0:1|0:3,0:0:0:0:
214,175,139112,1,8,0:3:0:0:
214,175,139202,2,0,P|173:169|121:150,1,85.4999977169037,10|0,0:1|0:0,0:0:0:0:
262,308,139564,5,0,0:0:0:0:
385,219,139744,1,0,0:0:0:0:
323,68,139925,2,0,P|307:93|314:198,1,128.249996575356,2|0,1:0|0:0,0:0:0:0:
290,215,140287,2,0,B|388:210|340:282|468:260,1,170.999995433807,8|2,0:1|0:1,0:0:0:0:
420,156,140829,1,0,0:0:0:0:
499,106,141009,2,0,P|514:72|498:-5,1,85.4999977169037,8|0,0:3|0:0,0:0:0:0:
246,96,141371,6,0,P|264:139|265:208,1,85.4999977169037,2|0,1:0|0:0,0:0:0:0:
348,305,141732,1,8,0:1:0:0:
200,230,141913,1,8,0:1:0:0:
27,363,142094,1,10,0:1:0:0:
27,363,142455,2,0,P|43:331|20:269,1,85.4999977169037,8|0,0:3|0:0,0:0:0:0:
12,117,142817,6,0,B|40:121|40:121|69:137|69:137|101:144,1,85.4999977169037,2|0,1:0|0:0,0:0:0:0:
255,57,143178,1,8,0:1:0:0:
204,284,143359,2,0,B|200:263|200:263|216:236|216:236|195:96,1,170.999995433807,4|0,0:3|0:0,0:0:0:0:
302,263,143901,2,0,P|296:291|289:313,2,42.7499988584519,8|8|4,0:1|0:3|0:3,0:0:0:0:
323,32,144262,1,2,1:0:0:0:
510,172,144443,1,8,0:1:0:0:
222,197,144624,2,0,P|266:191|282:185,1,50.6250019311906,8|0,0:3|0:0,0:0:0:0:
293,168,144985,6,0,B|333:141|382:181|382:181|394:198|394:198|435:239|504:200,1,213.749994292259,14|0,0:1|0:0,0:0:0:0:
510,172,145528,1,0,0:0:0:0:
250,73,145708,2,0,B|191:40|191:40|151:91,1,128.249996575356,2|0,1:0|0:0,0:0:0:0:
96,41,146070,2,0,P|107:104|116:245,1,170.999995433807,8|2,0:1|0:1,0:0:0:0:
66,374,146612,1,0,0:0:0:0:
0,317,146793,1,8,0:3:0:0:
85,288,146973,1,4,0:3:0:0:
277,314,147154,6,0,B|321:323|321:323|354:349|413:359|424:331,1,128.249996575356,2|0,1:0|0:0,0:0:0:0:
426,330,147515,1,8,0:1:0:0:
507,201,147696,1,8,0:1:0:0:
406,91,147877,2,0,P|385:130|416:216,1,128.249996575356,10|0,0:1|0:0,0:0:0:0:
420,217,148238,2,0,B|390:216|390:216|355:224|355:224|309:216,1,85.4999977169037,8|0,0:3|0:0,0:0:0:0:
132,132,148600,2,0,B|84:117|84:117|145:115,1,94.499997116089,2|0,1:0|0:0,0:0:0:0:
272,84,148961,2,0,B|308:183|213:154|266:277,1,170.999995433807,8|2,0:1|0:1,0:0:0:0:
272,337,149503,1,0,0:0:0:0:
363,288,149684,1,8,0:1:0:0:
272,337,149865,1,0,0:0:0:0:
78,211,150046,5,2,1:0:0:0:
69,314,150226,2,0,P|106:305|157:296,1,85.4999977169037,8|0,0:1|0:0,0:0:0:0:
62,324,150588,1,0,0:0:0:0:
223,146,150769,2,0,B|240:195|240:195|228:229|228:229|246:279,1,128.249996575356,10|0,0:1|0:0,0:0:0:0:
248,284,151130,2,0,P|288:291|347:297,1,85.4999977169037,8|0,0:3|0:0,0:0:0:0:
462,58,151491,6,0,P|413:44|379:124,1,141.749995674133,2|0,1:0|0:0,0:0:0:0:
385,134,151853,1,8,0:1:0:0:
478,189,152034,2,0,P|412:175|283:144,1,170.999995433807,4|0,0:3|0:0,0:0:0:0:
268,160,152485,1,8,0:3:0:0:
257,157,152576,1,8,0:3:0:0:
110,217,152756,1,4,0:3:0:0:
36,100,152937,5,2,1:0:0:0:
163,141,153118,1,0,0:0:0:0:
248,330,153299,5,8,0:1:0:0:
454,244,153479,1,8,0:1:0:0:
258,219,153660,6,0,B|133:186|192:277|39:234,1,213.749994292259,10|0,0:1|0:0,0:0:0:0:
34,228,154202,1,0,0:0:0:0:
266,234,154383,2,0,P|306:243|363:257,1,85.4999977169037,2|0,1:0|0:0,0:0:0:0:
457,298,154744,1,8,0:1:0:0:
253,138,154925,1,8,0:3:0:0:
253,138,155287,1,0,1:0:0:0:
420,68,155467,1,8,0:1:0:0:
256,14,155648,1,0,0:0:0:0:
335,384,155829,5,6,1:0:0:0:
116,285,156009,1,8,0:1:0:0:
184,80,156190,1,0,1:0:0:0:
401,178,156370,1,0,1:0:0:0:
224,292,156552,6,0,B|234:232|234:232|278:212|278:212|289:148,1,170.999995433807,14|0,0:1|0:0,0:0:0:0:
140,15,157094,1,4,0:3:0:0:
140,15,157184,1,4,0:3:0:0:
140,15,157275,2,0,L|55:34,1,85.4999977169037,2|0,1:0|0:0,0:0:0:0:
246,144,157636,5,8,0:1:0:0:
312,244,157817,2,0,B|390:237|366:324|483:296,1,170.999995433807,8|0,0:3|0:0,0:0:0:0:
246,144,158359,2,0,P|190:136|156:200,1,128.249996575356,4|0,0:3|0:0,0:0:0:0:
84,260,158720,2,0,L|-4:280,1,85.4999977169037,2|0,1:0|0:0,0:0:0:0:
0,278,158991,1,8,0:3:0:0:
0,278,159082,5,8,0:1:0:0:
164,368,159262,1,8,0:1:0:0:
356,268,159443,2,0,P|362:217|295:190,1,128.249996575356,10|0,0:1|0:0,0:0:0:0:
284,192,159805,6,0,L|268:256,1,42.7499988584519,4|0,0:3|0:0,0:0:0:0:
412,140,159985,2,0,L|476:124,1,42.7499988584519,8|0,0:3|0:0,0:0:0:0:
308,40,160166,2,0,L|192:4,1,85.4999977169037,2|0,1:0|0:0,0:0:0:0:
428,112,160528,5,8,0:1:0:0:
264,212,160708,2,0,B|204:224|204:224|198:227|198:227|136:240,1,128.249996575356,4|0,0:3|0:0,0:0:0:0:
122,244,161070,2,0,P|103:201|128:154,1,85.4999977169037,0|8,0:0|0:1,0:0:0:0:
472,264,161612,5,2,1:0:0:0:
328,360,161793,1,8,0:1:0:0:
448,336,161973,5,0,0:0:0:0:
340,284,162154,1,0,0:0:0:0:
400,64,162335,6,0,B|404:104|404:104|440:136|440:136|452:208,1,128.249996575356,10|0,0:1|0:0,0:0:0:0:
446,175,162696,2,0,L|350:191,1,85.4999977169037,8|0,0:3|0:0,0:0:0:0:
56,112,163058,2,0,B|141:97|141:97|169:149,1,128.249996575356,2|0,1:0|0:0,0:0:0:0:
100,192,163419,5,8,0:1:0:0:
184,276,163600,2,0,P|225:275|257:232,1,85.4999977169037,4|2,0:3|0:1,0:0:0:0:
156,348,163961,5,0,0:0:0:0:
384,224,164142,2,0,P|425:225|457:268,1,85.4999977169037,4|0,0:3|0:0,0:0:0:0:
453,255,164413,1,8,0:3:0:0:
453,255,164503,5,2,1:0:0:0:
436,136,164684,1,4,0:3:0:0:
320,160,164865,5,8,0:1:0:0:
512,200,165046,1,8,0:1:0:0:
308,296,165226,6,0,B|276:300|236:312|236:312|176:272|236:204,1,170.999995433807,10|0,0:1|0:0,0:0:0:0:
308,296,165769,1,0,0:0:0:0:
148,368,165949,2,0,P|104:360|76:328,1,85.4999977169037,2|0,1:0|0:0,0:0:0:0:
304,180,166311,5,8,0:1:0:0:
440,252,166491,2,0,P|484:244|496:160,1,128.249996575356,8|0,0:3|0:0,0:0:0:0:
491,163,166853,2,0,B|459:154|459:154|440:143|440:143|397:132,1,85.4999977169037,4|8,0:3|0:1,0:0:0:0:
104,56,167214,5,4,0:3:0:0:
96,59,167305,1,4,0:3:0:0:
88,62,167395,1,2,1:0:0:0:
208,120,167576,1,8,0:1:0:0:
320,168,167756,5,8,0:3:0:0:
92,236,167937,1,4,0:3:0:0:
332,352,168118,6,0,B|408:384|488:336|452:264|396:288,1,170.999995433807,14|0,0:1|0:0,0:0:0:0:
200,196,168660,2,0,L|183:322,1,85.4999977169037,0|2,0:0|1:0,0:0:0:0:
198,287,169112,5,8,0:3:0:0:
198,287,169202,2,0,L|277:277,1,42.7499988584519,8|0,0:1|0:0,0:0:0:0:
408,200,169383,2,0,L|501:215,1,85.4999977169037,4|2,0:3|0:1,0:0:0:0:
492,213,169744,5,0,0:0:0:0:
304,84,169925,2,0,B|262:75|262:75|224:100,1,85.4999977169037,4|0,0:3|0:0,0:0:0:0:
160,188,170196,1,8,0:3:0:0:
160,188,170287,2,0,B|92:196|92:196|84:200|84:200|0:212,1,128.249996575356,2|0,1:0|0:0,0:0:0:0:
16,208,170648,5,8,0:1:0:0:
176,288,170829,1,8,0:1:0:0:
344,176,171009,2,0,P|392:144|516:152,1,170.999995433807,14|0,0:1|0:0,0:0:0:0:
364,200,171552,5,0,0:0:0:0:
200,120,171732,2,0,P|176:96|172:40,1,85.4999977169037,2|0,1:0|0:0,0:0:0:0:
288,128,172094,5,8,0:1:0:0:
160,264,172275,2,0,L|144:320,2,42.7499988584519,0|0|2,0:0|0:0|0:1,0:0:0:0:
36,124,172636,2,0,B|52:164|52:164|40:216,1,85.4999977169037,0|8,0:0|0:1,0:0:0:0:
262,376,173178,5,2,1:0:0:0:
298,217,173359,1,8,0:1:0:0:
224,184,173540,5,0,0:0:0:0:
212,88,173720,1,0,0:0:0:0:
412,20,173901,6,0,P|460:4|496:76,1,128.249996575356,14|0,0:1|0:0,0:0:0:0:
416,128,174262,2,0,B|377:133|377:133|372:136|372:136|315:146,1,85.4999977169037,8|0,0:3|0:0,0:0:0:0:
32,240,174624,6,0,B|80:232|83:289|162:273,1,128.249996575356,2|0,1:0|0:0,0:0:0:0:
136,196,174985,1,8,0:1:0:0:
312,112,175166,2,0,P|296:72|244:60,1,85.4999977169037,4|2,0:3|0:1,0:0:0:0:
180,76,175528,5,0,0:0:0:0:
344,260,175708,2,0,P|384:244|396:192,1,85.4999977169037,4|0,0:3|0:0,0:0:0:0:
384,184,175979,1,8,0:3:0:0:
384,184,176070,1,2,1:0:0:0:
248,232,176250,1,0,0:0:0:0:
344,260,176431,5,8,0:1:0:0:
500,328,176612,1,8,0:1:0:0:
256,352,176793,6,0,B|148:344|202:377|78:360,1,170.999995433807,10|0,0:1|0:0,0:0:0:0:
176,280,177335,1,0,0:0:0:0:
36,128,177515,2,0,L|128:144,1,85.4999977169037,2|0,1:0|0:0,0:0:0:0:
8,208,177877,5,8,0:1:0:0:
224,80,178058,2,0,B|276:72|276:72|284:68|284:68|360:56,1,128.249996575356,4|0,0:3|0:0,0:0:0:0:
428,40,178419,2,0,P|452:80|420:144,1,85.4999977169037,0|8,1:0|0:1,0:0:0:0:
132,328,178961,5,2,1:0:0:0:
256,188,179142,5,8,0:3:0:0:
384,196,179323,5,4,0:3:0:0:
448,252,179503,5,8,0:1:0:0:
216,300,179684,6,0,L|50:279,1,153.000002918243,12|2,0:1|0:1,0:0:0:0:
199,380,180226,1,0,0:0:0:0:
293,242,180407,2,0,P|313:269|310:317,1,76.5000014591217,0|0,1:0|0:0,0:0:0:0:
129,235,180769,2,0,P|120:178|205:159,1,153.000002918243,2|0,0:1|0:0,0:0:0:0:
388,27,181311,5,0,0:0:0:0:
317,152,181491,2,0,B|324:106|312:121|326:64,1,76.5000014591217,10|0,0:1|0:0,0:0:0:0:
445,208,181853,1,0,1:0:0:0:
445,208,182214,1,2,0:1:0:0:
497,296,182395,1,0,0:0:0:0:
384,360,182576,6,0,B|330:354|330:354|310:358|310:358|217:347,1,153.000002918243,8|2,0:1|0:1,0:0:0:0:
156,367,183118,1,0,0:0:0:0:
26,186,183299,2,0,B|16:252|50:237|44:302,1,114.750002188683,0|0,1:0|0:0,0:0:0:0:
41,302,183660,2,0,L|131:286,1,76.5000014591217,2|0,0:1|0:0,0:0:0:0:
238,174,184022,5,0,0:0:0:0:
359,278,184202,1,8,0:1:0:0:
463,140,184383,2,0,P|400:122|365:204,1,153.000002918243,10|0,0:1|1:0,0:0:0:0:
463,140,184925,1,0,0:0:0:0:
363,19,185106,5,2,0:1:0:0:
249,109,185287,1,0,0:0:0:0:
157,174,185467,6,0,L|184:17,1,153.000002918243,8|2,0:1|0:1,0:0:0:0:
238,191,186009,1,0,0:0:0:0:
89,328,186190,2,0,B|147:340|147:340|184:327|199:291|174:256,1,153.000002918243,0|2,1:0|0:1,0:0:0:0:
4,348,186732,1,0,0:0:0:0:
174,256,186913,6,0,P|136:238|93:247,1,76.5000014591217,0|0,0:0|0:0,0:0:0:0:
244,367,187275,2,0,B|323:352|321:405|403:377,1,153.000002918243,10|0,0:1|1:0,0:0:0:0:
343,127,187997,5,2,0:1:0:0:
451,248,188178,1,0,0:0:0:0:
343,127,188359,2,0,B|347:160|347:160|344:177|344:177|358:298,1,153.000002918243,8|2,0:1|0:1,0:0:0:0:
430,138,188901,1,0,0:0:0:0:
297,38,189082,2,0,B|230:27|245:56|167:40,1,114.750002188683,0|0,1:0|0:0,0:0:0:0:
177,48,189443,1,2,0:1:0:0:
283,206,189624,6,0,B|252:184|252:184|198:198,1,76.5000014591217,0|0,0:0|0:0,0:0:0:0:
316,306,189985,1,8,0:1:0:0:
208,193,190166,1,2,0:1:0:0:
93,313,190347,2,0,P|135:317|176:286,1,76.5000014591217,8|0,0:1|1:0,0:0:0:0:
290,163,190708,1,0,0:0:0:0:
387,189,190889,5,2,0:1:0:0:
226,92,191070,1,0,0:0:0:0:
146,5,191250,6,0,L|123:152,1,125.999996154785,2|2,0:0|0:0,0:0:0:0:
16,226,191793,1,0,0:0:0:0:
121,287,191973,2,0,B|62:285|62:324|-13:307,1,125.999996154785,2|0,0:0|0:0,0:0:0:0:
121,287,192515,1,0,0:0:0:0:
234,371,192696,6,0,P|272:370|306:344,1,62.9999980773926,2|0,0:0|0:0,0:0:0:0:
195,245,193058,2,0,P|176:205|94:212,1,125.999996154785,2|0,0:0|0:0,0:0:0:0:
95,202,193781,1,2,0:0:0:0:
200,121,193961,1,0,0:0:0:0:
81,33,194142,6,0,L|234:7,1,125.999996154785,2|0,0:0|0:0,0:0:0:0:
326,85,194684,1,0,0:0:0:0:
424,68,194865,2,0,B|351:43|351:43|318:97,1,125.999996154785,2|0,0:0|0:0,0:0:0:0:
442,195,195407,2,0,L|462:269,1,62.9999980773926,2|0,0:0|0:0,0:0:0:0:
312,289,195769,1,2,0:0:0:0:
307,292,196130,5,0,0:0:0:0:
409,357,196311,2,0,B|346:353|346:389|278:372,1,125.999996154785,2|0,0:0|0:0,0:0:0:0:
146,295,196853,1,2,0:0:0:0:
0,384,197034,6,0,L|129:369,1,125.999996154785,2|2,0:0|0:0,0:0:0:0:
238,284,197576,1,0,0:0:0:0:
202,209,197756,2,0,P|247:191|305:240,1,125.999996154785,2|0,0:0|0:0,0:0:0:0:
202,209,198299,1,0,0:0:0:0:
88,136,198479,6,0,P|53:138|22:167,1,62.9999980773926,2|0,0:0|0:0,0:0:0:0:
54,351,198841,2,0,B|58:289|94:307|92:220,1,125.999996154785,2|0,0:0|0:0,0:0:0:0:
296,364,199564,5,2,0:0:0:0:
434,311,199744,1,0,0:0:0:0:
352,244,199925,6,0,L|223:225,1,125.999996154785,2|0,0:0|0:0,0:0:0:0:
221,229,200467,1,0,0:0:0:0:
145,162,200648,2,0,P|124:197|129:239,1,62.9999980773926,2|0,0:0|0:0,0:0:0:0:
312,133,201009,2,0,P|277:112|235:117,1,62.9999980773926,2|0,0:0|0:0,0:0:0:0:
48,0,201371,6,0,B|115:-4|111:36|186:19,1,125.999996154785,2|0,0:0|0:0,0:0:0:0:
312,133,201913,2,0,L|298:61,1,62.9999980773926,2|0,0:0|0:0,0:0:0:0:
303,64,202275,5,0,0:0:0:0:
373,41,202455,1,2,0:0:0:0:
433,85,202636,1,0,0:0:0:0:
256,192,202726,12,0,204624,0:0:0:0:
165,6,204805,5,8,0:1:0:0:
80,44,204985,5,0,1:0:0:0:
251,184,205166,1,8,0:1:0:0:
88,304,205347,6,0,L|103:241,1,54,2|0,0:3|0:0,0:0:0:0:
16,247,205708,6,0,B|98:248|76:325|182:303,1,170.999995433807,14|0,0:1|0:0,0:0:0:0:
307,235,206250,1,0,0:0:0:0:
453,330,206431,2,0,B|440:297|440:297|463:247|463:247|447:193,1,128.249996575356,2|0,1:0|0:0,0:0:0:0:
452,210,206793,2,0,L|472:124,1,85.4999977169037,8|0,0:1|0:0,0:0:0:0:
348,8,207154,5,2,0:1:0:0:
479,121,207335,2,0,L|468:74,2,42.7499988584519,4|8|4,0:3|0:3|0:3,0:0:0:0:
348,188,207696,1,0,0:0:0:0:
181,89,207877,2,0,P|236:73|281:125,1,128.249996575356,2|0,1:0|0:0,0:0:0:0:
205,177,208238,5,8,0:1:0:0:
294,331,208419,1,8,0:1:0:0:
137,240,208600,6,0,B|130:308|96:288|90:366,1,128.249996575356,10|0,0:1|0:0,0:0:0:0:
85,364,208961,2,0,P|40:364|7:322,1,85.4999977169037,4|0,0:3|0:0,0:0:0:0:
220,257,209323,2,0,P|251:229|292:230,1,85.4999977169037,2|0,1:0|0:0,0:0:0:0:
417,337,209684,2,0,B|407:382|343:404|304:369|304:369|295:338,1,170.999995433807,8|2,0:1|0:1,0:0:0:0:
487,180,210226,5,0,0:0:0:0:
419,329,210407,2,0,B|410:282|424:292|414:232,1,85.4999977169037,8|4,0:1|0:3,0:0:0:0:
391,159,210678,1,8,0:3:0:0:
389,150,210769,5,2,1:0:0:0:
295,339,210949,2,0,B|207:340|224:401|126:381,1,170.999995433807,8|0,0:1|0:0,0:0:0:0:
292,199,211491,6,0,P|360:175|415:247,1,170.999995433807,10|0,0:1|0:0,0:0:0:0:
219,127,212034,2,0,P|189:161|192:207,1,85.4999977169037,8|2,0:3|1:0,0:0:0:0:
195,208,212485,5,8,0:3:0:0:
195,208,212576,2,0,L|108:231,1,85.4999977169037,8|0,0:1|0:0,0:0:0:0:
0,8,212937,2,0,P|66:-5|99:47,1,128.249996575356,2|0,0:1|0:0,0:0:0:0:
100,46,213299,2,0,B|88:99|104:82|92:152,1,85.4999977169037,4|0,0:3|0:0,0:0:0:0:
257,296,213660,2,0,P|315:311|355:265,1,128.249996575356,2|0,1:0|0:0,0:0:0:0:
285,210,214022,5,8,0:1:0:0:
141,275,214202,1,8,0:1:0:0:
2,372,214383,6,0,B|17:299|52:327|64:230,1,128.249996575356,10|0,0:1|0:0,0:0:0:0:
55,250,214744,1,8,0:3:0:0:
186,369,214925,1,0,0:0:0:0:
373,245,215106,2,0,P|313:218|250:304,1,170.999995433807,2|8,1:0|0:1,0:0:0:0:
450,173,215648,6,0,P|479:211|475:254,1,85.4999977169037,4|2,0:3|0:1,0:0:0:0:
335,372,216009,1,0,0:0:0:0:
409,345,216190,2,0,P|371:374|328:370,1,85.4999977169037,8|4,0:1|0:3,0:0:0:0:
253,343,216461,1,8,0:3:0:0:
245,337,216552,5,2,1:0:0:0:
79,245,216732,1,8,0:1:0:0:
3,379,216913,5,0,1:0:0:0:
219,251,217094,1,0,1:0:0:0:
30,140,217275,6,0,B|-5:177|1:234|42:254|42:254|85:243,1,170.999995433807,14|0,0:1|0:0,0:0:0:0:
78,244,217817,1,0,0:0:0:0:
240,96,217997,2,0,P|303:88|340:137,1,128.249996575356,2|0,1:0|0:0,0:0:0:0:
268,177,218359,1,8,0:1:0:0:
381,353,218540,6,0,B|406:353|443:368|443:368|495:333|468:274,1,170.999995433807,8|0,0:3|0:0,0:0:0:0:
277,304,219082,2,0,P|249:348|256:384,1,85.4999977169037,4|0,0:3|0:0,0:0:0:0:
422,180,219443,2,0,B|430:109|465:127|465:41,1,128.249996575356,2|0,1:0|0:0,0:0:0:0:
461,51,219805,1,8,0:1:0:0:
323,148,219985,1,8,0:1:0:0:
125,30,220166,6,0,P|207:15|254:80,1,170.999995433807,10|0,0:1|0:0,0:0:0:0:
260,88,220799,1,8,0:3:0:0:
260,88,220889,2,0,L|349:74,1,85.4999977169037,0|0,1:0|0:0,0:0:0:0:
416,274,221250,1,8,0:1:0:0:
508,172,221431,2,0,L|497:213,2,42.7499988584519,4|4|2,0:3|0:3|0:1,0:0:0:0:
327,236,221793,5,0,0:0:0:0:
503,302,221973,2,0,B|416:298|426:357|330:337,1,170.999995433807,8|2,0:1|1:0,0:0:0:0:
179,253,222515,1,8,0:1:0:0:
124,328,222696,5,8,0:3:0:0:
1,382,222877,1,4,0:3:0:0:
110,177,223058,6,0,P|165:135|222:162,1,128.249996575356,10|0,0:1|0:0,0:0:0:0:
267,211,223419,2,0,L|286:313,1,85.4999977169037,4|4,0:3|0:3,0:0:0:0:
303,375,223690,1,8,0:3:0:0:
305,382,223781,1,2,1:0:0:0:
414,196,223961,1,0,0:0:0:0:
485,384,224142,5,8,0:1:0:0:
282,295,224323,2,0,P|329:291|368:324,1,85.4999977169037,4|2,0:3|0:1,0:0:0:0:
210,378,224684,1,0,0:0:0:0:
108,230,224865,2,0,P|75:195|1:211,1,128.249996575356,8|0,0:3|0:0,0:0:0:0:
0,216,225226,2,0,B|2:270|12:251|17:308,1,85.4999977169037,2|0,1:0|0:0,0:0:0:0:
185,196,225588,5,8,0:1:0:0:
327,274,225769,1,8,0:1:0:0:
469,144,225949,6,0,P|375:132|340:205,1,170.999995433807,10|0,0:1|0:0,0:0:0:0:
205,66,226491,1,0,0:0:0:0:
46,153,226672,2,0,P|46:108|90:72,1,85.4999977169037,2|0,1:0|0:0,0:0:0:0:
156,154,227034,1,8,0:1:0:0:
0,305,227214,6,0,B|46:302|46:302|66:307|66:307|155:300,1,128.249996575356,4|0,0:3|0:0,0:0:0:0:
137,305,227576,1,0,1:0:0:0:
352,360,227756,2,0,P|354:319|317:280,1,85.4999977169037,8|4,0:1|0:3,0:0:0:0:
264,349,228028,1,8,0:3:0:0:
256,351,228118,5,2,1:0:0:0:
332,190,228299,1,0,1:0:0:0:
256,128,228479,5,0,1:0:0:0:
184,0,228660,1,0,1:0:0:0:
0,102,228841,6,0,B|41:100|41:100|59:105|59:105|138:101,1,128.249996575356,14|0,0:1|0:0,0:0:0:0:
245,137,229202,1,0,0:0:0:0:
379,67,229383,1,0,0:0:0:0:
137,113,229564,2,0,B|185:128|185:128|251:175|251:175|302:185,1,170.999995433807,2|8,1:0|0:1,0:0:0:0:
127,101,230106,1,0,0:0:0:0:
193,285,230287,5,2,0:1:0:0:
100,322,230467,1,8,0:3:0:0:
121,227,230648,1,4,0:3:0:0:
121,227,231009,2,0,P|162:235|233:244,1,85.4999977169037,2|0,1:0|0:0,0:0:0:0:
374,315,231371,6,0,P|387:280|390:251,1,47.2499985580445,8|0,0:1|0:0,0:0:0:0:
477,198,231552,2,0,P|476:164|464:136,1,47.2499985580445,8|0,0:1|0:0,0:0:0:0:
255,60,231732,2,0,B|265:84|265:84|345:98|345:98|370:62|439:55,1,188.999994232178,10|0,0:1|0:0,0:0:0:0:
321,4,232275,1,0,0:0:0:0:
230,184,232455,6,0,B|148:184|198:233|74:217,1,128.249996575356,2|0,1:0|0:0,0:0:0:0:
97,226,232817,2,0,P|94:193|77:134,1,85.4999977169037,8|0,0:1|0:0,0:0:0:0:
8,284,233178,1,2,0:1:0:0:
158,127,233359,1,8,0:3:0:0:
301,249,233540,1,8,0:1:0:0:
301,249,233901,2,0,P|328:269|390:264,1,85.4999977169037,2|8,1:0|0:1,0:0:0:0:
234,318,234262,1,8,0:3:0:0:
340,177,234443,1,4,0:3:0:0:
471,315,234624,6,0,B|478:269|478:269|482:265|482:265|498:168,1,128.249996575356,10|0,0:1|0:0,0:0:0:0:
496,153,234985,1,4,0:3:0:0:
421,94,235166,1,0,0:0:0:0:
235,165,235347,2,0,B|265:186|350:186|344:117,1,128.249996575356,2|0,1:0|0:0,0:0:0:0:
280,79,235708,2,0,B|229:71|229:71|163:97|163:97|108:86,2,170.999995433807,8|2|0,0:1|0:1|0:0,0:0:0:0:
351,26,236612,1,0,0:0:0:0:
387,247,236793,6,0,P|380:273|373:312,2,42.7499988584519,2|8|4,1:0|0:3|0:3,0:0:0:0:
470,131,237154,1,8,0:1:0:0:
293,210,237335,1,8,0:1:0:0:
111,299,237515,2,0,B|72:292|65:204|128:179|189:211|254:245|255:323,1,283.499991348267,10|4,0:1|0:3,0:0:0:0:
311,368,238148,5,8,0:3:0:0:
318,374,238238,1,2,1:0:0:0:
452,345,238419,1,8,0:3:0:0:
347,277,238600,1,8,0:1:0:0:
150,209,238781,5,4,0:3:0:0:
25,276,238961,1,2,0:1:0:0:
205,263,239142,1,0,1:0:0:0:
168,381,239323,1,4,0:3:0:0:
111,313,239503,1,8,0:3:0:0:
318,374,239684,5,2,1:0:0:0:
246,168,239865,1,8,0:3:0:0:
376,271,240046,5,4,0:3:0:0:
509,190,240226,2,0,P|483:187|451:182,1,47.2499985580445,8|0,0:1|0:0,0:0:0:0:
394,102,240407,2,0,B|297:109|341:171|223:158,1,170.999995433807,14|0,0:1|0:0,0:0:0:0:
412,108,240949,1,0,0:0:0:0:
160,92,241130,2,0,P|148:118|161:200,1,85.4999977169037,2|0,1:0|0:0,0:0:0:0:
383,259,241491,6,0,B|342:240|342:240|293:257|293:257|275:299|221:318,1,170.999995433807,8|2,0:1|0:1,0:0:0:0:
343,341,242034,1,0,0:0:0:0:
184,261,242214,2,0,B|146:270|146:270|137:276|137:276|81:287,1,85.4999977169037,4|4,0:3|0:3,0:0:0:0:
10,255,242485,5,8,0:3:0:0:
7,247,242576,1,2,1:0:0:0:
74,174,242756,1,4,0:3:0:0:
256,112,242937,5,8,0:1:0:0:
321,255,243118,1,8,0:1:0:0:
505,245,243299,2,0,B|459:130|337:166|337:166,1,170.999995433807,10|0,0:1|0:0,0:0:0:0:
200,278,243841,5,4,0:3:0:0:
200,278,243931,1,8,0:3:0:0:
200,278,244022,2,0,P|196:226|177:143,1,128.249996575356,2|0,1:0|0:0,0:0:0:0:
171,129,244383,2,0,P|223:119|267:107,1,85.4999977169037,8|0,0:1|0:0,0:0:0:0:
395,76,244744,1,2,0:1:0:0:
192,28,244925,1,0,1:0:0:0:
285,0,245106,1,8,0:1:0:0:
192,28,245287,1,4,0:3:0:0:
85,172,245467,5,2,1:0:0:0:
1,143,245648,1,8,0:1:0:0:
54,73,245829,1,8,0:3:0:0:
136,101,246009,1,4,0:3:0:0:
214,249,246190,6,0,B|318:232|270:297|396:275,1,170.999995433807,14|0,0:1|0:0,0:0:0:0:
427,201,246732,1,0,0:0:0:0:
264,46,246913,1,2,1:0:0:0:
264,46,247275,2,0,B|272:81|272:81|276:88|276:88|285:138,1,85.4999977169037,8|0,0:1|0:0,0:0:0:0:
182,13,247636,1,2,0:1:0:0:
153,199,247817,2,0,P|118:228|54:234,1,85.4999977169037,4|0,0:3|0:0,0:0:0:0:
116,97,248178,1,0,0:0:0:0:
5,272,248359,2,0,B|39:276|39:276|92:302|92:302|152:309,1,128.249996575356,2|0,1:0|0:0,0:0:0:0:
236,365,248720,6,0,P|254:335|259:302,1,47.2499985580445,8|0,0:1|0:0,0:0:0:0:
390,239,248901,2,0,P|383:206|363:176,1,47.2499985580445,8|0,0:1|0:0,0:0:0:0:
281,59,249082,2,0,B|218:38|218:38|189:122,1,141.749995674133,10|0,0:1|0:0,0:0:0:0:
181,132,249443,2,0,B|212:137|212:137|248:155|248:155|292:161,1,85.4999977169037,4|0,0:3|0:0,0:0:0:0:
441,107,249805,1,2,1:0:0:0:
306,237,249985,1,4,0:3:0:0:
167,215,250166,2,0,P|178:255|183:319,1,85.4999977169037,8|0,0:1|0:0,0:0:0:0:
129,375,250528,5,2,0:1:0:0:
310,251,250708,1,0,1:0:0:0:
82,269,250889,2,0,P|42:258|-20:268,1,85.4999977169037,8|0,0:1|0:0,0:0:0:0:
115,60,251250,5,4,1:0:0:0:
294,151,251431,1,0,1:0:0:0:
512,82,251612,5,0,1:0:0:0:
383,199,251793,1,0,1:0:0:0:
256,192,251973,12,0,256311,0:0:0:0:
