osu file format v14

[General]
AudioFilename: Hands Up to the Sky.mp3
AudioLeadIn: 0
PreviewTime: 23959
Countdown: 0
SampleSet: Soft
StackLeniency: 0.7
Mode: 0
LetterboxInBreaks: 0
WidescreenStoryboard: 1

[Editor]
DistanceSpacing: 0.6
BeatDivisor: 8
GridSize: 4
TimelineZoom: 1.2

[Metadata]
Title:Hands Up to the Sky (TV Size)
TitleUnicode:Hands Up to the Sky (TV Size)
Artist:SawanoHiroyuki[nZk]:Laco
ArtistUnicode:SawanoHiroyuki[nZk]:Laco
Creator:Lafayla
Version:Hard
Source:86―エイティシックス―
Tags:86 eighty six sparhten japanese pop jpop ending ed 3 10th Single insert J-Pop anime
BeatmapID:3011632
BeatmapSetID:1466007

[Difficulty]
HPDrainRate:4.7
CircleSize:3.6
OverallDifficulty:6.7
ApproachRate:8
SliderMultiplier:2.6
SliderTickRate:1

[Events]
//Background and Video events
0,0,"Lena.jpg",0,0
//Break Periods
//Storyboard Layer 0 (Background)
//Storyboard Layer 1 (Fail)
//Storyboard Layer 2 (Pass)
//Storyboard Layer 3 (Foreground)
//Storyboard Layer 4 (Overlay)
//Storyboard Sound Samples

[TimingPoints]
5286,612.244897959184,4,2,1,40,1,0
5286,-111.111111111111,4,2,1,40,0,0
15081,-181.818181818181,4,2,1,35,0,0
19520,-142.857142857143,4,2,1,35,0,0
19979,-133.333333333333,4,2,1,35,0,0
21204,-133.333333333333,4,2,1,35,0,0
23959,-100,4,2,1,65,0,0
24877,-90.9090909090909,4,2,1,70,0,1
34673,-90.9090909090909,4,2,1,70,0,1
44469,-100,4,2,1,60,0,0
54265,-100,4,2,1,65,0,1
54418,-100,4,2,1,65,0,0
59163,-100,4,2,1,65,0,1
59316,-100,4,2,1,65,0,0
64061,-111.111111111111,4,2,1,55,0,1
64214,-111.111111111111,4,2,1,55,0,0
73857,-111.111111111111,4,2,1,50,0,1
74010,-111.111111111111,4,2,1,50,0,0
83041,-111.111111111111,4,2,1,50,0,0

[Colours]
Combo1 : 53,159,223
Combo2 : 243,171,231
Combo3 : 243,33,33
Combo4 : 199,157,244

[HitObjects]
0,110,5286,6,0,L|121:125,1,116.999996429443,2|0,3:2|0:0,0:0:0:0:
195,68,5745,2,0,L|252:76,1,58.4999982147217,2|8,0:0|1:3,0:0:0:0:
311,159,6051,2,0,P|309:219|265:261,1,116.999996429443,2|0,0:0|0:0,0:0:0:0:
180,288,6510,6,0,P|137:280|91:275,2,87.7499973220826,2|0|0,3:2|0:0|0:0,0:0:0:0:
230,373,7122,1,8,1:3:0:0:
315,342,7275,2,0,P|352:333|397:329,1,58.4999982147217,2|0,0:0|0:0,0:0:0:0:
472,362,7581,1,2,0:0:0:0:
472,362,7734,6,0,P|474:304|488:238,1,116.999996429443,0|0,3:0|0:0,0:0:0:0:
415,166,8194,2,0,P|425:108|428:50,2,116.999996429443,2|2|0,0:0|0:0|0:0,0:0:0:0:
330,224,8959,6,0,L|244:241,2,87.7499973220826,2|0|0,3:2|0:0|0:0,0:0:0:0:
315,130,9571,1,8,1:3:0:0:
315,130,9724,2,0,L|238:146,1,58.4999982147217,2|0,0:0|0:0,0:0:0:0:
168,90,10030,1,2,0:0:0:0:
79,117,10183,6,0,P|33:187|63:266,1,175.499994644165,0|2,3:0|0:0,0:0:0:0:
159,299,10796,2,0,P|209:284|279:275,1,116.999996429443,8|2,1:3|0:0,0:0:0:0:
273,274,11255,1,2,0:0:0:0:
325,194,11408,6,0,L|309:124,1,58.4999982147217,2|0,3:2|0:0,0:0:0:0:
217,131,11714,2,0,L|201:61,1,58.4999982147217,2|0,0:0|0:0,0:0:0:0:
260,1,12020,2,0,P|314:18|396:-3,1,116.999996429443,8|0,1:3|0:0,0:0:0:0:
475,29,12479,1,0,0:0:0:0:
475,29,12632,6,0,P|492:61|497:93,1,58.4999982147217,2|0,3:2|0:0,0:0:0:0:
428,154,12939,2,0,P|413:179|405:207,1,58.4999982147217,2|0,0:0|0:0,0:0:0:0:
391,294,13245,2,0,P|440:264|496:274,1,116.999996429443,8|0,1:3|0:0,0:0:0:0:
313,367,13857,2,0,B|211:388|247:321|134:344,1,175.499994644165,0|0,3:0|0:0,0:0:0:0:
57,292,14469,2,0,P|37:330|0:351,2,87.7499973220826,8|0|0,1:3|0:0|0:0,0:0:0:0:
60,190,15081,5,2,0:0:0:0:
129,121,17530,1,0,0:0:0:0:
129,121,18296,2,0,B|212:134|212:134|242:169|242:169|332:186,1,214.500006546021,2|0,0:0|0:0,0:0:0:0:
389,120,19367,1,0,0:0:0:0:
389,120,19520,1,2,0:0:0:0:
483,241,19826,1,2,0:0:0:0:
483,241,19979,6,0,L|455:384,1,146.250005578995,2|0,0:0|0:0,0:0:0:0:
357,368,20592,2,0,L|384:224,1,146.250005578995,2|0,0:0|0:0,0:0:0:0:
330,142,21204,2,0,P|278:137|235:163,1,97.50000371933,2|0,0:0|0:0,0:0:0:0:
215,254,21663,2,0,P|163:258|120:232,1,97.50000371933
57,171,22122,1,2,0:0:0:0:
256,192,22428,12,0,23347,0:0:0:0:
57,171,23959,6,0,P|111:202|126:263,2,130,2|2|2,0:0|0:0|0:0,0:0:0:0:
224,220,24877,6,0,P|304:196|386:202,1,143.000004364014,6|0,3:2|0:0,0:0:0:0:
362,197,25336,1,0,0:0:0:0:
408,112,25490,2,0,P|416:77|421:41,1,71.5000021820069,10|0,3:2|0:0,0:0:0:0:
511,115,25796,2,0,P|506:150|498:185,1,71.5000021820069
442,275,26102,2,0,P|486:284|513:306,2,71.5000021820069,0|0|2,3:0|0:0|0:0,0:0:0:0:
352,240,26561,1,0,0:0:0:0:
352,240,26714,2,0,P|280:262|245:324,1,143.000004364014,8|0,3:2|0:0,0:0:0:0:
162,380,27173,1,2,0:0:0:0:
139,278,27326,6,0,L|128:207,1,71.5000021820069,2|0,3:2|0:0,0:0:0:0:
25,210,27632,2,0,L|14:139,1,71.5000021820069,2|0,0:0|0:0,0:0:0:0:
132,77,27939,2,0,P|83:27|15:31,1,143.000004364014,8|0,3:2|0:0,0:0:0:0:
214,144,28551,2,0,P|281:129|315:69,1,143.000004364014,2|0,3:2|0:0,0:0:0:0:
315,67,29010,1,0,0:0:0:0:
416,64,29163,2,0,P|451:66|486:75,1,71.5000021820069,10|0,3:2|0:0,0:0:0:0:
512,183,29469,1,2,0:0:0:0:
512,183,29622,6,0,P|449:210|373:220,1,143.000004364014,2|0,0:0|0:0,0:0:0:0:
291,283,30081,2,0,P|220:292|154:320,2,143.000004364014,2|10|2,0:0|3:2|0:0,0:0:0:0:
291,283,30847,1,0,0:0:0:0:
280,181,31000,2,0,L|262:20,1,143.000004364014,2|0,3:2|0:0,0:0:0:0:
161,20,31459,1,0,0:0:0:0:
161,20,31612,2,0,L|176:162,1,143.000004364014,10|2,3:2|0:0,0:0:0:0:
70,163,32071,6,0,P|34:171|2:195,1,71.5000021820069,2|0,0:0|3:0,0:0:0:0:
0,290,32377,1,0,0:0:0:0:
99,298,32530,2,0,P|133:288|167:264,1,71.5000021820069,2|0,0:0|0:0,0:0:0:0:
308,252,32836,2,0,P|257:299|256:369,1,143.000004364014,10|0,3:2|0:0,0:0:0:0:
256,369,33296,1,0,0:0:0:0:
357,347,33449,2,0,B|439:331|419:384|509:364,1,143.000004364014,2|0,3:2|0:0,0:0:0:0:
421,130,34061,2,0,P|406:96|402:55,1,71.5000021820069,10|0,3:2|3:0,0:0:0:0:
512,82,34367,1,2,3:2:0:0:
512,82,34520,1,0,3:0:0:0:
511,188,34673,6,0,P|446:236|379:226,1,143.000004364014,6|0,3:2|0:0,0:0:0:0:
306,292,35132,1,0,0:0:0:0:
260,203,35285,2,0,P|206:156|136:158,1,143.000004364014,10|0,3:2|0:0,0:0:0:0:
92,69,35745,1,0,0:0:0:0:
92,69,35898,2,0,L|76:-4,1,71.5000021820069,0|0,3:0|0:0,0:0:0:0:
0,118,36204,2,0,L|14:187,1,71.5000021820069,2|0,0:0|0:0,0:0:0:0:
91,272,36510,2,0,P|18:296|6:377,1,143.000004364014,8|0,3:2|0:0,0:0:0:0:
0,353,36969,1,2,0:0:0:0:
113,382,37122,6,0,P|182:366|252:356,1,143.000004364014,2|2,3:2|0:0,0:0:0:0:
463,248,37734,2,0,P|392:262|322:272,1,143.000004364014,10|0,3:2|0:0,0:0:0:0:
241,218,38194,1,0,0:0:0:0:
241,218,38347,2,0,P|231:186|248:140,1,71.5000021820069,0|0,3:0|0:0,0:0:0:0:
335,107,38653,2,0,P|327:74|289:42,1,71.5000021820069
178,71,38959,2,0,B|97:87|117:34|27:54,1,143.000004364014,10|2,3:2|0:0,0:0:0:0:
1,159,39418,6,0,P|48:213|115:209,1,143.000004364014,2|0,0:0|0:0,0:0:0:0:
157,308,39877,2,0,L|167:402,1,71.5000021820069,2|0,0:0|0:0,0:0:0:0:
257,302,40183,2,0,L|241:159,1,143.000004364014,10|2,3:2|0:0,0:0:0:0:
390,0,40796,2,0,L|375:142,1,143.000004364014,2|0,3:2|0:0,0:0:0:0:
374,142,41255,1,0,0:0:0:0:
445,226,41408,2,0,P|476:242|511:246,1,71.5000021820069,10|0,3:2|0:0,0:0:0:0:
454,343,41714,1,2,0:0:0:0:
356,310,41867,6,0,P|285:292|214:295,1,143.000004364014,2|0,0:0|0:0,0:0:0:0:
260,189,42326,2,0,P|289:168|324:160,1,71.5000021820069,2|0,0:0|0:0,0:0:0:0:
421,142,42632,2,0,P|470:93|470:23,2,143.000004364014,10|2|2,3:2|0:0|3:2,0:0:0:0:
370,50,43398,1,0,0:0:0:0:
370,50,43551,2,0,L|286:28,1,71.5000021820069
227,103,43857,2,0,L|143:125,1,71.5000021820069,10|0,3:2|3:0,0:0:0:0:
84,55,44163,1,2,3:2:0:0:
84,55,44316,1,0,3:0:0:0:
18,133,44469,6,0,P|34:195|88:251,1,130,6|0,3:2|0:0,0:0:0:0:
165,267,44928,1,0,0:0:0:0:
246,212,45081,2,0,P|288:260|304:322,1,130,8|0,1:3|0:0,0:0:0:0:
217,378,45541,1,0,0:0:0:0:
217,378,45694,2,0,B|106:404|140:325|29:352,1,195,2|0,3:2|0:0,0:0:0:0:
0,258,46306,6,0,P|5:219|46:174,1,65,8|0,1:3|0:0,0:0:0:0:
78,102,46612,2,0,P|105:157|167:174,1,130,2|0,0:0|3:0,0:0:0:0:
167,173,47071,1,0,0:0:0:0:
216,89,47224,2,0,L|225:14,1,65,2|0,0:0|0:0,0:0:0:0:
310,121,47530,2,0,L|292:249,1,130,8|0,1:3|0:0,0:0:0:0:
372,320,47990,1,0,0:0:0:0:
372,320,48143,6,0,P|435:314|487:352,2,130,2|2|8,3:2|0:0|1:3,0:0:0:0:
112,296,49061,2,0,P|163:333|226:327,1,130,2|0,0:0|3:0,0:0:0:0:
295,253,49520,1,0,0:0:0:0:
295,253,49673,2,0,P|298:220|278:185,1,65,2|0,0:0|0:0,0:0:0:0:
188,172,49979,2,0,P|147:127|181:52,1,130,8|0,1:3|0:0,0:0:0:0:
246,17,50439,1,0,0:0:0:0:
333,66,50592,2,0,B|407:81|407:81|442:123|442:123|517:139,1,195,2|0,3:2|0:0,0:0:0:0:
470,233,51204,6,0,P|465:265|471:296,1,65,8|0,1:3|0:0,0:0:0:0:
385,366,51510,2,0,P|371:336|367:304,1,65,2|0,0:0|0:0,0:0:0:0:
326,192,51816,2,0,P|276:236|210:223,1,130,2|0,3:2|0:0,0:0:0:0:
67,62,52428,2,0,P|117:18|183:31,1,130,8|0,1:3|0:0,0:0:0:0:
175,26,52888,1,0,0:0:0:0:
150,128,53041,6,0,P|140:163|116:190,1,65,2|0,3:2|0:0,0:0:0:0:
27,202,53347,2,0,P|7:227|0:259,1,65,2|0,0:0|0:0,0:0:0:0:
51,349,53653,1,8,1:3:0:0:
51,349,53806,1,0,3:0:0:0:
148,321,53959,2,0,L|211:333,1,65,2|2,3:2|3:2,0:0:0:0:
255,321,54189,1,2,3:2:0:0:
255,321,54265,6,0,P|285:265|262:205,1,130,6|0,3:2|0:0,0:0:0:0:
172,151,54724,1,0,0:0:0:0:
234,74,54877,2,0,P|265:67|310:60,1,65,10|0,3:2|0:0,0:0:0:0:
385,130,55183,1,2,0:0:0:0:
385,130,55336,6,0,P|448:114|512:104,1,130,2|0,0:0|0:0,0:0:0:0:
512,215,55796,2,0,P|505:246|471:280,1,65,2|0,0:0|0:0,0:0:0:0:
420,362,56102,2,0,P|388:320|304:317,1,130,10|0,3:2|0:0,0:0:0:0:
217,375,56561,1,0,0:0:0:0:
217,375,56714,6,0,L|201:246,1,130,2|0,3:2|0:0,0:0:0:0:
200,245,57173,1,0,0:0:0:0:
282,172,57326,2,0,L|274:98,1,65,10|0,3:2|0:0,0:0:0:0:
181,73,57632,1,2,0:0:0:0:
181,73,57785,6,0,B|105:74|142:117|44:113,1,130,2|0,0:0|0:0,0:0:0:0:
1,194,58245,2,0,P|3:226|18:270,1,65,2|0,0:0|0:0,0:0:0:0:
117,212,58551,2,0,B|193:213|156:256|254:252,1,130,10|0,3:2|3:0,0:0:0:0:
323,213,59010,1,0,3:0:0:0:
399,278,59163,6,0,L|405:343,1,65,6|0,3:2|0:0,0:0:0:0:
511,358,59469,1,2,0:0:0:0:
511,358,59622,1,2,0:0:0:0:
502,255,59775,2,0,P|462:187|398:175,1,130,10|0,3:2|0:0,0:0:0:0:
337,111,60234,6,0,P|319:81|311:50,1,65,2|0,0:0|3:0,0:0:0:0:
248,151,60541,1,0,0:0:0:0:
248,151,60694,2,0,P|265:180|273:211,1,65,2|0,0:0|0:0,0:0:0:0:
238,302,61000,2,0,P|176:285|111:288,1,130,10|0,3:2|0:0,0:0:0:0:
110,288,61459,1,0,0:0:0:0:
16,346,61612,6,0,L|0:217,2,130,2|2|10,3:2|0:0|3:2,0:0:0:0:
97,171,62530,1,0,0:0:0:0:
97,171,62683,2,0,L|81:42,1,130,2|0,0:0|0:0,0:0:0:0:
163,0,63143,2,0,P|195:-1|228:14,1,65,2|0,0:0|0:0,0:0:0:0:
276,99,63449,2,0,P|308:101|341:85,1,65,10|0,3:2|3:0,0:0:0:0:
428,42,63755,1,0,1:0:0:0:
428,42,63908,1,0,1:0:0:0:
504,104,64061,6,0,P|500:164|443:207,1,116.999996429443,6|0,3:2|0:0,0:0:0:0:
432,295,64520,1,0,0:0:0:0:
432,295,64673,2,0,P|374:295|332:256,1,116.999996429443,2|0,2:2|0:0,0:0:0:0:
200,140,65285,2,0,B|101:117|123:201|23:175,1,175.499994644165,2|0,3:2|0:0,0:0:0:0:
46,276,65898,6,0,L|53:334,1,58.4999982147217,2|0,3:2|0:0,0:0:0:0:
147,289,66204,2,0,P|202:270|261:268,1,116.999996429443,2|0,0:0|3:0,0:0:0:0:
349,300,66663,1,0,0:0:0:0:
374,206,66816,2,0,L|366:147,1,58.4999982147217,2|0,0:0|0:0,0:0:0:0:
452,68,67122,2,0,L|474:248,1,175.499994644165,2|0,3:2|0:0,0:0:0:0:
456,332,67734,6,0,P|391:340|357:386,1,116.999996429443,2|0,3:2|0:0,0:0:0:0:
261,221,68347,2,0,P|265:192|279:165,1,58.4999982147217,2|0,3:2|0:0,0:0:0:0:
353,98,68653,2,0,P|327:46|271:25,1,116.999996429443,2|0,0:0|3:0,0:0:0:0:
184,61,69112,1,0,0:0:0:0:
184,61,69265,6,0,P|156:52|128:43,1,58.4999982147217,2|0,0:0|0:0,0:0:0:0:
40,118,69571,2,0,B|102:136|102:136|121:175|121:175|195:194,1,175.499994644165,2|0,3:2|0:0,0:0:0:0:
286,184,70183,2,0,P|280:155|270:127,2,58.4999982147217,2|0|0,3:2|0:0|0:0,0:0:0:0:
258,287,70643,1,0,0:0:0:0:
258,287,70796,6,0,P|231:306|194:317,1,58.4999982147217,2|0,3:2|0:0,0:0:0:0:
314,371,71102,2,0,P|337:353|364:342,1,58.4999982147217
463,338,71408,2,0,L|486:222,1,116.999996429443,2|2,3:2|0:0,0:0:0:0:
413,7,72020,2,0,L|390:121,1,116.999996429443,2|0,3:2|0:0,0:0:0:0:
328,204,72479,1,0,0:0:0:0:
243,158,72632,6,0,P|178:156|130:203,1,116.999996429443,2|0,3:2|0:0,0:0:0:0:
99,284,73092,1,0,0:0:0:0:
99,284,73245,2,0,P|164:282|212:329,1,116.999996429443,2|0,3:2|0:0,0:0:0:0:
202,312,73704,1,0,0:0:0:0:
308,318,73857,6,0,P|369:324|427:343,2,116.999996429443,6|0|0,3:2|0:0|3:0,0:0:0:0:
192,176,74775,1,2,0:0:0:0:
192,176,74928,2,0,P|130:169|72:150,1,116.999996429443,2|0,0:0|0:0,0:0:0:0:
38,67,75388,1,2,0:0:0:0:
225,74,75694,2,0,B|316:92|290:24|409:55,1,175.499994644165,2|0,3:2|0:0,0:0:0:0:
495,31,76306,6,0,L|472:169,2,116.999996429443,2|0|2,3:2|0:0|3:2,0:0:0:0:
395,206,77224,1,0,0:0:0:0:
395,206,77377,2,0,L|372:344,1,116.999996429443,2|0,0:0|0:0,0:0:0:0:
292,374,77836,2,0,P|258:364|210:354,1,58.4999982147217,2|0,0:0|0:0,0:0:0:0:
184,275,78143,2,0,P|124:258|62:249,1,116.999996429443,2|0,3:2|0:0,0:0:0:0:
2,182,78602,1,0,0:0:0:0:
2,182,78755,6,0,P|32:122|94:108,1,116.999996429443,2|0,3:2|0:0,0:0:0:0:
159,150,79214,1,0,0:0:0:0:
252,149,79367,2,0,P|301:115|311:55,1,116.999996429443,2|0,3:2|0:0,0:0:0:0:
405,0,79826,2,0,P|413:60|439:116,1,116.999996429443,2|0,0:0|0:0,0:0:0:0:
374,190,80285,2,0,P|357:222|347:250,1,58.4999982147217,2|0,0:0|0:0,0:0:0:0:
393,336,80592,2,0,P|336:275|227:286,1,175.499994644165,2|0,3:2|0:0,0:0:0:0:
163,301,81204,5,2,3:2:0:0:
245,137,81510,2,0,L|263:59,1,58.4999982147217,2|0,0:0|0:0,0:0:0:0:
168,47,81816,2,0,P|107:53|54:22,1,116.999996429443,2|0,3:2|0:0,0:0:0:0:
0,123,82275,1,0,0:0:0:0:
0,123,82428,2,0,P|59:132|102:175,1,116.999996429443,2|2,3:2|0:0,0:0:0:0:
246,285,83041,2,0,B|355:278|321:322|443:306,1,175.499994644165,2|0,3:2|0:0,0:0:0:0:
