osu file format v14

[General]
AudioFilename: Hands Up to the Sky.mp3
AudioLeadIn: 0
PreviewTime: 23959
Countdown: 0
SampleSet: Soft
StackLeniency: 0.7
Mode: 0
LetterboxInBreaks: 0
WidescreenStoryboard: 1

[Editor]
DistanceSpacing: 1
BeatDivisor: 8
GridSize: 4
TimelineZoom: 1.2

[Metadata]
Title:Hands Up to the Sky (TV Size)
TitleUnicode:Hands Up to the Sky (TV Size)
Artist:SawanoHiroyuki[nZk]:Laco
ArtistUnicode:SawanoHiroyuki[nZk]:Laco
Creator:Lafayla
Version:Easy
Source:86―エイティシックス―
Tags:86 eighty six sparhten japanese pop jpop ending ed 3 10th Single insert J-Pop anime
BeatmapID:3018053
BeatmapSetID:1466007

[Difficulty]
HPDrainRate:3.5
CircleSize:2.5
OverallDifficulty:3.5
ApproachRate:4
SliderMultiplier:1.8
SliderTickRate:1

[Events]
//Background and Video events
0,0,"Lena.jpg",0,0
//Break Periods
//Storyboard Layer 0 (Background)
//Storyboard Layer 1 (Fail)
//Storyboard Layer 2 (Pass)
//Storyboard Layer 3 (Foreground)
//Storyboard Layer 4 (Overlay)
//Storyboard Sound Samples

[TimingPoints]
5286,612.244897959184,4,2,1,40,1,0
5286,-100,4,2,1,40,0,0
15081,-100,4,2,1,35,0,0
19520,-100,4,2,1,35,0,0
19979,-100,4,2,1,35,0,0
21204,-100,4,2,1,35,0,0
23959,-100,4,2,1,65,0,0
24877,-100,4,2,1,70,0,1
34673,-100,4,2,1,70,0,1
44469,-100,4,2,1,60,0,0
54265,-100,4,2,1,65,0,1
54418,-100,4,2,1,65,0,0
59163,-100,4,2,1,65,0,1
59316,-100,4,2,1,65,0,0
64061,-100,4,2,1,55,0,1
64214,-100,4,2,1,55,0,0
73857,-100,4,2,1,50,0,1
74010,-100,4,2,1,50,0,0
83041,-100,4,2,1,50,0,0

[Colours]
Combo1 : 53,159,223
Combo2 : 243,171,231
Combo3 : 243,33,33
Combo4 : 199,157,244

[HitObjects]
105,102,5286,6,0,B|210:92|180:136|291:121,1,180,2|8,3:2|1:3,0:0:0:0:
458,91,6510,2,0,P|473:35|498:-4,2,90,2|0|8,3:2|0:0|1:3,0:0:0:0:
497,266,7734,6,0,P|458:224|329:250,1,180,0|8,3:0|1:3,0:0:0:0:
190,330,8959,2,0,P|180:286|158:246,2,90,2|0|8,3:2|0:0|1:3,0:0:0:0:
25,256,10183,6,0,P|7:179|57:86,1,180,0|8,3:0|1:3,0:0:0:0:
116,30,11102,1,2,0:0:0:0:
198,64,11408,2,0,L|208:153,1,90,2|2,3:2|0:0,0:0:0:0:
280,208,12020,2,0,L|290:297,2,90,8|0|2,1:3|0:0|3:2,0:0:0:0:
309,122,12939,1,2,0:0:0:0:
398,121,13245,2,0,P|450:135|481:170,1,90,8|0,1:3|0:0,0:0:0:0:
492,247,13857,2,0,P|458:276|414:285,1,90,0|0,3:0|0:0,0:0:0:0:
325,274,14469,1,8,1:3:0:0:
208,136,15081,5,2,0:0:0:0:
166,220,17530,1,0,0:0:0:0:
77,190,19979,1,2,0:0:0:0:
256,192,22428,12,2,23959,0:0:0:0:
55,100,24877,6,0,L|157:115,1,90,6|0,3:2|0:0,0:0:0:0:
207,177,25490,2,0,L|309:162,1,90,10|0,3:2|0:0,0:0:0:0:
354,95,26102,2,0,P|376:53|416:29,2,90,0|2|8,3:0|0:0|3:2,0:0:0:0:
465,171,27173,6,0,L|480:312,1,135,2|2,0:0|0:0,0:0:0:0:
414,368,27939,1,8,3:2:0:0:
328,339,28245,1,0,0:0:0:0:
338,249,28551,2,0,L|324:155,1,90,2|0,3:2|0:0,0:0:0:0:
365,79,29163,6,0,B|455:75|427:104|506:99,2,135,10|2|2,3:2|0:0|0:0,0:0:0:0:
290,28,30388,1,10,3:2:0:0:
219,83,30694,1,2,0:0:0:0:
274,153,31000,2,0,P|291:200|288:251,1,90,2|0,3:2|0:0,0:0:0:0:
297,329,31612,6,0,L|148:313,1,135,10|2,3:2|0:0,0:0:0:0:
64,221,32530,2,0,P|21:241|-3:280,2,90,2|10|0,0:0|3:2|0:0,0:0:0:0:
127,156,33449,2,0,P|173:158|212:184,1,90,2|0,3:2|0:0,0:0:0:0:
267,249,34061,1,10,3:2:0:0:
353,224,34367,1,2,3:2:0:0:
361,134,34673,6,0,L|347:40,1,90,6|0,3:2|0:0,0:0:0:0:
253,30,35285,2,0,L|266:123,1,90,10|0,3:2|0:0,0:0:0:0:
295,203,35898,1,0,3:0:0:0:
382,222,36204,2,0,P|428:230|479:246,2,90,2|8|0,0:0|3:2|0:0,0:0:0:0:
324,290,37122,5,2,3:2:0:0:
241,254,37428,1,2,0:0:0:0:
237,163,37734,2,0,P|229:116|192:76,1,90,10|0,3:2|0:0,0:0:0:0:
126,36,38347,2,0,P|95:72|88:118,1,90,0|0,3:0|0:0,0:0:0:0:
106,200,38959,1,10,3:2:0:0:
237,163,39418,6,0,P|305:145|381:175,1,135,2|2,0:0|0:0,0:0:0:0:
435,219,40183,1,10,3:2:0:0:
412,306,40490,1,2,0:0:0:0:
322,302,40796,2,0,L|228:316,1,90,2|0,3:2|0:0,0:0:0:0:
150,279,41408,6,0,L|0:301,2,135,10|2|2,3:2|0:0|0:0,0:0:0:0:
175,192,42632,1,10,3:2:0:0:
113,126,42939,1,2,0:0:0:0:
163,51,43245,2,0,P|206:34|253:39,1,90,2|0,3:2|0:0,0:0:0:0:
327,82,43857,1,10,3:2:0:0:
264,146,44163,1,2,3:2:0:0:
331,205,44469,6,0,B|400:213|400:213|427:249|427:249|506:258,1,180,6|8,3:2|1:3,0:0:0:0:
327,329,45694,2,0,B|257:337|257:337|231:373|231:373|152:382,1,180,2|8,3:2|1:3,0:0:0:0:
76,372,46612,2,0,P|52:317|59:274,1,90,2|0,0:0|3:0,0:0:0:0:
110,216,47224,1,2,0:0:0:0:
199,223,47530,2,0,P|221:181|218:134,1,90,8|0,1:3|0:0,0:0:0:0:
188,54,48143,6,0,L|82:63,2,90,2|2|8,3:2|0:0|1:3,0:0:0:0:
266,10,49061,2,0,P|325:79|419:73,1,180,2|2,0:0|0:0,0:0:0:0:
445,164,49979,2,0,P|399:178|361:205,1,90,8|0,1:3|0:0,0:0:0:0:
284,160,50592,2,0,P|252:195|232:238,1,90,2|0,3:2|0:0,0:0:0:0:
215,321,51204,5,8,1:3:0:0:
129,347,51510,1,2,0:0:0:0:
55,295,51816,2,0,P|41:250|60:207,1,90,2|0,3:2|0:0,0:0:0:0:
61,121,52428,2,0,B|160:112|134:147|248:135,1,180,8|2,1:3|3:2,0:0:0:0:
327,154,53347,1,2,0:0:0:0:
297,239,53653,2,0,L|316:333,1,90,8|2,1:3|3:2,0:0:0:0:
401,352,54265,6,0,P|448:356|494:366,2,90,6|0|10,3:2|0:0|3:2,0:0:0:0:
474,238,55336,2,0,P|491:171|444:105,1,135,2|2,0:0|0:0,0:0:0:0:
372,133,56102,2,0,P|325:143|278:147,1,90,10|0,3:2|0:0,0:0:0:0:
194,135,56714,5,2,3:2:0:0:
132,69,57020,1,0,0:0:0:0:
50,107,57326,2,0,B|20:194|68:170|50:248,2,135,10|2|2,3:2|0:0|0:0,0:0:0:0:
132,69,58551,2,0,P|178:71|216:99,1,90,10|0,3:2|3:0,0:0:0:0:
237,182,59163,5,6,3:2:0:0:
172,244,59469,1,2,0:0:0:0:
230,312,59775,2,0,P|299:334|370:334,1,135,10|2,3:2|0:0,0:0:0:0:
488,291,60694,1,2,0:0:0:0:
456,206,61000,2,0,B|444:100,1,90,10|0,3:2|0:0,0:0:0:0:
387,47,61612,5,2,3:2:0:0:
309,92,61918,1,2,0:0:0:0:
221,71,62224,2,0,B|169:76|169:76|149:103|149:103|91:110,2,135,10|2|2,3:2|0:0|0:0,0:0:0:0:
245,160,63449,2,0,L|230:253,1,90,10|0,3:2|1:0,0:0:0:0:
168,313,64061,6,0,P|76:321|15:252,1,180,6|2,3:2|3:2,0:0:0:0:
99,101,65285,2,0,P|190:97|247:169,1,180,2|2,3:2|3:2,0:0:0:0:
304,226,66204,6,0,L|291:323,2,90,2|0|2,0:0|3:0|0:0,0:0:0:0:
388,193,67122,2,0,L|399:98,1,90,2|0,3:2|0:0,0:0:0:0:
345,31,67734,2,0,B|231:30|271:72|155:68,1,180,2|2,3:2|3:2,0:0:0:0:
90,109,68653,6,0,P|43:111|3:147,2,90,2|0|2,0:0|3:0|0:0,0:0:0:0:
139,183,69571,2,0,P|175:212|222:215,1,90,2|0,3:2|0:0,0:0:0:0:
300,181,70183,2,0,B|368:188|368:188|395:224|395:224|473:233,1,180,2|2,3:2|3:2,0:0:0:0:
469,322,71102,1,0,0:0:0:0:
379,317,71408,6,0,L|284:305,1,90,2|2,3:2|0:0,0:0:0:0:
215,255,72020,2,0,P|178:171|84:168,1,180,2|2,3:2|3:2,0:0:0:0:
32,99,72939,1,0,0:0:0:0:
102,42,73245,2,0,P|146:26|193:31,1,90,2|0,3:2|0:0,0:0:0:0:
270,65,73857,6,0,P|279:111|317:159,1,90,6|0,3:2|0:0,0:0:0:0:
373,202,74469,2,0,P|329:257|313:326,2,135,2|2|2,3:2|0:0|0:0,0:0:0:0:
455,165,75694,6,0,P|460:67|385:40,1,180,2|2,3:2|3:2,0:0:0:0:
307,55,76612,1,0,0:0:0:0:
241,116,76918,2,0,B|94:133,2,135,2|2|2,3:2|0:0|0:0,0:0:0:0:
247,205,78143,6,0,B|144:216,1,90,2|0,3:2|0:0,0:0:0:0:
67,220,78755,1,2,3:2:0:0:
23,298,79061,1,0,0:0:0:0:
89,358,79367,2,0,P|154:366|211:332,2,135,2|2|2,3:2|0:0|0:0,0:0:0:0:
23,298,80592,6,0,P|30:206|103:149,1,180,2|2,3:2|3:2,0:0:0:0:
169,102,81510,1,0,0:0:0:0:
246,147,81816,2,0,B|279:339,1,180,2|2,3:2|3:2,0:0:0:0:
359,360,82734,1,2,0:0:0:0:
425,299,83041,1,2,3:2:0:0:
