osu file format v14

[General]
AudioFilename: audio.mp3
AudioLeadIn: 0
PreviewTime: 217964
Countdown: 0
SampleSet: Soft
StackLeniency: 0.7
Mode: 0
LetterboxInBreaks: 0
WidescreenStoryboard: 0

[Editor]
DistanceSpacing: 1.2
BeatDivisor: 4
GridSize: 4
TimelineZoom: 1.8

[Metadata]
Title:Tranquility
TitleUnicode:Tranquility
Artist:SawanoHiroyuki[nZk]:Anly
ArtistUnicode:SawanoHiroyuki[nZk]:Anly
Creator:tricolor
Version:Placidity
Source:銀河英雄伝説 Die Neue These
Tags:ginga eiyuu densetsu second season 2 the legend of the galactic heroes the new thesis stellar war part 1 shiinoha kotone kowari anime japanese full version tomadoi 星乱 第1章 j-pop pop english trollz
BeatmapID:2209324
BeatmapSetID:1057006

[Difficulty]
HPDrainRate:6
CircleSize:4
OverallDifficulty:8
ApproachRate:8
SliderMultiplier:1.8
SliderTickRate:1

[Events]
//Background and Video events
0,0,"TRANQUILITY BG.jpg",0,0
//Break Periods
//Storyboard Layer 0 (Background)
//Storyboard Layer 1 (Fail)
//Storyboard Layer 2 (Pass)
//Storyboard Layer 3 (Foreground)
//Storyboard Layer 4 (Overlay)
//Storyboard Sound Samples

[TimingPoints]
237,454.545454545455,4,2,1,45,1,0
237,-250,4,2,1,45,0,0
14782,-166.666666666667,4,2,1,50,0,0
29327,-142.857142857143,4,2,1,60,0,0
39782,-200,4,2,1,60,0,0
40237,-125,4,2,1,60,0,0
42964,-200,4,2,1,40,0,0
43873,-166.666666666667,4,2,1,40,0,0
48418,-250.000000000001,4,2,1,40,0,0
48873,-166.666666666667,4,2,1,40,0,0
49327,-166.666666666667,4,2,1,40,0,0
51146,-90.9090909090909,4,2,2,80,0,0
51259,-90.9090909090909,4,2,1,80,0,0
52509,-111.111111111111,4,2,1,80,0,0
52623,-111.111111111111,4,2,1,5,0,0
52737,-111.111111111111,4,2,1,80,0,0
52850,-111.111111111111,4,2,1,5,0,0
52964,-90.9090909090909,4,2,1,80,0,0
58418,-90.9090909090909,4,2,2,80,0,0
58532,-90.9090909090909,4,2,1,80,0,0
61600,-111.111111111111,4,2,1,80,0,0
61714,-111.111111111111,4,2,1,5,0,0
61828,-111.111111111111,4,2,1,80,0,0
61941,-111.111111111111,4,2,1,5,0,0
62055,-90.9090909090909,4,2,1,80,0,0
65691,-90.9090909090909,4,2,2,80,0,0
65805,-90.9090909090909,4,2,1,80,0,0
72509,-111.111111111111,4,2,1,80,0,0
72623,-111.111111111111,4,2,1,5,0,0
72737,-83.3333333333333,4,2,1,80,0,0
72850,-111.111111111111,4,2,1,5,0,0
72964,-90.9090909090909,4,2,2,80,0,0
73077,-90.9090909090909,4,2,1,80,0,0
73873,-111.111111111111,4,2,1,80,0,0
73987,-111.111111111111,4,2,1,5,0,0
74101,-111.111111111111,4,2,1,80,0,0
74214,-111.111111111111,4,2,1,5,0,0
74328,-90.9090909090909,4,2,1,80,0,0
78646,-125,4,2,1,69,0,0
80237,-90.9090909090909,4,2,2,80,0,0
80350,-90.9090909090909,4,2,1,80,0,0
81600,-90.9090909090908,4,2,1,80,0,0
81714,-90.9090909090908,4,2,1,5,0,0
81828,-90.9090909090908,4,2,1,80,0,0
81941,-90.9090909090908,4,2,1,5,0,0
82055,-90.9090909090909,4,2,1,80,0,0
83418,-90.9090909090908,4,2,1,80,0,0
83532,-90.9090909090908,4,2,1,5,0,0
83646,-90.9090909090908,4,2,1,80,0,0
83759,-90.9090909090908,4,2,1,5,0,0
83873,-90.9090909090909,4,2,1,80,0,0
85237,-90.9090909090908,4,2,1,80,0,0
85351,-90.9090909090908,4,2,1,5,0,0
85465,-90.9090909090908,4,2,1,80,0,0
85578,-90.9090909090908,4,2,1,5,0,0
85692,-90.9090909090909,4,2,1,80,0,0
87509,-90.9090909090909,4,2,2,80,0,0
87623,-90.9090909090909,4,2,1,80,0,0
88873,-90.9090909090908,4,2,1,80,0,0
88987,-90.9090909090908,4,2,1,5,0,0
89101,-90.9090909090908,4,2,1,80,0,0
89214,-90.9090909090908,4,2,1,5,0,0
89328,-90.9090909090909,4,2,1,80,0,0
90691,-90.9090909090908,4,2,1,80,0,0
90805,-90.9090909090908,4,2,1,5,0,0
90919,-90.9090909090908,4,2,1,80,0,0
91032,-90.9090909090908,4,2,1,5,0,0
91146,-90.9090909090909,4,2,1,80,0,0
94782,-90.9090909090909,4,2,2,80,0,0
94896,-90.9090909090909,4,2,1,80,0,0
96146,-90.9090909090908,4,2,1,80,0,0
96260,-90.9090909090908,4,2,1,5,0,0
96374,-90.9090909090908,4,2,1,80,0,0
96487,-90.9090909090908,4,2,1,5,0,0
96601,-90.9090909090909,4,2,1,80,0,0
97964,-90.9090909090908,4,2,1,80,0,0
98078,-90.9090909090908,4,2,1,5,0,0
98192,-90.9090909090908,4,2,1,80,0,0
98305,-90.9090909090908,4,2,1,5,0,0
98419,-90.9090909090909,4,2,1,80,0,0
99782,-90.9090909090908,4,2,1,80,0,0
99896,-90.9090909090908,4,2,1,5,0,0
100010,-90.9090909090908,4,2,1,80,0,0
100123,-90.9090909090908,4,2,1,5,0,0
100237,-90.9090909090909,4,2,1,80,0,0
101827,-90.9090909090909,4,2,1,80,0,0
101941,-90.9090909090909,4,2,1,5,0,0
102055,-90.9090909090909,4,2,2,80,0,0
102168,-90.9090909090909,4,2,1,80,0,0
103418,-90.9090909090908,4,2,1,80,0,0
103532,-90.9090909090908,4,2,1,5,0,0
103646,-90.9090909090908,4,2,1,80,0,0
103759,-90.9090909090908,4,2,1,5,0,0
103873,-90.9090909090909,4,2,1,80,0,0
107055,-90.9090909090908,4,2,1,80,0,0
107169,-90.9090909090908,4,2,1,5,0,0
107283,-90.9090909090908,4,2,1,80,0,0
107396,-90.9090909090908,4,2,1,5,0,0
107510,-90.9090909090909,4,2,1,80,0,0
108873,-90.9090909090908,4,2,1,80,0,0
108987,-90.9090909090908,4,2,1,5,0,0
109101,-90.9090909090908,4,2,1,80,0,0
109214,-90.9090909090908,4,2,1,5,0,0
109327,-166.666666666667,4,2,1,40,0,0
123873,-125,4,2,1,62,0,0
152964,-200,4,2,1,40,0,0
158418,-333.333333333333,4,2,1,45,0,0
160237,-125,4,2,1,80,0,0
160918,-125,4,2,1,60,0,0
183873,-166.666666666667,4,2,1,60,0,0
185691,-125,4,2,1,60,0,0
188759,-200,4,2,1,60,0,0
189043,-200,4,2,1,25,0,0
189327,-83.3333333333333,4,2,1,80,0,0
190237,-83.3333333333333,4,2,1,80,0,0
190350,-83.3333333333333,4,2,1,5,0,0
190464,-83.3333333333333,4,2,1,80,0,0
190577,-83.3333333333333,4,2,1,5,0,0
190691,-83.3333333333333,4,2,1,80,0,0
192055,-83.3333333333333,4,2,1,80,0,0
192168,-83.3333333333333,4,2,1,5,0,0
192282,-83.3333333333333,4,2,1,80,0,0
192395,-83.3333333333333,4,2,1,5,0,0
192509,-83.3333333333333,4,2,1,80,0,0
193873,-83.3333333333333,4,2,1,80,0,0
193986,-83.3333333333333,4,2,1,5,0,0
194100,-83.3333333333333,4,2,1,80,0,0
194213,-83.3333333333333,4,2,1,5,0,0
194327,-83.3333333333333,4,2,1,80,0,0
196600,-83.3333333333333,4,2,2,80,0,0
196714,-83.3333333333333,4,2,1,80,0,0
197509,-71.4285714285714,4,2,1,80,0,0
197623,-71.4285714285714,4,2,1,5,0,0
197737,-71.4285714285714,4,2,1,80,0,0
197850,-71.4285714285714,4,2,1,5,0,0
197964,-71.4285714285714,4,2,1,80,0,0
198305,-71.4285714285714,4,2,1,5,0,0
198418,-83.3333333333333,4,2,1,80,0,0
199327,-71.4285714285714,4,2,1,80,0,0
199441,-71.4285714285714,4,2,1,5,0,0
199555,-71.4285714285714,4,2,1,80,0,0
199668,-71.4285714285714,4,2,1,5,0,0
199782,-71.4285714285714,4,2,1,80,0,0
200123,-71.4285714285714,4,2,1,5,0,0
200237,-83.3333333333333,4,2,1,80,0,0
201146,-71.4285714285714,4,2,1,80,0,0
201260,-71.4285714285714,4,2,1,5,0,0
201374,-71.4285714285714,4,2,1,80,0,0
201487,-71.4285714285714,4,2,1,5,0,0
201601,-71.4285714285714,4,2,1,80,0,0
201941,-71.4285714285714,4,2,1,5,0,0
202055,-83.3333333333333,4,2,1,80,0,0
202964,-71.4285714285714,4,2,1,80,0,0
203078,-71.4285714285714,4,2,1,5,0,0
203192,-71.4285714285714,4,2,1,80,0,0
203305,-71.4285714285714,4,2,1,5,0,0
203419,-71.4285714285714,4,2,1,80,0,0
203532,-71.4285714285714,4,2,1,5,0,0
203646,-71.4285714285714,4,2,1,80,0,0
203759,-71.4285714285714,4,2,1,5,0,0
203873,-83.3333333333333,4,2,2,80,0,0
203987,-83.3333333333333,4,2,1,80,0,0
204327,-76.9230769230769,4,2,1,80,0,0
204441,-76.9230769230769,4,2,1,5,0,0
204555,-76.9230769230769,4,2,1,80,0,0
204668,-76.9230769230769,4,2,1,5,0,0
204782,-76.9230769230769,4,2,1,80,0,0
205009,-76.9230769230769,4,2,1,80,0,0
205123,-76.9230769230769,4,2,1,5,0,0
205237,-76.9230769230769,4,2,1,80,0,0
206146,-76.9230769230769,4,2,1,80,0,0
206259,-76.9230769230769,4,2,1,5,0,0
206373,-76.9230769230769,4,2,1,80,0,0
206827,-76.9230769230769,4,2,1,80,0,0
206940,-76.9230769230769,4,2,1,5,0,0
207054,-76.9230769230769,4,2,1,80,0,0
207964,-76.9230769230769,4,2,1,80,0,0
208078,-76.9230769230769,4,2,1,5,0,0
208192,-76.9230769230769,4,2,1,80,0,0
208305,-76.9230769230769,4,2,1,5,0,0
208419,-76.9230769230769,4,2,1,80,0,0
208646,-76.9230769230769,4,2,1,80,0,0
208760,-76.9230769230769,4,2,1,5,0,0
208874,-76.9230769230769,4,2,1,80,0,0
208987,-76.9230769230769,4,2,1,5,0,0
209100,-76.9230769230769,4,2,1,80,0,0
209782,-76.9230769230769,4,2,1,80,0,0
209895,-76.9230769230769,4,2,1,5,0,0
210009,-76.9230769230769,4,2,1,80,0,0
210463,-76.9230769230769,4,2,1,80,0,0
210576,-76.9230769230769,4,2,1,5,0,0
210690,-76.9230769230769,4,2,1,80,0,0
211146,-76.9230769230769,4,2,2,80,0,0
211259,-76.9230769230769,4,2,1,80,0,0
211600,-76.9230769230769,4,2,1,80,0,0
211714,-76.9230769230769,4,2,1,5,0,0
211828,-76.9230769230769,4,2,1,80,0,0
211941,-76.9230769230769,4,2,1,5,0,0
212055,-76.9230769230769,4,2,1,80,0,0
212282,-76.9230769230769,4,2,1,80,0,0
212396,-76.9230769230769,4,2,1,5,0,0
212510,-76.9230769230769,4,2,1,80,0,0
213418,-76.9230769230769,4,2,1,80,0,0
213531,-76.9230769230769,4,2,1,5,0,0
213645,-76.9230769230769,4,2,1,80,0,0
214099,-76.9230769230769,4,2,1,80,0,0
214212,-76.9230769230769,4,2,1,5,0,0
214326,-76.9230769230769,4,2,1,80,0,0
215237,-76.9230769230769,4,2,1,80,0,0
215351,-76.9230769230769,4,2,1,5,0,0
215465,-76.9230769230769,4,2,1,80,0,0
215578,-76.9230769230769,4,2,1,5,0,0
215692,-76.9230769230769,4,2,1,80,0,0
215919,-76.9230769230769,4,2,1,80,0,0
216033,-76.9230769230769,4,2,1,5,0,0
216147,-76.9230769230769,4,2,1,80,0,0
218418,-83.3333333333333,4,2,2,80,0,0
218532,-83.3333333333333,4,2,1,80,0,0
219782,-83.3333333333333,4,2,1,80,0,0
219896,-83.3333333333333,4,2,1,5,0,0
220009,-83.3333333333333,4,2,1,80,0,0
220123,-83.3333333333333,4,2,1,5,0,0
220237,-83.3333333333333,4,2,1,80,0,0
221600,-83.3333333333333,4,2,1,80,0,0
221714,-83.3333333333333,4,2,1,5,0,0
221827,-83.3333333333333,4,2,1,80,0,0
221941,-83.3333333333333,4,2,1,5,0,0
222055,-83.3333333333333,4,2,1,80,0,0
223418,-83.3333333333333,4,2,1,80,0,0
223532,-83.3333333333333,4,2,1,5,0,0
223645,-83.3333333333333,4,2,1,80,0,0
225237,-83.3333333333333,4,2,1,80,0,0
225351,-83.3333333333333,4,2,1,5,0,0
225464,-83.3333333333333,4,2,1,80,0,0
225578,-83.3333333333333,4,2,1,5,0,0
225692,-83.3333333333333,4,2,2,80,0,0
225805,-83.3333333333333,4,2,1,80,0,0
227055,-83.3333333333333,4,2,1,80,0,0
227169,-83.3333333333333,4,2,1,5,0,0
227282,-83.3333333333333,4,2,1,80,0,0
227396,-83.3333333333333,4,2,1,5,0,0
227510,-83.3333333333333,4,2,1,80,0,0
228873,-83.3333333333333,4,2,1,80,0,0
228987,-83.3333333333333,4,2,1,5,0,0
229100,-83.3333333333333,4,2,1,80,0,0
229214,-83.3333333333333,4,2,1,5,0,0
229328,-83.3333333333333,4,2,1,80,0,0
230691,-83.3333333333333,4,2,1,80,0,0
230805,-83.3333333333333,4,2,1,5,0,0
230918,-83.3333333333333,4,2,1,80,0,0
232055,-83.3333333333333,4,2,1,80,0,0
232168,-83.3333333333333,4,2,1,5,0,0
232282,-83.3333333333333,4,2,1,80,0,0
232964,-83.3333333333333,4,2,2,80,0,0
233077,-83.3333333333333,4,2,1,80,0,0
234327,-83.3333333333333,4,2,1,80,0,0
234441,-83.3333333333333,4,2,1,5,0,0
234554,-83.3333333333333,4,2,1,80,0,0
234668,-83.3333333333333,4,2,1,5,0,0
234782,-83.3333333333333,4,2,1,80,0,0
236146,-83.3333333333333,4,2,1,80,0,0
236260,-83.3333333333333,4,2,1,5,0,0
236373,-83.3333333333333,4,2,1,80,0,0
236487,-83.3333333333333,4,2,1,5,0,0
236601,-83.3333333333333,4,2,1,80,0,0
237964,-83.3333333333333,4,2,1,80,0,0
238077,-83.3333333333333,4,2,1,5,0,0
238191,-83.3333333333333,4,2,1,80,0,0
239327,-83.3333333333333,4,2,1,80,0,0
239441,-83.3333333333333,4,2,1,5,0,0
239554,-83.3333333333333,4,2,1,80,0,0
239668,-83.3333333333333,4,2,1,5,0,0
239782,-83.3333333333333,4,2,1,80,0,0
239896,-83.3333333333333,4,2,1,5,0,0
240009,-83.3333333333333,4,2,1,80,0,0
240123,-83.3333333333333,4,2,1,5,0,0
240237,-83.3333333333333,4,2,2,80,0,0
240350,-83.3333333333333,4,2,1,80,0,0
241600,-83.3333333333333,4,2,1,80,0,0
241714,-83.3333333333333,4,2,1,5,0,0
241827,-83.3333333333333,4,2,1,80,0,0
241941,-83.3333333333333,4,2,1,5,0,0
242055,-83.3333333333333,4,2,1,80,0,0
243418,-83.3333333333333,4,2,1,80,0,0
243532,-83.3333333333333,4,2,1,5,0,0
243645,-83.3333333333333,4,2,1,80,0,0
243759,-83.3333333333333,4,2,1,5,0,0
243873,-83.3333333333333,4,2,1,80,0,0
245691,-166.666666666667,4,2,1,40,0,0
247509,-83.3333333333334,4,2,2,80,0,0
247623,-83.3333333333334,4,2,1,80,0,0
248873,-83.3333333333333,4,2,1,80,0,0
248987,-83.3333333333333,4,2,1,5,0,0
249100,-83.3333333333333,4,2,1,80,0,0
249214,-83.3333333333333,4,2,1,5,0,0
249328,-83.3333333333333,4,2,1,80,0,0
250464,-83.3333333333333,4,2,1,80,0,0
250578,-83.3333333333333,4,2,1,5,0,0
250691,-83.3333333333333,4,2,1,80,0,0
250805,-83.3333333333333,4,2,1,5,0,0
250919,-83.3333333333333,4,2,1,80,0,0
251032,-83.3333333333333,4,2,1,5,0,0
251146,-83.3333333333333,4,2,1,80,0,0
252509,-83.3333333333333,4,2,1,80,0,0
252623,-83.3333333333333,4,2,1,5,0,0
252737,-83.3333333333333,4,2,1,80,0,0
252850,-83.3333333333333,4,2,1,5,0,0
252964,-83.3333333333333,4,2,1,80,0,0
254782,-83.3333333333333,4,2,2,80,0,0
254896,-83.3333333333333,4,2,1,80,0,0
256146,-83.3333333333333,4,2,1,80,0,0
256260,-83.3333333333333,4,2,1,5,0,0
256374,-83.3333333333333,4,2,1,80,0,0
256487,-83.3333333333333,4,2,1,5,0,0
256601,-83.3333333333333,4,2,1,80,0,0
257964,-83.3333333333333,4,2,1,80,0,0
258078,-83.3333333333333,4,2,1,5,0,0
258192,-83.3333333333333,4,2,1,80,0,0
258305,-83.3333333333333,4,2,1,5,0,0
258419,-83.3333333333333,4,2,1,80,0,0
259782,-83.3333333333333,4,2,1,80,0,0
259896,-83.3333333333333,4,2,1,5,0,0
260009,-83.3333333333333,4,2,1,80,0,0
261600,-83.3333333333333,4,2,1,80,0,0
261714,-83.3333333333333,4,2,1,5,0,0
261828,-83.3333333333333,4,2,1,80,0,0
261941,-83.3333333333333,4,2,1,5,0,0
262055,-83.3333333333333,4,2,2,80,0,0
262168,-83.3333333333333,4,2,1,80,0,0
263418,-83.3333333333333,4,2,1,80,0,0
263532,-83.3333333333333,4,2,1,5,0,0
263646,-83.3333333333333,4,2,1,80,0,0
263759,-83.3333333333333,4,2,1,5,0,0
263873,-83.3333333333333,4,2,1,80,0,0
265237,-83.3333333333333,4,2,1,80,0,0
265351,-83.3333333333333,4,2,1,5,0,0
265465,-83.3333333333333,4,2,1,80,0,0
265578,-83.3333333333333,4,2,1,5,0,0
265692,-83.3333333333333,4,2,1,80,0,0
266600,-83.3333333333333,4,2,1,80,0,0
266714,-83.3333333333333,4,2,1,5,0,0
266828,-83.3333333333333,4,2,1,80,0,0
266941,-83.3333333333333,4,2,1,5,0,0
267055,-83.3333333333333,4,2,1,80,0,0
269327,-83.3333333333333,4,2,2,80,0,0
269441,-83.3333333333333,4,2,1,80,0,0
270691,-83.3333333333333,4,2,1,80,0,0
270805,-83.3333333333333,4,2,1,5,0,0
270919,-83.3333333333333,4,2,1,80,0,0
271032,-83.3333333333333,4,2,1,5,0,0
271146,-83.3333333333333,4,2,1,80,0,0
272509,-83.3333333333333,4,2,1,80,0,0
272623,-83.3333333333333,4,2,1,5,0,0
272737,-83.3333333333333,4,2,1,80,0,0
272850,-83.3333333333333,4,2,1,5,0,0
272964,-83.3333333333333,4,2,2,80,0,0
273077,-83.3333333333333,4,2,1,80,0,0
274327,-83.3333333333333,4,2,1,80,0,0
274441,-83.3333333333333,4,2,1,5,0,0
274555,-83.3333333333333,4,2,1,80,0,0
275009,-71.4285714285714,4,2,1,80,0,0
275123,-71.4285714285714,4,2,1,5,0,0
275237,-100,4,2,1,80,0,0
275691,-71.4285714285714,4,2,1,80,0,0
275805,-71.4285714285714,4,2,1,5,0,0
275918,-71.4285714285714,4,2,1,80,0,0
276146,-66.6666666666667,4,2,1,80,0,0
276259,-66.6666666666667,4,2,1,5,0,0
276373,-66.6666666666667,4,2,1,80,0,0
276487,-66.6666666666667,4,2,1,5,0,0
276600,-66.6666666666667,4,2,1,80,0,0

[Colours]
Combo1 : 0,176,0
Combo2 : 128,255,255
Combo3 : 47,255,47
Combo4 : 255,210,166

[HitObjects]
46,361,237,5,2,0:2:0:0:
39,344,464,1,0,0:2:0:0:
102,288,691,5,2,0:2:0:0:
95,271,918,1,0,0:2:0:0:
21,223,1146,6,0,P|25:199|29:177,1,36,2|0,0:2|0:2,0:0:0:0:
114,150,1600,2,0,P|109:126|106:104,1,36,2|0,0:2|0:2,0:0:0:0:
191,18,2055,5,2,0:0:0:0:
208,11,2282,1,0,0:2:0:0:
275,68,2509,5,2,0:0:0:0:
292,75,2736,1,0,0:2:0:0:
192,141,2964,6,0,L|151:154,1,36,2|0,0:2|0:2,0:0:0:0:
220,212,3418,2,0,L|261:225,1,36,2|0,0:2|0:2,0:0:0:0:
372,316,3873,5,2,0:2:0:0:
367,298,4100,1,0,0:2:0:0:
429,209,4327,5,2,0:2:0:0:
424,227,4554,1,0,0:2:0:0:
322,155,4782,6,0,P|340:162|363:168,1,36,2|0,0:2|0:2,0:0:0:0:
476,99,5237,2,0,P|457:106|435:112,1,36,2|2,0:2|0:2,0:0:0:0:
364,53,5691,6,0,L|370:14,1,36,2|0,0:2|0:2,0:0:0:0:
273,111,6146,2,0,L|278:146,1,36,2|0,0:2|0:2,0:0:0:0:
252,72,6600,6,0,L|257:36,1,36,2|0,0:2|0:2,0:0:0:0:
376,164,7055,2,0,L|381:199,1,36,2|0,0:2|0:2,0:0:0:0:
460,341,7509,6,0,P|484:346|508:357,2,36,2|0|2,0:2|0:2|0:2,0:0:0:0:
336,365,8191,1,0,0:2:0:0:
336,365,8418,2,0,P|319:370|301:373,2,36,2|0|2,0:2|0:2|0:2,0:0:0:0:
460,341,9100,1,0,0:2:0:0:
394,268,9327,6,0,L|388:313,1,36,2|0,0:2|0:2,0:0:0:0:
488,365,9782,2,0,L|483:329,1,36,2|0,0:2|0:2,0:0:0:0:
317,274,10237,5,2,0:2:0:0:
300,280,10464,1,0,0:2:0:0:
224,355,10691,5,2,0:2:0:0:
207,349,10918,1,0,0:2:0:0:
22,384,11146,6,0,P|81:297|184:256,1,216,2|0,0:2|0:2,0:0:0:0:
38,229,12964,6,0,L|32:186,1,36,2|0,0:2|0:2,0:0:0:0:
132,122,13418,2,0,L|138:79,1,36,2|0,0:2|0:2,0:0:0:0:
50,25,13873,5,2,0:3:0:0:
50,25,14214,1,2,0:3:0:0:
50,25,14555,1,2,0:3:0:0:
160,140,14782,6,0,P|213:142|333:131,1,161.999995056153,2|2,0:2|0:2,0:0:0:0:
473,205,15691,2,0,P|460:177|457:142,1,53.9999983520508,2|0,0:2|0:2,0:0:0:0:
399,8,16146,2,0,P|386:36|383:71,1,53.9999983520508,2|0,0:2|0:2,0:0:0:0:
476,72,16600,6,0,P|439:77|354:163,1,161.999995056153,2|0,0:2|0:2,0:0:0:0:
439,283,17509,1,2,0:3:0:0:
439,283,17850,1,2,0:3:0:0:
439,283,18191,1,2,0:3:0:0:
512,332,18418,6,0,B|415:343|449:293|349:308,1,161.999995056153,2|2,0:2|0:2,0:0:0:0:
261,372,19327,1,2,0:2:0:0:
261,372,19782,1,2,0:2:0:0:
271,239,20009,1,2,0:2:0:0:
196,305,20237,6,0,P|148:306|84:316,1,107.999996704102,2|0,0:2|0:2,0:0:0:0:
88,315,20918,1,2,0:2:0:0:
139,207,21146,1,2,0:3:0:0:
139,207,21487,1,2,0:3:0:0:
139,207,21827,1,2,0:3:0:0:
0,384,22055,6,0,P|14:322|18:210,1,161.999995056153,2|2,0:2|0:2,0:0:0:0:
154,135,22964,2,0,P|142:113|137:80,1,53.9999983520508,0|0,0:2|0:2,0:0:0:0:
37,0,23418,2,0,P|32:26|19:50,1,53.9999983520508,2|2,0:2|0:2,0:0:0:0:
54,128,23873,6,0,P|145:128|223:32,1,215.999993408203,2|0,0:2|0:2,0:0:0:0:
221,38,25237,2,0,P|201:58|190:83,1,53.9999983520508,2|0,0:2|0:2,0:0:0:0:
245,189,25691,5,2,0:2:0:0:
245,189,26146,1,2,0:2:0:0:
67,236,26373,2,0,P|118:239|187:254,1,107.999996704102,2|0,0:2|0:2,0:0:0:0:
249,369,27055,2,0,P|241:341|239:308,1,53.9999983520508,2|0,0:2|0:2,0:0:0:0:
304,256,27509,6,0,P|352:262|406:266,1,107.999996704102,2|0,0:2|0:2,0:0:0:0:
304,256,28191,1,2,0:2:0:0:
457,363,28418,1,2,0:3:0:0:
457,363,28759,1,2,0:3:0:0:
457,363,29100,1,2,0:3:0:0:
366,361,29327,6,0,B|364:257|419:300|408:182,1,188.999994232178,2|2,3:2|0:2,0:0:0:0:
485,10,30237,2,0,P|436:15|335:110,1,188.999994232178,2|2,0:2|0:2,0:0:0:0:
407,181,31146,5,0,3:2:0:0:
234,159,31373,2,0,P|279:180|321:256,1,125.999996154785,0|2,3:2|0:2,0:0:0:0:
256,384,32055,1,2,0:3:0:0:
256,384,32396,1,2,0:3:0:0:
256,384,32737,1,2,0:3:0:0:
249,295,32964,6,0,P|168:299|49:317,1,188.999994232178,2|2,3:2|0:2,0:0:0:0:
67,319,33759,1,0,0:2:0:0:
67,319,33873,2,0,P|103:280|191:283,1,125.999996154785,0|2,0:2|0:2,0:0:0:0:
40,217,34555,1,2,0:2:0:0:
135,117,34782,5,2,3:2:0:0:
40,217,35009,2,0,P|52:147|51:84,1,125.999996154785,2|0,3:2|0:2,0:0:0:0:
0,0,35691,1,2,0:3:0:0:
0,0,36032,1,2,0:3:0:0:
129,150,36373,1,2,3:3:0:0:
51,92,36600,6,0,P|104:40|229:16,1,188.999994232178,2|2,3:2|0:2,0:0:0:0:
299,195,37509,2,0,P|290:254|279:395,1,188.999994232178,0|2,0:2|0:2,0:0:0:0:
202,349,38418,5,0,3:2:0:0:
377,255,38646,2,0,P|450:281|502:379,1,188.999994232178,0|0,3:2|0:2,0:0:0:0:
501,374,39555,1,0,0:2:0:0:
496,293,39782,2,0,L|495:237,1,45,2|0,0:2|0:2,0:0:0:0:
495,248,40123,5,0,0:2:0:0:
495,248,40237,2,0,P|434:263|349:273,1,144,2|0,3:2|0:2,0:0:0:0:
217,332,40918,2,0,P|284:337|347:393,1,144,2|0,0:2|0:2,0:0:0:0:
353,272,41600,2,0,P|347:236|347:195,1,72,2|2,0:2|0:2,0:0:0:0:
292,145,42055,5,0,3:2:0:0:
474,118,42282,2,0,P|419:103|351:43,1,144,0|0,3:2|0:2,0:0:0:0:
211,124,42964,6,0,P|205:145|202:174,1,45,2|0,0:2|0:2,0:0:0:0:
303,229,43418,2,0,P|297:208|294:179,1,45,2|2,0:2|0:2,0:0:0:0:
192,262,43873,1,2,0:2:0:0:
192,262,44327,5,2,0:2:0:0:
256,311,44555,2,0,P|302:323|353:371,1,107.999996704102,2|0,0:2|0:2,0:0:0:0:
458,384,45237,2,0,P|450:357|445:321,1,53.9999983520508,2|2,0:2|0:2,0:0:0:0:
375,259,45691,6,0,P|384:218|389:98,1,161.999995056153,0|2,0:2|0:2,0:0:0:0:
332,45,46600,5,2,0:2:0:0:
316,40,46827,1,0,0:2:0:0:
241,117,47055,5,2,0:2:0:0:
225,122,47282,1,2,0:2:0:0:
117,191,47509,6,0,P|80:174|10:58,1,161.999995056153,2|2,0:2|0:2,0:0:0:0:
156,51,48418,6,0,P|152:70|150:95,1,36,2|0,0:2|0:2,0:0:0:0:
95,207,48873,2,0,P|99:226|101:265,1,53.9999983520508,2|0,0:2|0:2,0:0:0:0:
149,378,49327,6,0,P|136:209|118:53,1,323.999990112305,2|2,0:2|0:2,0:0:0:0:
19,276,51146,5,6,3:2:0:0:
236,241,51373,2,0,B|122:250|173:179|33:193,1,198.000006042481,0|2,3:2|0:2,0:0:0:0:
307,286,52055,2,0,P|298:334|296:385,1,99.0000030212403,10|0,0:2|0:2,0:0:0:0:
492,355,52509,6,0,P|468:350|452:341,1,40.4999987640381,2|0,0:3|0:2,0:0:0:0:
398,287,52737,2,0,P|385:267|379:248,1,40.4999987640381,2|0,0:3|0:2,0:0:0:0:
479,262,52964,5,4,3:1:0:0:
294,207,53191,2,0,P|361:157|396:52,1,198.000006042481,0|0,3:2|0:2,0:0:0:0:
177,261,53873,2,0,P|224:273|267:301,1,99.0000030212403,8|2,0:2|0:2,0:0:0:0:
105,136,54327,2,0,P|63:162|15:175,1,99.0000030212403,2|2,0:2|3:2,0:0:0:0:
222,6,54782,5,4,3:1:0:0:
252,201,55009,2,0,P|231:103|221:-3,1,198.000006042481,0|0,3:2|0:2,0:0:0:0:
4,273,55691,2,0,P|13:230|16:169,1,99.0000030212403,8|0,0:2|0:2,0:0:0:0:
108,314,56146,1,2,3:2:0:0:
5,152,56373,6,0,B|125:144|82:208|196:202,1,198.000006042481,4|0,3:1|3:2,0:0:0:0:
434,261,57055,2,0,P|382:266|333:278,1,99.0000030212403,4|0,3:1|0:2,0:0:0:0:
242,128,57509,1,8,0:2:0:0:
317,102,57737,1,8,0:3:0:0:
372,157,57964,1,4,0:3:0:0:
297,183,58191,1,0,3:3:0:0:
333,22,58418,5,4,3:2:0:0:
491,152,58646,2,0,P|502:235|511:365,1,198.000006042481,0|0,3:2|0:2,0:0:0:0:
274,376,59327,2,0,P|283:329|286:271,1,99.0000030212403,8|2,0:2|0:2,0:0:0:0:
198,273,59782,5,2,0:3:0:0:
392,360,60009,1,2,0:3:0:0:
373,277,60237,5,4,3:1:0:0:
186,363,60464,2,0,B|63:367|125:299|-3:309,1,198.000006042481,0|0,3:2|0:2,0:0:0:0:
286,278,61146,2,0,P|277:228|276:176,1,99.0000030212403,8|0,0:2|0:2,0:0:0:0:
363,15,61600,6,0,P|352:34|334:52,1,40.4999987640381,2|0,0:3|0:2,0:0:0:0:
271,89,61827,2,0,P|249:94|224:94,1,40.4999987640381,2|0,0:3|0:2,0:0:0:0:
160,58,62055,5,4,3:1:0:0:
365,142,62282,2,0,P|419:171|481:299,1,198.000006042481,0|2,3:2|0:2,0:0:0:0:
252,383,62964,2,0,P|286:351|305:298,1,99.0000030212403,8|0,0:2|0:2,0:0:0:0:
238,248,63418,5,2,3:2:0:0:
356,384,63646,2,0,B|237:408|285:334|160:354,1,198.000006042481,4|0,3:1|3:2,0:0:0:0:
13,181,64327,2,0,P|22:222|31:286,1,99.0000030212403,4|0,3:1|0:2,0:0:0:0:
244,210,64782,5,8,0:2:0:0:
281,108,65009,1,8,0:3:0:0:
177,73,65237,1,8,0:3:0:0:
140,175,65464,1,4,0:3:0:0:
158,169,65577,1,4,0:3:0:0:
176,162,65691,1,4,3:2:0:0:
419,160,65918,6,0,P|357:134|291:14,1,198.000006042481,0|2,3:2|0:2,0:0:0:0:
207,284,66600,2,0,P|243:250|263:195,1,99.0000030212403,8|2,0:2|0:2,0:0:0:0:
447,353,67055,5,2,0:1:0:0:
389,255,67282,1,2,0:1:0:0:
477,273,67509,5,4,3:1:0:0:
290,373,67737,2,0,P|241:350|172:228,1,198.000006042481,0|2,3:2|0:2,0:0:0:0:
356,80,68418,2,0,P|428:92|519:102,1,148.50000453186,8|0,0:2|0:2,0:0:0:0:
502,100,68873,1,2,0:2:0:0:
356,80,69100,1,0,3:2:0:0:
453,13,69327,5,4,3:1:0:0:
292,154,69555,2,0,B|185:144|236:79|119:75,1,198.000006042481,0|2,3:2|0:2,0:0:0:0:
5,180,70237,5,8,0:2:0:0:
90,229,70464,1,0,0:2:0:0:
293,263,70691,5,2,3:2:0:0:
178,367,70918,2,0,P|176:290|176:212,1,148.50000453186,4|0,3:1|0:2,0:0:0:0:
175,218,71373,1,2,3:2:0:0:
93,353,71600,6,0,B|211:317|174:390|294:368,1,198.000006042481,4|8,3:1|0:2,0:0:0:0:
309,297,72282,1,2,0:3:0:0:
476,384,72509,6,0,P|463:363|452:334,1,40.4999987640381,2|0,0:3|0:2,0:0:0:0:
397,298,72737,2,0,P|398:271|405:238,1,53.9999983520508,2|0,3:3|0:2,0:0:0:0:
459,179,72964,5,6,3:2:0:0:
315,230,73191,1,2,3:2:0:0:
212,107,73418,1,2,0:1:0:0:
356,56,73645,1,6,0:3:0:0:
212,224,73873,6,0,P|191:223|169:212,1,40.4999987640381,10|0,0:2|0:2,0:0:0:0:
110,169,74100,2,0,P|95:153|88:130,1,40.4999987640381,2|0,0:2|0:2,0:0:0:0:
139,54,74327,5,2,0:3:0:0:
92,267,74555,1,2,0:3:0:0:
0,160,74782,5,4,3:1:0:0:
212,107,75009,2,0,P|292:144|341:246,1,198.000006042481,0|0,3:2|0:2,0:0:0:0:
170,367,75691,1,8,0:2:0:0:
91,324,75918,1,8,0:3:0:0:
156,263,76146,1,4,0:3:0:0:
235,306,76373,1,0,3:2:0:0:
91,324,76600,5,2,3:2:0:0:
329,352,76827,2,0,P|273:311|222:185,1,198.000006042481,2|2,3:3|0:2,0:0:0:0:
88,19,77509,2,0,P|64:54|51:116,1,99.0000030212403,8|0,0:2|0:2,0:0:0:0:
91,324,77964,5,0,3:2:0:0:
44,239,78191,1,0,3:2:0:0:
254,68,78418,5,4,0:3:0:0:
220,147,78646,2,0,P|288:154|368:170,2,144,0|2|2,0:2|0:2|0:2,0:0:0:0:
466,6,80009,1,2,0:2:0:0:
385,70,80237,5,6,3:2:0:0:
402,268,80464,2,0,P|389:148|385:59,1,198.000006042481,0|2,3:2|0:1,0:0:0:0:
284,322,81146,2,0,P|240:327|174:340,1,99.0000030212403,8|2,0:2|0:3,0:0:0:0:
9,384,81600,6,0,P|21:365|29:335,1,49.5000015106202,8|0,0:3|0:2,0:0:0:0:
109,270,81827,2,0,P|104:248|88:221,1,49.5000015106202,6|0,0:3|0:2,0:0:0:0:
12,166,82055,5,4,3:1:0:0:
230,179,82282,2,0,P|180:157|106:30,1,198.000006042481,0|2,3:2|0:1,0:0:0:0:
333,243,82964,2,0,P|292:263|251:308,1,99.0000030212403,8|2,0:2|0:2,0:0:0:0:
258,55,83418,6,0,P|281:67|309:74,1,49.5000015106202,10|0,0:3|0:2,0:0:0:0:
401,169,83646,2,0,P|425:161|450:146,1,49.5000015106202,2|0,3:3|0:2,0:0:0:0:
462,43,83873,5,4,3:1:0:0:
312,157,84100,2,0,P|231:180|154:267,1,198.000006042481,0|2,3:0|0:1,0:0:0:0:
85,181,84782,5,8,0:2:0:0:
224,350,85009,1,0,0:2:0:0:
155,263,85237,6,0,P|177:251|203:245,1,49.5000015106202,2|0,3:3|0:2,0:0:0:0:
312,157,85464,2,0,P|336:164|358:178,1,49.5000015106202,2|0,3:3|0:2,0:0:0:0:
434,338,85691,5,2,0:2:0:0:
456,150,85918,1,0,3:0:0:0:
434,338,86146,2,0,P|432:296|423:237,1,99.0000030212403,0|2,3:2|0:2,0:0:0:0:
253,146,86600,5,8,0:2:0:0:
512,56,86827,2,0,P|416:69|311:73,1,198.000006042481,2|2,0:2|3:2,0:0:0:0:
69,154,87509,5,6,3:2:0:0:
215,266,87737,2,0,B|248:148|176:183|225:70,1,198.000006042481,0|2,3:2|0:1,0:0:0:0:
0,0,88418,2,0,P|46:16|110:25,1,99.0000030212403,8|0,0:2|0:2,0:0:0:0:
303,130,88873,6,0,P|278:136|251:150,1,49.5000015106202,10|0,0:3|0:2,0:0:0:0:
171,236,89100,2,0,P|157:257|148:286,1,49.5000015106202,6|0,0:3|0:2,0:0:0:0:
236,374,89327,5,4,3:1:0:0:
90,194,89555,2,0,B|205:188|170:243|284:247,1,198.000006042481,0|2,3:2|0:1,0:0:0:0:
436,384,90237,2,0,P|424:339|414:281,1,99.0000030212403,8|2,0:2|0:3,0:0:0:0:
271,166,90691,6,0,P|282:135|285:102,1,49.5000015106202,10|0,0:3|0:2,0:0:0:0:
415,60,90918,2,0,P|400:30|379:4,1,49.5000015106202,2|0,3:3|0:2,0:0:0:0:
261,0,91146,5,4,3:1:0:0:
377,148,91373,2,0,P|447:173|514:280,1,198.000006042481,0|2,3:2|0:1,0:0:0:0:
267,384,92055,2,0,P|278:333|282:261,1,99.0000030212403,8|2,0:2|0:3,0:0:0:0:
146,309,92509,1,0,3:2:0:0:
388,374,92737,1,0,3:2:0:0:
253,188,92964,5,2,0:3:0:0:
44,379,93191,2,0,P|37:329|31:174,1,198.000006042481,4|2,3:1|0:2,0:0:0:0:
215,0,93873,2,0,B|390:25|291:115|465:147,1,297.000009063721,8|2,0:2|3:2,0:0:0:0:
512,76,94782,5,6,3:2:0:0:
254,190,95009,2,0,P|187:147|134:38,1,198.000006042481,0|0,3:2|0:2,0:0:0:0:
335,259,95691,2,0,P|291:267|243:295,1,99.0000030212403,8|0,0:2|0:2,0:0:0:0:
50,377,96146,6,0,P|59:357|63:321,1,49.5000015106202,10|0,0:3|0:2,0:0:0:0:
175,192,96373,2,0,P|167:171|144:143,1,49.5000015106202,6|0,0:3|0:2,0:0:0:0:
32,67,96600,5,4,3:1:0:0:
267,187,96827,2,0,P|330:175|414:68,1,198.000006042481,0|2,3:2|0:1,0:0:0:0:
507,287,97509,2,0,P|487:244|482:189,1,99.0000030212403,8|0,0:2|0:2,0:0:0:0:
219,323,97964,6,0,P|239:312|269:306,1,49.5000015106202,10|0,0:3|0:2,0:0:0:0:
351,182,98191,2,0,P|372:188|398:205,1,49.5000015106202,2|0,3:3|0:2,0:0:0:0:
448,358,98418,5,4,3:1:0:0:
247,198,98646,2,0,B|260:74|314:147|329:11,1,198.000006042481,0|2,3:2|0:1,0:0:0:0:
512,175,99327,2,0,P|467:180|403:197,1,99.0000030212403,8|2,0:2|0:3,0:0:0:0:
272,326,99782,6,0,P|248:322|221:311,1,49.5000015106202,2|0,3:3|0:2,0:0:0:0:
112,374,100009,2,0,P|97:354|86:327,1,49.5000015106202,2|0,3:3|0:2,0:0:0:0:
47,165,100237,5,2,0:2:0:0:
2,357,100464,1,0,3:0:0:0:
47,165,100691,2,0,P|63:122|71:67,1,99.0000030212403,0|0,3:2|0:2,0:0:0:0:
338,82,101146,2,0,B|226:80|268:142|148:146,1,198.000006042481,8|2,0:2|0:3,0:0:0:0:
162,12,101827,2,0,P|171:34|175:62,1,49.5000015106202,0|0,3:2|0:2,0:0:0:0:
105,232,102055,5,4,3:2:0:0:
294,265,102282,2,0,B|184:283|218:215|102:232,1,198.000006042481,0|2,3:2|0:1,0:0:0:0:
381,355,102964,2,0,P|429:344|478:336,1,99.0000030212403,8|2,0:2|0:3,0:0:0:0:
465,209,103418,6,0,P|455:185|449:157,1,49.5000015106202,10|0,0:3|0:2,0:0:0:0:
342,81,103646,2,0,P|351:57|367:32,1,49.5000015106202,6|0,0:3|0:2,0:0:0:0:
493,38,103873,5,4,3:1:0:0:
348,188,104100,2,0,P|255:176|148:172,1,198.000006042481,0|2,3:2|0:1,0:0:0:0:
31,358,104782,2,0,P|43:310|48:255,1,99.0000030212403,8|0,0:2|0:2,0:0:0:0:
47,260,105123,1,8,0:3:0:0:
47,260,105237,1,4,0:3:0:0:
23,90,105464,1,0,3:2:0:0:
214,249,105691,5,4,3:1:0:0:
266,52,105918,2,0,P|177:91|132:177,1,198.000006042481,0|2,3:2|0:1,0:0:0:0:
331,360,106600,2,0,P|383:369|437:386,1,99.0000030212403,8|0,0:2|0:2,0:0:0:0:
260,233,107055,6,0,P|235:238|211:250,1,49.5000015106202,2|0,3:3|0:2,0:0:0:0:
59,128,107282,2,0,P|45:149|36:174,1,49.5000015106202,2|0,3:3|0:2,0:0:0:0:
45,309,107509,5,4,0:1:0:0:
201,131,107737,2,0,P|193:77|189:27,2,99.0000030212403,8|0|2,0:2|3:2|0:1,0:0:0:0:
431,296,108418,2,0,P|386:279|332:269,1,99.0000030212403,8|2,0:2|0:3,0:0:0:0:
159,384,108873,6,0,P|172:363|180:335,1,49.5000015106202,4|0,0:1|0:2,0:0:0:0:
298,202,109100,2,0,P|292:177|278:152,1,49.5000015106202,8|0,0:3|0:2,0:0:0:0:
167,18,109327,6,0,B|269:26|224:72|325:85,1,161.999995056153,2|2,0:2|0:2,0:0:0:0:
465,70,110237,2,0,P|441:61|413:38,1,53.9999983520508,2|0,0:2|0:2,0:0:0:0:
330,172,110691,2,0,P|354:163|382:140,1,53.9999983520508,2|0,0:2|0:2,0:0:0:0:
472,211,111146,5,2,0:2:0:0:
368,265,111373,2,0,P|401:273|462:331,1,107.999996704102,2|2,0:2|0:2,0:0:0:0:
268,359,112055,2,0,L|212:366,1,53.9999983520508,2|0,0:2|0:2,0:0:0:0:
145,338,112509,2,0,L|89:345,1,53.9999983520508,2|0,0:2|0:2,0:0:0:0:
19,299,112964,5,2,0:2:0:0:
27,279,113191,1,0,0:2:0:0:
141,219,113418,5,2,0:2:0:0:
133,199,113645,1,0,0:2:0:0:
35,139,113873,6,0,P|44:108|47:78,1,53.9999983520508,2|0,0:2|0:2,0:0:0:0:
158,52,114327,2,0,P|149:21|146:-9,1,53.9999983520508,2|0,0:2|0:2,0:0:0:0:
257,124,114782,6,0,P|300:145|335:202,1,107.999996704102,2|2,0:2|0:2,0:0:0:0:
409,185,115464,1,0,0:2:0:0:
291,261,115691,2,0,L|232:278,1,53.9999983520508,2|0,0:2|0:2,0:0:0:0:
380,352,116146,2,0,L|431:366,1,53.9999983520508,2|0,0:2|0:2,0:0:0:0:
375,267,116600,6,0,P|363:150|358:38,1,215.999993408203,2|2,0:2|0:2,0:0:0:0:
435,68,117737,1,0,0:2:0:0:
290,7,117964,2,0,P|264:16|244:32,1,53.9999983520508,2|0,0:2|0:2,0:0:0:0:
139,120,118418,6,0,P|145:144|148:177,1,53.9999983520508,2|0,0:2|0:2,0:0:0:0:
233,166,118873,2,0,P|230:139|224:112,1,53.9999983520508,2|0,0:2|0:2,0:0:0:0:
199,257,119327,2,0,P|147:264|35:292,1,161.999995056153,2|0,0:2|0:2,0:0:0:0:
40,290,120237,2,0,L|52:353,1,53.9999983520508,2|0,0:2|0:2,0:0:0:0:
134,374,120691,5,2,0:2:0:0:
154,367,120918,1,0,0:2:0:0:
222,269,121146,5,2,0:2:0:0:
242,276,121373,1,0,0:2:0:0:
333,382,121600,5,2,0:2:0:0:
353,374,121827,1,0,0:2:0:0:
471,384,122055,6,0,P|460:334|454:277,1,107.999996704102,2|2,0:2|0:2,0:0:0:0:
454,277,122737,1,0,0:2:0:0:
344,200,122964,1,2,0:3:0:0:
344,200,123305,1,2,0:3:0:0:
344,200,123646,1,2,0:3:0:0:
512,71,123873,6,0,P|461:76|380:139,1,144,6|0,3:2|0:2,0:0:0:0:
452,171,124555,1,2,3:2:0:0:
282,14,124782,2,0,P|270:47|272:83,1,72,8|0,0:2|0:2,0:0:0:0:
262,152,125237,2,0,P|274:119|272:83,1,72,2|2,0:2|0:2,0:0:0:0:
177,133,125691,5,0,3:2:0:0:
346,211,125918,2,0,P|404:248|434:323,1,144,0|2,3:2|0:2,0:0:0:0:
257,384,126600,1,10,0:0:0:0:
257,384,126941,1,2,0:3:0:0:
257,384,127282,1,2,3:3:0:0:
328,286,127509,6,0,P|319:206|315:141,1,144,2|0,3:2|0:2,0:0:0:0:
391,137,128191,1,2,3:2:0:0:
220,254,128418,2,0,P|170:217|146:142,1,144,8|2,0:2|0:2,0:0:0:0:
143,52,129100,6,0,P|176:62|213:70,1,72,2|0,3:2|0:2,0:0:0:0:
69,208,129555,2,0,P|33:214|0:225,1,72,2|0,3:2|3:2,0:0:0:0:
16,135,130009,1,2,0:2:0:0:
65,327,130237,1,10,0:2:0:0:
65,327,130577,1,2,0:3:0:0:
65,327,130918,1,2,3:3:0:0:
69,208,131146,6,0,P|131:225|182:293,1,144,2|0,3:2|0:2,0:0:0:0:
69,208,131827,1,2,3:2:0:0:
268,360,132055,2,0,P|261:323|262:283,1,72,8|0,0:2|0:2,0:0:0:0:
426,192,132509,2,0,P|397:216|362:235,1,72,2|2,0:2|0:2,0:0:0:0:
259,160,132964,5,0,3:2:0:0:
467,264,133191,2,0,P|462:192|461:117,1,144,0|0,3:2|0:2,0:0:0:0:
269,0,133873,2,0,P|204:11|151:79,1,144,8|2,0:2|0:2,0:0:0:0:
212,125,134555,1,2,3:2:0:0:
26,42,134782,5,0,3:2:0:0:
154,67,135009,2,0,B|81:75|106:114|22:129,1,144,0|2,3:2|0:2,0:0:0:0:
222,0,135691,2,0,P|254:10|297:18,1,72,8|0,0:2|0:2,0:0:0:0:
451,127,136146,2,0,P|415:133|381:144,1,72,2|2,0:2|3:2,0:0:0:0:
395,54,136600,5,0,3:2:0:0:
242,231,136827,2,0,P|249:195|252:156,2,72,0|0|2,3:2|3:2|0:2,0:0:0:0:
314,289,137509,1,10,0:2:0:0:
171,342,137850,1,2,0:3:0:0:
28,289,138191,2,0,P|47:295|66:305,1,36,2|0,3:3|0:2,0:0:0:0:
257,349,138418,6,0,P|322:324|401:305,1,144,6|0,3:2|0:2,0:0:0:0:
466,342,139100,1,2,3:2:0:0:
337,144,139327,2,0,P|327:178|311:213,1,72,8|0,0:2|0:2,0:0:0:0:
500,268,139782,2,0,P|484:235|475:200,1,72,2|2,0:2|0:2,0:0:0:0:
393,228,140237,5,0,3:2:0:0:
512,20,140464,2,0,P|459:33|397:104,1,144,2|0,3:2|0:2,0:0:0:0:
247,245,141146,5,10,0:2:0:0:
144,279,141487,1,2,0:3:0:0:
67,203,141827,1,2,3:3:0:0:
170,169,142055,6,0,P|166:221|170:339,1,144,2|0,3:2|0:2,0:0:0:0:
223,369,142737,1,2,3:2:0:0:
434,375,142964,2,0,B|354:381|376:335|293:340,1,144,8|2,0:2|0:2,0:0:0:0:
120,246,143646,6,0,P|85:256|50:260,1,72,2|0,3:2|0:2,0:0:0:0:
265,88,144100,2,0,P|300:91|335:102,1,72,2|0,3:2|3:2,0:0:0:0:
215,192,144555,1,2,0:2:0:0:
60,15,144782,1,10,0:2:0:0:
33,118,145123,1,2,0:3:0:0:
137,90,145464,1,2,3:3:0:0:
363,28,145691,6,0,P|373:87|373:177,1,144,2|0,3:2|0:2,0:0:0:0:
451,191,146373,1,2,3:2:0:0:
254,258,146600,2,0,P|250:291|251:330,1,72,8|0,0:2|0:2,0:0:0:0:
169,292,147055,1,2,0:2:0:0:
369,307,147282,1,2,0:2:0:0:
254,258,147509,5,0,3:2:0:0:
98,377,147737,2,0,P|89:322|87:230,1,144,0|0,3:2|0:2,0:0:0:0:
266,79,148418,2,0,P|247:116|225:142,1,72,8|0,0:2|0:2,0:0:0:0:
5,57,148873,2,0,P|46:54|80:61,1,72,2|0,0:2|3:2,0:0:0:0:
110,197,149327,6,0,P|45:219|-6:292,1,144,2|0,3:2|0:2,0:0:0:0:
37,135,150009,1,2,3:2:0:0:
205,290,150237,1,8,0:2:0:0:
205,290,150464,2,0,L|196:215,1,72,0|2,0:2|0:2,0:0:0:0:
119,339,150918,6,0,P|87:344|45:354,1,72,2|0,3:2|0:2,0:0:0:0:
292,244,151373,2,0,P|327:252|362:258,1,72,0|0,3:2|3:2,0:0:0:0:
292,244,151827,1,2,0:2:0:0:
300,357,152055,5,8,0:2:0:0:
306,335,152282,1,8,0:3:0:0:
208,155,152509,5,4,0:3:0:0:
214,177,152736,1,0,3:2:0:0:
90,264,152964,6,0,L|-3:279,1,90,2|0,0:2|0:2,0:0:0:0:
29,198,153646,1,2,3:2:0:0:
55,353,153873,1,0,3:2:0:0:
55,353,154555,1,2,3:2:0:0:
223,384,154782,6,0,P|191:359|164:302,1,90,0|0,3:2|0:2,0:0:0:0:
29,198,155464,2,0,P|50:182|63:163,1,45,2|0,3:2|3:2,0:0:0:0:
60,167,156373,1,2,3:2:0:0:
221,64,156600,2,0,P|178:74|119:81,1,90,0|0,3:2|0:2,0:0:0:0:
28,53,157282,1,2,3:2:0:0:
28,53,157509,1,0,3:2:0:0:
271,130,157964,2,0,P|298:135|329:145,1,45,2|0,0:2|0:2,0:0:0:0:
429,273,158418,6,0,P|425:189|417:111,1,161.999995056153,2|0,0:2|0:2,0:0:0:0:
247,366,160237,6,0,B|116:359|191:294|49:293,1,216,4|2,0:2|0:2,0:0:0:0:
51,293,161373,1,0,0:2:0:0:
149,233,161600,2,0,P|144:195|142:157,1,72,2|0,0:2|0:2,0:0:0:0:
40,14,162055,6,0,P|179:36|260:162,1,288,2|2,0:2|0:2,0:0:0:0:
325,115,163191,1,0,0:2:0:0:
454,236,163418,2,0,P|440:201|434:164,1,72,2|0,0:2|0:2,0:0:0:0:
350,220,163873,6,0,P|273:222|48:382,1,360,2|2,0:2|0:2,0:0:0:0:
0,258,165237,2,0,P|8:224|10:186,1,72,0|2,0:2|0:2,0:0:0:0:
192,44,165691,6,0,P|157:73|59:97,1,144,2|0,0:2|0:2,0:0:0:0:
281,30,166373,2,0,P|315:39|352:60,1,72,2|0,0:2|0:2,0:0:0:0:
442,136,166827,2,0,P|410:153|375:162,1,72,2|0,0:2|0:2,0:0:0:0:
442,136,167282,1,2,0:2:0:0:
266,284,167509,6,0,P|275:211|281:126,1,144,2|0,0:2|0:2,0:0:0:0:
453,235,168191,2,0,P|444:308|438:393,1,144,2|0,0:2|0:2,0:0:0:0:
358,245,168873,1,2,0:2:0:0:
142,368,169327,6,0,P|196:336|245:254,1,144,2|2,0:2|0:2,0:0:0:0:
295,327,170009,1,0,0:2:0:0:
149,255,170237,2,0,P|138:216|121:179,1,72,2|0,0:2|0:2,0:0:0:0:
256,93,170691,2,0,P|236:123|223:156,1,72,2|0,0:2|0:2,0:0:0:0:
146,92,171146,5,2,0:2:0:0:
146,92,171600,1,2,0:2:0:0:
223,156,171827,2,0,B|308:157|272:111|369:117,1,144,2|0,0:2|0:2,0:0:0:0:
492,180,172509,2,0,P|459:181|415:189,1,72,2|0,0:2|0:2,0:0:0:0:
334,245,172964,5,2,0:2:0:0:
357,263,173191,1,0,0:2:0:0:
312,321,173418,1,2,0:2:0:0:
374,373,173646,6,0,P|413:379|444:385,1,72,0|2,0:2|0:2,0:0:0:0:
213,250,174100,1,0,0:2:0:0:
213,250,174327,2,0,P|177:256|142:262,1,72,2|0,0:2|0:2,0:0:0:0:
14,384,174782,6,0,P|17:326|60:253,1,144,6|0,0:2|0:2,0:0:0:0:
83,92,175464,2,0,P|89:133|107:169,1,72,2|0,0:2|0:2,0:0:0:0:
11,142,175918,1,2,0:2:0:0:
141,18,176146,2,0,P|100:12|64:-6,1,72,2|0,0:2|0:2,0:0:0:0:
234,140,176600,6,0,P|294:107|392:102,1,144,2|0,0:2|0:2,0:0:0:0:
481,1,177282,2,0,P|464:30|458:73,1,72,2|0,0:2|0:2,0:0:0:0:
347,192,177737,1,2,0:2:0:0:
347,192,177964,2,0,P|355:224|381:259,1,72,2|0,0:2|0:2,0:0:0:0:
377,255,178305,5,2,0:3:0:0:
377,255,178418,2,0,P|321:268|200:365,2,216,2|2|0,0:2|0:2|0:2,0:0:0:0:
435,305,180009,1,2,0:2:0:0:
240,210,180237,6,0,P|248:158|253:59,1,144,2|0,0:2|0:2,0:0:0:0:
198,0,180918,1,0,0:2:0:0:
0,138,181146,6,0,B|79:131|45:92|148:94,1,144,2|0,0:2|0:2,0:0:0:0:
24,0,181827,1,0,0:2:0:0:
182,173,182055,6,0,P|154:193|132:230,1,72,2|0,0:2|0:2,0:0:0:0:
182,173,182509,1,2,0:2:0:0:
12,260,182737,2,0,P|89:292|186:393,1,216,2|0,0:2|0:2,0:0:0:0:
241,333,183646,1,2,0:2:0:0:
438,384,183873,6,0,P|413:144|408:55,1,323.999990112305,2|0,0:2|0:2,0:0:0:0:
496,93,185464,1,2,0:2:0:0:
327,179,185691,2,0,P|297:167|256:161,1,72,2|0,0:2|0:2,0:0:0:0:
311,89,186146,1,2,0:2:0:0:
129,278,186373,6,0,P|196:256|273:243,1,144,2|0,0:2|0:2,0:0:0:0:
424,384,187055,2,0,P|394:374|355:366,1,72,2|0,0:2|0:2,0:0:0:0:
354,365,187396,1,2,0:3:0:0:
354,365,187509,2,0,L|364:284,1,72,2|0,0:2|0:2,0:0:0:0:
426,249,187964,1,2,0:2:0:0:
276,103,188191,6,0,P|301:139|390:179,1,144,2|0,0:2|0:2,0:0:0:0:
390,179,188759,2,0,P|392:155|398:123,1,56.25,2|0,0:3|0:2,0:0:0:0:
125,243,189327,5,6,3:1:0:0:
125,243,189555,1,0,3:2:0:0:
322,363,189782,2,0,P|276:337|212:337,1,107.999996704102,2|2,0:2|0:1,0:0:0:0:
23,210,190237,6,0,P|28:179|40:152,1,53.9999983520508,8|0,0:2|0:2,0:0:0:0:
133,107,190464,2,0,P|158:88|186:78,1,53.9999983520508,2|0,0:3|0:2,0:0:0:0:
230,163,190691,5,2,0:1:0:0:
45,72,190918,1,0,0:2:0:0:
246,22,191146,5,6,3:1:0:0:
246,22,191373,2,0,B|378:20|311:79|447:95,1,215.999993408203,0|2,3:2|0:1,0:0:0:0:
486,257,192055,6,0,P|472:234|464:201,1,53.9999983520508,8|0,0:2|0:2,0:0:0:0:
295,275,192282,2,0,P|301:249|319:219,1,53.9999983520508,2|0,0:3|0:2,0:0:0:0:
397,275,192509,5,2,0:1:0:0:
200,361,192737,1,0,3:2:0:0:
157,230,192964,5,6,3:1:0:0:
306,355,193191,2,0,P|301:238|289:137,1,215.999993408203,0|2,3:2|0:1,0:0:0:0:
131,6,193873,6,0,P|118:29|110:59,1,53.9999983520508,8|0,0:2|0:2,0:0:0:0:
13,174,194100,2,0,P|20:199|35:226,1,53.9999983520508,2|0,0:3|0:2,0:0:0:0:
157,230,194327,5,2,3:1:0:0:
10,70,194555,1,0,3:2:0:0:
174,130,194782,5,6,0:1:0:0:
6,334,195009,2,0,P|49:300|109:296,1,107.999996704102,0|0,3:2|3:2,0:0:0:0:
6,334,195464,1,2,0:1:0:0:
157,230,195691,1,8,0:2:0:0:
309,325,195918,1,8,0:3:0:0:
253,384,196146,5,4,0:3:0:0:
174,130,196373,1,0,3:2:0:0:
255,257,196600,5,6,3:1:0:0:
415,64,196827,2,0,P|341:78|240:189,1,215.999993408203,2|2,0:3|0:1,0:0:0:0:
103,9,197509,6,0,P|132:18|161:41,1,62.9999980773926,8|0,0:2|0:2,0:0:0:0:
245,175,197737,2,0,P|259:201|263:238,1,62.9999980773926,2|0,0:3|0:2,0:0:0:0:
132,378,197964,5,2,0:1:0:0:
132,378,198191,2,0,P|138:352|159:318,1,62.9999980773926,4|0,0:3|0:2,0:0:0:0:
263,233,198418,5,6,3:1:0:0:
10,131,198646,2,0,P|72:144|182:248,1,215.999993408203,2|2,3:3|0:1,0:0:0:0:
376,382,199327,6,0,P|389:358|394:317,1,62.9999980773926,8|0,0:2|0:2,0:0:0:0:
490,158,199555,2,0,P|482:131|456:99,1,62.9999980773926,2|0,0:3|0:2,0:0:0:0:
282,23,199782,5,2,0:1:0:0:
282,23,200009,2,0,P|271:52|268:94,1,62.9999980773926,8|0,3:3|0:2,0:0:0:0:
365,159,200237,5,6,3:1:0:0:
90,265,200464,2,0,B|208:250|137:169|284:171,1,215.999993408203,2|2,3:3|0:1,0:0:0:0:
486,341,201146,6,0,P|465:318|426:303,1,62.9999980773926,8|0,0:2|0:2,0:0:0:0:
278,186,201373,2,0,P|246:184|208:201,1,62.9999980773926,2|0,0:3|0:2,0:0:0:0:
59,375,201600,5,2,3:1:0:0:
59,375,201827,2,0,P|71:351|80:310,1,62.9999980773926,4|0,3:3|0:2,0:0:0:0:
65,116,202055,5,6,0:1:0:0:
220,382,202282,2,0,P|199:336|190:280,2,107.999996704102,2|8|2,3:3|3:3|0:1,0:0:0:0:
4,240,202964,6,0,P|27:220|66:205,1,62.9999980773926,8|0,0:0|0:2,0:0:0:0:
198,70,203191,2,0,P|228:72|266:89,1,62.9999980773926,8|0,0:3|0:2,0:0:0:0:
453,245,203418,6,0,P|422:247|384:264,1,62.9999980773926,4|0,0:3|0:2,0:0:0:0:
220,382,203646,2,0,P|191:369|167:349,1,62.9999980773926,0|0,3:0|0:2,0:0:0:0:
236,205,203873,5,4,3:1:0:0:
236,205,204100,1,0,3:2:0:0:
15,373,204327,6,0,P|41:364|70:343,1,58.4999973220826,2|0,0:1|0:2,0:0:0:0:
115,282,204555,2,0,P|127:257|132:221,1,58.4999973220826,2|0,0:3|0:2,0:0:0:0:
51,91,204782,1,8,0:2:0:0:
51,91,205009,2,0,P|72:103|109:114,1,58.4999973220826,2|0,0:1|0:2,0:0:0:0:
235,47,205237,2,0,P|275:23|355:19,1,116.999994644165,10|0,0:3|0:2,0:0:0:0:
441,199,205691,5,4,3:1:0:0:
441,199,205918,1,0,3:2:0:0:
512,108,206146,6,0,P|485:94|452:89,1,58.4999973220826,2|0,0:1|0:2,0:0:0:0:
306,225,206373,2,0,P|314:277|320:350,1,116.999994644165,2|8,0:3|0:2,0:0:0:0:
107,135,206827,6,0,P|134:121|167:116,1,58.4999973220826,2|0,0:1|0:2,0:0:0:0:
306,225,207055,2,0,P|363:244|432:250,1,116.999994644165,6|0,0:3|3:2,0:0:0:0:
483,336,207509,5,4,3:1:0:0:
483,336,207737,1,0,3:2:0:0:
289,213,207964,6,0,P|256:221|226:238,1,58.4999973220826,2|0,0:1|0:2,0:0:0:0:
177,283,208191,2,0,P|159:311|150:345,1,58.4999973220826,2|0,0:3|0:2,0:0:0:0:
298,383,208418,1,8,0:2:0:0:
298,383,208646,2,0,P|289:353|265:316,1,58.4999973220826,2|0,0:1|0:2,0:0:0:0:
126,221,208873,2,0,P|95:213|51:216,1,58.4999973220826,2|0,0:3|0:2,0:0:0:0:
312,128,209100,6,0,P|351:81|515:38,1,233.999989288331,0|0,3:0|3:2,0:0:0:0:
172,4,209782,6,0,P|183:29|190:64,1,58.4999973220826,2|0,0:1|0:2,0:0:0:0:
425,149,210009,2,0,P|381:132|304:129,1,116.999994644165,10|8,0:3|0:2,0:0:0:0:
57,182,210464,6,0,P|83:166|120:157,1,58.4999973220826,2|0,0:1|0:2,0:0:0:0:
266,334,210691,2,0,P|264:278|243:217,1,116.999994644165,6|0,0:3|3:2,0:0:0:0:
210,145,211146,5,4,3:1:0:0:
210,145,211373,1,0,3:2:0:0:
0,247,211600,6,0,P|28:255|60:277,1,58.4999973220826,2|0,0:1|0:2,0:0:0:0:
107,328,211827,2,0,P|121:353|128:391,1,58.4999973220826,2|0,0:3|0:2,0:0:0:0:
321,350,212055,1,8,0:2:0:0:
321,350,212282,2,0,P|291:343|260:331,1,58.4999973220826,2|0,0:1|0:2,0:0:0:0:
109,213,212509,2,0,P|58:218|-6:251,1,116.999994644165,10|0,0:3|0:2,0:0:0:0:
162,146,212964,5,4,3:1:0:0:
162,146,213191,1,0,3:2:0:0:
80,7,213418,6,0,P|89:35|94:68,1,58.4999973220826,2|0,0:1|0:2,0:0:0:0:
134,327,213646,2,0,P|119:277|112:209,1,116.999994644165,2|8,0:3|0:2,0:0:0:0:
344,70,214100,6,0,P|317:85|283:92,1,58.4999973220826,2|0,0:1|0:2,0:0:0:0:
113,213,214327,2,0,P|71:193|-6:183,1,116.999994644165,6|0,0:3|3:2,0:0:0:0:
195,139,214782,5,4,3:1:0:0:
195,139,215009,1,0,3:2:0:0:
305,325,215237,6,0,P|312:294|326:270,1,58.4999973220826,2|0,0:1|0:2,0:0:0:0:
375,214,215464,2,0,P|401:197|428:189,1,58.4999973220826,2|0,0:3|0:2,0:0:0:0:
464,319,215691,1,8,0:2:0:0:
464,319,215918,2,0,P|431:308|402:289,1,58.4999973220826,2|0,0:1|0:2,0:0:0:0:
282,177,216146,2,0,P|294:124|301:59,1,116.999994644165,2|0,3:3|3:2,0:0:0:0:
256,192,216600,12,2,217964,0:2:0:0:
498,154,218418,5,6,3:2:0:0:
317,343,218646,2,0,P|352:292|504:248,1,215.999993408203,0|2,3:2|0:1,0:0:0:0:
215,41,219327,2,0,P|255:67|282:127,1,107.999996704102,8|2,0:2|0:2,0:0:0:0:
83,315,219782,6,0,P|95:286|114:265,1,53.9999983520508,2|0,0:3|0:2,0:0:0:0:
129,137,220009,2,0,P|157:124|186:123,1,53.9999983520508,2|0,0:3|0:2,0:0:0:0:
312,203,220237,5,4,3:1:0:0:
105,34,220464,2,0,P|98:133|94:250,1,215.999993408203,0|2,3:2|0:1,0:0:0:0:
0,383,221146,2,0,P|48:356|111:349,1,107.999996704102,8|2,0:2|0:2,0:0:0:0:
233,185,221600,6,0,P|241:213|258:247,1,53.9999983520508,2|0,0:3|0:2,0:0:0:0:
341,307,221827,2,0,P|366:321|402:333,1,53.9999983520508,2|0,3:3|0:2,0:0:0:0:
485,255,222055,5,4,3:1:0:0:
192,354,222282,2,0,B|66:344|132:282|-1:266,1,215.999993408203,0|2,3:2|0:1,0:0:0:0:
52,22,222964,2,0,P|60:71|65:137,1,107.999996704102,8|0,0:2|0:2,0:0:0:0:
297,262,223418,2,0,P|274:245|242:233,1,53.9999983520508,2|0,3:3|0:2,0:0:0:0:
135,204,223646,6,0,P|192:159|339:116,1,215.999993408203,4|0,3:1|3:2,0:0:0:0:
512,335,224327,2,0,P|477:304|403:287,1,107.999996704102,4|2,3:1|0:1,0:0:0:0:
188,384,224782,5,8,0:2:0:0:
325,274,225009,1,8,0:3:0:0:
179,88,225237,6,0,P|155:108|139:135,1,53.9999983520508,4|0,0:3|0:2,0:0:0:0:
23,232,225464,2,0,P|29:262|43:290,1,53.9999983520508,0|0,3:2|0:2,0:0:0:0:
188,384,225691,5,6,3:2:0:0:
101,202,225918,2,0,P|68:160|49:-4,1,215.999993408203,0|2,3:2|0:1,0:0:0:0:
272,265,226600,2,0,P|254:316|249:375,1,107.999996704102,8|2,0:2|0:2,0:0:0:0:
171,130,227055,6,0,P|192:146|224:155,1,53.9999983520508,2|0,0:3|0:2,0:0:0:0:
380,254,227282,2,0,P|406:250|435:234,1,53.9999983520508,2|0,0:3|0:2,0:0:0:0:
460,95,227509,5,4,3:1:0:0:
272,265,227737,2,0,P|291:194|297:52,1,215.999993408203,0|2,3:2|0:1,0:0:0:0:
482,356,228418,2,0,P|465:305|461:244,1,107.999996704102,8|2,0:2|0:2,0:0:0:0:
308,366,228873,6,0,P|282:376|252:380,1,53.9999983520508,2|0,0:3|0:2,0:0:0:0:
134,254,229100,2,0,P|108:243|84:224,1,53.9999983520508,2|0,3:3|0:2,0:0:0:0:
125,77,229327,5,4,3:1:0:0:
37,316,229555,2,0,P|105:254|241:243,1,215.999993408203,0|2,3:2|0:2,0:0:0:0:
431,129,230237,2,0,P|420:65|416:14,1,107.999996704102,8|2,0:2|0:1,0:0:0:0:
207,112,230691,6,0,P|235:116|264:128,1,53.9999983520508,2|0,3:3|0:2,0:0:0:0:
439,230,230918,2,0,P|351:255|261:355,1,215.999993408203,4|0,3:1|3:2,0:0:0:0:
70,135,231600,2,0,P|106:174|156:194,1,107.999996704102,4|2,3:1|0:1,0:0:0:0:
37,377,232055,6,0,P|27:351|24:314,1,53.9999983520508,8|0,0:2|0:2,0:0:0:0:
47,252,232282,1,8,0:3:0:0:
266,342,232509,2,0,P|233:321|157:315,1,107.999996704102,4|4,0:3|0:3,0:0:0:0:
165,313,232850,1,0,3:2:0:0:
165,313,232964,1,4,3:2:0:0:
331,144,233191,6,0,P|351:263|373:360,1,215.999993408203,2|2,3:2|0:1,0:0:0:0:
487,74,233873,2,0,P|432:64|380:52,1,107.999996704102,8|2,0:2|0:2,0:0:0:0:
248,150,234327,6,0,P|223:156|197:169,1,53.9999983520508,2|0,0:3|0:2,0:0:0:0:
70,49,234555,2,0,P|56:70|47:98,1,53.9999983520508,2|0,0:3|0:2,0:0:0:0:
61,215,234782,5,4,3:1:0:0:
196,34,235009,2,0,P|280:67|345:171,1,215.999993408203,0|2,3:2|0:1,0:0:0:0:
178,376,235691,2,0,P|207:337|222:280,1,107.999996704102,8|2,0:2|0:2,0:0:0:0:
444,244,236146,6,0,P|419:248|394:263,1,53.9999983520508,2|0,0:3|0:2,0:0:0:0:
231,151,236373,2,0,P|216:171|209:199,1,53.9999983520508,2|0,3:3|0:2,0:0:0:0:
49,255,236600,5,4,3:1:0:0:
221,280,236827,2,0,P|214:155|203:63,1,215.999993408203,0|2,3:2|0:1,0:0:0:0:
444,244,237509,2,0,P|438:292|433:352,1,107.999996704102,8|0,0:2|0:2,0:0:0:0:
294,74,237964,6,0,P|317:87|351:96,1,53.9999983520508,2|0,3:3|0:2,0:0:0:0:
512,190,238191,2,0,B|404:185|444:270|325:287,1,215.999993408203,4|2,3:1|3:2,0:0:0:0:
124,384,238873,2,0,P|154:343|177:286,1,107.999996704102,4|2,3:1|0:1,0:0:0:0:
119,41,239327,6,0,P|122:73|134:105,1,53.9999983520508,8|0,0:2|0:2,0:0:0:0:
225,164,239555,2,0,P|250:184|280:198,1,53.9999983520508,8|8,0:3|0:2,0:0:0:0:
386,73,239782,6,0,P|361:78|337:93,1,53.9999983520508,8|8,0:3|0:3,0:0:0:0:
122,190,240009,2,0,P|108:211|101:238,1,53.9999983520508,4|0,3:3|0:2,0:0:0:0:
296,361,240237,5,4,3:2:0:0:
383,281,240464,1,0,3:2:0:0:
285,213,240691,1,2,0:0:0:0:
198,293,240918,1,2,0:1:0:0:
22,180,241146,2,0,P|72:200|127:214,1,107.999996704102,8|0,0:2|0:2,0:0:0:0:
296,361,241600,6,0,P|283:334|274:302,1,53.9999983520508,2|0,0:3|0:2,0:0:0:0:
358,167,241827,2,0,P|367:139|384:109,1,53.9999983520508,2|0,0:3|0:2,0:0:0:0:
495,56,242055,5,4,3:1:0:0:
290,223,242282,2,0,P|227:204|150:75,1,215.999993408203,0|2,3:2|0:1,0:0:0:0:
0,320,242964,2,0,P|42:284|61:230,1,107.999996704102,8|0,0:2|0:2,0:0:0:0:
234,374,243418,6,0,P|232:344|223:316,1,53.9999983520508,2|0,0:3|0:2,0:0:0:0:
424,235,243646,2,0,P|401:215|375:201,1,53.9999983520508,2|0,3:3|0:2,0:0:0:0:
233,159,243873,5,4,3:1:0:0:
451,18,244100,2,0,P|459:70|473:135,2,107.999996704102,2|2|0,3:2|0:2|0:1,0:0:0:0:
320,105,244782,5,8,0:2:0:0:
489,251,245009,1,8,0:2:0:0:
321,339,245237,5,2,3:2:0:0:
395,174,245464,1,2,3:2:0:0:
489,251,245691,6,0,P|463:255|428:265,1,53.9999983520508,2|0,0:2|0:2,0:0:0:0:
219,172,246146,1,2,0:2:0:0:
291,144,246373,2,0,P|340:160|402:175,1,107.999996704102,2|0,0:2|0:2,0:0:0:0:
394,173,247282,1,2,0:2:0:0:
226,66,247509,5,4,3:2:0:0:
237,258,247737,2,0,B|251:125|306:201|322:60,1,215.999993408203,2|2,3:2|0:1,0:0:0:0:
512,0,248418,2,0,P|463:22|410:32,1,107.999996704102,8|4,0:2|0:3,0:0:0:0:
164,74,248873,6,0,P|192:79|227:93,1,53.9999983520508,10|0,0:3|0:2,0:0:0:0:
394,173,249100,2,0,P|410:196|425:230,1,53.9999983520508,6|0,0:3|0:2,0:0:0:0:
334,370,249327,1,4,3:1:0:0:
512,214,249555,6,0,B|393:162|413:248|285:219,1,215.999993408203,0|2,3:2|0:1,0:0:0:0:
102,289,250237,1,8,0:2:0:0:
191,360,250464,6,0,P|201:335|205:301,1,53.9999983520508,8|0,0:3|0:2,0:0:0:0:
303,222,250691,2,0,P|292:197|271:170,1,53.9999983520508,4|0,0:3|0:2,0:0:0:0:
371,43,250918,2,0,P|346:32|312:28,1,53.9999983520508,0|0,3:2|0:2,0:0:0:0:
218,80,251146,5,4,3:1:0:0:
218,80,251373,1,0,3:2:0:0:
461,4,251600,2,0,P|469:58|492:124,1,107.999996704102,2|2,0:3|0:1,0:0:0:0:
281,240,252055,2,0,P|297:188|305:135,1,107.999996704102,8|0,0:2|0:2,0:0:0:0:
456,368,252509,6,0,P|432:352|401:342,1,53.9999983520508,2|0,3:3|0:2,0:0:0:0:
281,240,252737,2,0,P|253:245|223:260,1,53.9999983520508,2|0,3:3|0:2,0:0:0:0:
68,384,252964,1,4,0:1:0:0:
0,313,253191,1,0,3:0:0:0:
89,276,253418,1,0,3:2:0:0:
157,346,253645,1,8,0:3:0:0:
460,141,253873,6,0,P|306:152|176:266,1,323.999990112305,12|0,0:2|3:2,0:0:0:0:
209,76,254782,5,4,3:2:0:0:
394,258,255009,2,0,P|376:134|376:35,1,215.999993408203,0|2,3:2|0:1,0:0:0:0:
94,256,255691,2,0,P|108:202|110:147,1,107.999996704102,8|2,0:2|0:3,0:0:0:0:
14,0,256146,6,0,P|27:20|58:40,1,53.9999983520508,10|0,0:3|0:2,0:0:0:0:
209,161,256373,2,0,P|233:159|265:142,1,53.9999983520508,6|0,0:3|0:2,0:0:0:0:
375,43,256600,1,4,3:1:0:0:
191,179,256827,6,0,P|304:212|368:286,1,215.999993408203,0|2,3:2|0:1,0:0:0:0:
65,142,257509,2,0,P|75:89|81:32,1,107.999996704102,8|2,0:2|0:3,0:0:0:0:
0,245,257964,6,0,P|28:254|56:274,1,53.9999983520508,10|0,0:3|0:2,0:0:0:0:
173,127,258191,2,0,P|186:153|192:187,1,53.9999983520508,6|0,0:3|0:2,0:0:0:0:
358,202,258418,5,4,3:1:0:0:
210,384,258646,2,0,P|238:339|247:277,2,107.999996704102,0|2|2,3:2|0:2|0:1,0:0:0:0:
496,318,259327,2,0,P|449:291|396:281,1,107.999996704102,8|2,0:2|0:3,0:0:0:0:
186,151,259782,6,0,P|217:146|247:136,1,53.9999983520508,2|0,3:3|0:2,0:0:0:0:
426,51,260009,2,0,P|373:102|314:232,1,215.999993408203,4|0,3:1|3:2,0:0:0:0:
163,45,260691,2,0,P|122:21|63:14,1,107.999996704102,4|2,3:1|0:1,0:0:0:0:
95,166,261146,5,14,0:2:0:0:
426,51,261373,1,10,0:3:0:0:
163,45,261600,6,0,L|158:104,1,53.9999983520508,4|0,0:3|0:2,0:0:0:0:
298,301,261827,2,0,L|302:247,1,53.9999983520508,0|0,3:2|0:2,0:0:0:0:
236,172,262055,5,4,3:2:0:0:
403,325,262282,2,0,P|301:339|188:362,1,215.999993408203,0|2,3:2|0:1,0:0:0:0:
470,211,262964,2,0,P|479:151|489:103,1,107.999996704102,8|2,0:2|0:3,0:0:0:0:
309,14,263418,6,0,P|286:30|260:39,1,53.9999983520508,10|0,0:3|0:2,0:0:0:0:
132,178,263646,2,0,P|104:173|79:161,1,53.9999983520508,6|0,0:3|0:2,0:0:0:0:
22,19,263873,5,4,3:1:0:0:
214,110,264100,2,0,B|248:237|169:188|204:325,1,215.999993408203,0|2,3:2|0:1,0:0:0:0:
436,384,264782,2,0,P|387:361|324:351,1,107.999996704102,8|2,0:2|0:3,0:0:0:0:
325,84,265237,6,0,P|334:105|340:138,1,53.9999983520508,10|0,0:3|0:2,0:0:0:0:
497,251,265464,2,0,P|488:272|469:299,1,53.9999983520508,2|0,3:3|0:2,0:0:0:0:
334,351,265691,5,4,3:1:0:0:
438,130,265918,2,0,B|323:109|367:192|232:188,1,215.999993408203,0|2,3:2|0:1,0:0:0:0:
14,349,266600,6,0,P|30:327|42:297,1,53.9999983520508,10|0,0:0|0:2,0:0:0:0:
154,160,266827,2,0,P|149:133|137:103,1,53.9999983520508,6|0,0:3|0:2,0:0:0:0:
0,0,267055,5,0,3:0:0:0:
226,104,267282,2,0,P|154:126|59:240,1,215.999993408203,4|0,3:1|3:0,0:0:0:0:
302,26,267964,2,0,P|354:41|413:49,1,107.999996704102,4|2,3:1|0:3,0:0:0:0:
475,276,268418,5,8,0:2:0:0:
358,334,268646,1,8,0:3:0:0:
276,233,268873,1,4,0:3:0:0:
393,175,269101,1,0,3:2:0:0:
512,365,269327,5,4,3:2:0:0:
380,259,269555,2,0,B|244:243|321:184|178:175,1,215.999993408203,0|2,3:2|0:1,0:0:0:0:
18,314,270237,2,0,P|71:302|129:282,1,107.999996704102,8|2,0:2|0:3,0:0:0:0:
289,87,270691,6,0,P|314:94|341:107,1,53.9999983520508,10|0,0:3|0:2,0:0:0:0:
487,60,270918,2,0,P|499:82|509:110,1,53.9999983520508,6|0,0:3|0:2,0:0:0:0:
451,258,271146,5,4,3:1:0:0:
378,17,271373,2,0,P|360:142|355:233,1,215.999993408203,0|2,3:2|0:1,0:0:0:0:
170,373,272055,2,0,P|225:358|279:341,1,107.999996704102,8|4,0:2|0:3,0:0:0:0:
109,72,272509,6,0,P|116:95|122:126,1,53.9999983520508,10|0,0:3|0:2,0:0:0:0:
232,223,272737,2,0,P|220:245|203:270,1,53.9999983520508,2|0,3:3|0:2,0:0:0:0:
33,300,272964,5,4,3:2:0:0:
211,144,273191,2,0,P|275:194|427:214,1,215.999993408203,0|2,3:2|0:1,0:0:0:0:
121,358,273873,2,0,P|114:288|105:245,1,107.999996704102,8|0,0:2|0:2,0:0:0:0:
352,347,274327,6,0,P|326:338|299:335,1,53.9999983520508,2|0,3:3|0:2,0:0:0:0:
106,251,274555,2,0,P|113:181|122:138,1,107.999996704102,0|0,3:2|0:2,0:0:0:0:
0,0,275009,6,0,P|17:25|49:48,1,62.9999980773926,8|0,0:2|0:2,0:0:0:0:
202,113,275237,2,0,P|169:116|115:150,1,90,8|0,0:3|0:2,0:0:0:0:
31,373,275691,6,0,P|47:349|54:315,1,62.9999980773926,8|0,0:2|0:2,0:0:0:0:
27,241,275918,1,4,0:3:0:0:
247,352,276146,6,0,P|213:355|182:367,1,67.5000025749208,8|0,0:2|0:2,0:0:0:0:
417,220,276373,2,0,P|448:231|482:235,1,67.5000025749208,8|0,0:2|0:2,0:0:0:0:
