osu file format v14

[General]
AudioFilename: audio.mp3
AudioLeadIn: 0
PreviewTime: 200892
Countdown: 0
SampleSet: Soft
StackLeniency: 0.7
Mode: 0
LetterboxInBreaks: 0
EpilepsyWarning: 1
WidescreenStoryboard: 1

[Editor]
DistanceSpacing: 0.5
BeatDivisor: 8
GridSize: 32
TimelineZoom: 1.4

[Metadata]
Title:s-AVE
TitleUnicode:s-AVE
Artist:SawanoHiroyuki[nZk]:Aimer
ArtistUnicode:SawanoHiroyuki[nZk]:Aimer
Creator:alevi
Version:my-LIGHT
Source:
Tags:エメ japanese rock jrock j-rock pop jpop j-pop female vocalist save o1 himada
BeatmapID:3453431
BeatmapSetID:1689921

[Difficulty]
HPDrainRate:5
CircleSize:3.9
OverallDifficulty:8
ApproachRate:8.6
SliderMultiplier:1.9
SliderTickRate:1

[Events]
//Background and Video events
0,0,"2560x1440-346631-Sunset-Sky-Anime-Scenery.jpg",0,0
//Break Periods
//Storyboard Layer 0 (Background)
//Storyboard Layer 1 (Fail)
//Storyboard Layer 2 (Pass)
//Storyboard Layer 3 (Foreground)
//Storyboard Layer 4 (Overlay)
//Storyboard Sound Samples

[TimingPoints]
194,800,4,2,2,45,1,0
194,-71.4285714285714,4,2,2,45,0,0
12994,-71.4285714285714,4,2,2,55,0,0
25794,-76.9230769230769,4,2,2,45,0,0
38594,-66.6666666666667,4,2,2,55,0,0
51394,-62.5,4,2,2,60,0,0
53994,-62.5,4,2,2,5,0,0
54594,-62.5,4,2,2,60,0,0
56494,-62.5,4,2,2,5,0,0
56594,-62.5,4,2,2,60,0,0
60994,-71.4285714285714,4,2,2,65,0,0
61794,-62.5,4,2,2,70,0,0
62594,-200,4,2,2,75,0,0
66594,-83.3333333333333,4,2,2,75,0,0
67406,800,4,2,2,45,1,0
67406,-55.5555555555556,4,2,2,85,0,1
67506,-55.5555555555556,4,2,2,85,0,0
80206,-55.5555555555556,4,2,2,85,0,1
80306,-55.5555555555556,4,2,2,85,0,0
92998,800,4,2,2,45,1,0
92998,-58.8235294117647,4,2,2,70,0,0
105806,800,4,2,2,45,1,0
105806,-62.5,4,2,2,55,0,0
118506,-62.5,4,2,2,5,0,0
118606,-62.5,4,2,2,55,0,0
131406,-62.5,4,2,2,60,0,0
137306,-62.5,4,2,2,5,0,0
137406,-62.5,4,2,2,60,0,0
140106,-62.5,4,2,2,5,0,0
140206,-62.5,4,2,2,60,0,0
141006,-71.4285714285714,4,2,2,65,0,0
141806,-62.5,4,2,2,70,0,0
142406,-62.5,4,2,2,70,0,0
142606,-62.5,4,2,2,75,0,0
144206,-200,4,2,2,55,0,0
146406,-83.3333333333333,4,2,2,75,0,0
146606,-62.5,4,2,2,75,0,0
147400,800,4,2,2,45,1,0
147400,-55.5555555555556,4,2,2,85,0,1
147500,-55.5555555555556,4,2,2,85,0,0
150500,-55.5555555555556,4,2,2,5,0,0
150600,-55.5555555555556,4,2,2,85,0,0
156900,-55.5555555555556,4,2,2,5,0,0
157000,-55.5555555555556,4,2,2,85,0,0
160200,-55.5555555555556,4,2,2,85,0,1
160300,-55.5555555555556,4,2,2,85,0,0
166100,-55.5555555555556,4,2,2,5,0,0
166200,-55.5555555555556,4,2,2,85,0,0
166300,-55.5555555555556,4,2,2,5,0,0
166400,-55.5555555555556,4,2,2,85,0,0
166500,-55.5555555555556,4,2,2,5,0,0
166600,-55.5555555555556,4,2,2,85,0,0
170900,-55.5555555555556,4,2,2,5,0,0
171000,-55.5555555555556,4,2,2,85,0,0
171100,-55.5555555555556,4,2,2,5,0,0
171200,-55.5555555555556,4,2,2,85,0,0
171300,-55.5555555555556,4,2,2,5,0,0
171400,-55.5555555555556,4,2,2,85,0,0
171900,-55.5555555555556,4,2,2,5,0,0
172000,-55.5555555555556,4,2,2,85,0,0
172400,-55.5555555555556,4,2,2,75,0,0
172600,-55.5555555555556,4,2,2,65,0,0
172800,-55.5555555555556,4,2,2,55,0,0
173000,-125,4,2,2,45,0,0
185800,-71.4285714285714,4,2,2,60,0,0
187700,-71.4285714285714,4,2,2,5,0,0
187800,-71.4285714285714,4,2,2,60,0,0
190500,-71.4285714285714,4,2,2,5,0,0
190600,-71.4285714285714,4,2,2,60,0,0
193500,-71.4285714285714,4,2,2,5,0,0
193600,-71.4285714285714,4,2,2,60,0,0
193900,-71.4285714285714,4,2,2,5,0,0
194000,-71.4285714285714,4,2,2,60,0,0
195300,-71.4285714285714,4,2,2,5,0,0
195400,-71.4285714285714,4,2,2,60,0,0
196500,-71.4285714285714,4,2,2,5,0,0
196600,-71.4285714285714,4,2,2,60,0,0
196700,-71.4285714285714,4,2,2,5,0,0
196800,-71.4285714285714,4,2,2,60,0,0
196900,-71.4285714285714,4,2,2,5,0,0
197029,800,4,2,2,60,1,0
197029,-71.4285714285714,4,2,2,60,0,0
198617,800,4,2,2,45,1,0
198617,-166.666666666667,4,2,2,45,0,0
200992,800,4,2,2,45,1,0
200992,-83.3333333333333,4,2,2,45,0,0
201800,800,4,2,2,45,1,0
201800,-55.5555555555556,4,2,2,85,0,1
203100,-55.5555555555556,4,2,2,5,0,1
203200,-55.5555555555556,4,2,2,85,0,1
203500,-55.5555555555556,4,2,2,5,0,1
203600,-55.5555555555556,4,2,2,85,0,1
208900,-55.5555555555556,4,2,2,5,0,1
209000,-55.5555555555556,4,2,2,85,0,1
209300,-55.5555555555556,4,2,2,5,0,1
209400,-55.5555555555556,4,2,2,85,0,1
209500,-55.5555555555556,4,2,2,5,0,1
209600,-55.5555555555556,4,2,2,85,0,1
209900,-55.5555555555556,4,2,2,5,0,1
210000,-55.5555555555556,4,2,2,85,0,1
210100,-55.5555555555556,4,2,2,5,0,1
210200,-55.5555555555556,4,2,2,85,0,1
214400,-83.3333333333333,4,2,2,85,0,1
214500,-83.3333333333333,4,2,2,5,0,0
214600,-55.5555555555556,4,2,2,85,0,1
215900,-55.5555555555556,4,2,2,5,0,1
216000,-55.5555555555556,4,2,2,85,0,1
216300,-55.5555555555556,4,2,2,5,0,1
216400,-55.5555555555556,4,2,2,85,0,1
219100,-55.5555555555556,4,2,2,5,0,1
219200,-55.5555555555556,4,2,2,85,0,1
219300,-55.5555555555556,4,2,2,5,0,1
219400,-55.5555555555556,4,2,2,85,0,1
221700,-55.5555555555556,4,2,2,5,0,1
221800,-55.5555555555556,4,2,2,85,0,1
222100,-55.5555555555556,4,2,2,5,0,1
222200,-55.5555555555556,4,2,2,85,0,1
222300,-55.5555555555556,4,2,2,5,0,1
222400,-55.5555555555556,4,2,2,85,0,1
222700,-55.5555555555556,4,2,2,5,0,1
222800,-55.5555555555556,4,2,2,85,0,1
222900,-55.5555555555556,4,2,2,5,0,1
223000,-55.5555555555556,4,2,2,85,0,1
223900,-55.5555555555556,4,2,2,5,0,1
224000,-55.5555555555556,4,2,2,85,0,1
224100,-55.5555555555556,4,2,2,5,0,1
224200,-55.5555555555556,4,2,2,85,0,1
227406,800,4,2,2,45,1,0
227406,-62.5,4,2,2,70,0,0
228706,-62.5,4,2,2,5,0,0
228806,-62.5,4,2,2,70,0,0
232106,-62.5,4,2,2,5,0,0
232206,-62.5,4,2,2,70,0,0
235106,-62.5,4,2,2,5,0,0
235206,-62.5,4,2,2,70,0,0
238306,-62.5,4,2,2,5,0,0
238406,-62.5,4,2,2,70,0,0
244706,-62.5,4,2,2,5,0,0
244806,-62.5,4,2,2,70,0,0
244906,-62.5,4,2,2,5,0,0
245006,-62.5,4,2,2,70,0,0
247906,-62.5,4,2,2,5,0,0
248006,-62.5,4,2,2,70,0,0
248106,-62.5,4,2,2,5,0,0
248206,-62.5,4,2,2,70,0,0
253006,-125,4,2,2,45,0,0
254206,-100,4,2,2,45,0,0
262606,-125,4,2,2,45,0,0
268606,-125,4,2,2,5,0,0

[Colours]
Combo1 : 141,141,141
Combo2 : 240,240,98
Combo3 : 237,113,52
Combo4 : 61,61,237
Combo5 : 19,146,206
Combo6 : 75,75,75

[HitObjects]
112,335,194,69,2,0:0:0:0:
80,269,394,1,0,0:0:0:0:
120,201,594,1,0,0:0:0:0:
77,122,794,1,2,0:0:0:0:
310,234,3394,5,2,0:0:0:0:
376,269,3594,1,0,0:0:0:0:
433,206,3794,1,0,0:0:0:0:
375,114,3994,1,2,0:0:0:0:
156,231,6594,69,2,0:0:0:0:
189,161,6794,1,0,0:0:0:0:
144,92,6994,1,0,0:0:0:0:
197,8,7194,1,2,0:0:0:0:
156,231,9794,5,2,0:0:0:0:
189,161,9994,1,0,0:0:0:0:
144,92,10194,1,0,0:0:0:0:
271,130,10394,1,2,0:0:0:0:
444,206,12994,69,2,3:2:0:0:
403,274,13194,1,0,0:0:0:0:
330,254,13394,1,0,0:0:0:0:
404,286,13594,1,0,0:0:0:0:
319,157,13794,2,0,B|272:176|272:176|258:207|258:207|209:227,1,132.999995941162,2|0,0:0|0:0,0:0:0:0:
213,225,14594,6,0,P|204:188|195:159,1,66.4999979705811,2|0,0:0|0:0,0:0:0:0:
112,171,14994,2,0,P|122:134|131:106,1,66.4999979705811
68,32,15394,2,0,P|5:50|14:123,1,132.999995941162,2|0,0:0|0:0,0:0:0:0:
31,179,15994,1,0,0:0:0:0:
130,107,16194,69,2,3:2:0:0:
174,168,16394,1,0,0:0:0:0:
253,122,16594,1,0,0:0:0:0:
318,156,16794,1,0,0:0:0:0:
406,65,16994,2,0,B|386:81|340:70|340:70|385:88|393:114,1,132.999995941162,2|0,0:0|0:0,0:0:0:0:
390,107,17794,6,0,P|397:140|402:173,1,66.4999979705811,2|0,0:0|0:0,0:0:0:0:
489,172,18194,2,0,P|481:206|476:239,1,66.4999979705811
387,281,18594,2,0,B|302:261|340:311|256:294,1,132.999995941162,2|0,0:0|0:0,0:0:0:0:
207,241,19194,1,0,0:0:0:0:
96,349,19394,69,2,3:2:0:0:
35,298,19594,1,0,0:0:0:0:
64,220,19794,1,0,0:0:0:0:
39,291,19994,1,0,0:0:0:0:
143,210,20194,2,0,B|131:151|131:151|135:134|135:134|122:74,1,132.999995941162,2|0,0:0|0:0,0:0:0:0:
123,79,20994,6,0,P|155:68|185:53,1,66.4999979705811,2|0,0:0|0:0,0:0:0:0:
252,0,21394,2,0,P|283:15|319:27,1,66.4999979705811
399,107,21794,2,0,P|338:133|346:190,1,132.999995941162,2|0,0:0|0:0,0:0:0:0:
403,237,22394,1,0,0:0:0:0:
257,336,22594,69,2,3:2:0:0:
296,271,22794,1,0,0:0:0:0:
367,310,22994,1,0,0:0:0:0:
302,277,23194,1,0,0:0:0:0:
183,363,23394,2,0,B|106:340|160:313|72:288,1,132.999995941162,2|0,0:0|0:0,0:0:0:0:
77,289,24194,6,0,P|83:254|93:223,1,66.4999979705811,2|0,0:0|0:0,0:0:0:0:
17,189,24594,2,0,P|11:154|2:123,1,66.4999979705811
87,38,24994,2,0,B|132:51|132:51|152:83|152:83|200:98,1,132.999995941162,2|0,0:0|0:0,0:0:0:0:
363,4,25794,38,0,P|414:15|415:79,1,123.499994346619,2|2,0:0|0:0,0:0:0:0:
491,91,26394,2,0,B|379:84|425:169|319:157,1,185.249991519928,2|2,0:0|0:0,0:0:0:0:
328,157,27394,1,2,0:0:0:0:
260,132,27594,1,0,0:0:0:0:
315,235,27794,1,2,0:0:0:0:
315,235,28594,2,0,P|352:222|381:214,1,61.7499971733095,2|2,0:0|0:0,0:0:0:0:
248,273,28994,6,0,B|235:303|235:303|246:340,1,61.7499971733095,2|0,0:0|0:0,0:0:0:0:
303,380,29394,1,2,0:0:0:0:
303,380,29594,2,0,B|219:358|219:358|204:345|204:345|112:320,1,185.249991519928,2|2,0:0|0:0,0:0:0:0:
128,324,30594,1,2,0:0:0:0:
65,362,30794,1,0,0:0:0:0:
7,262,30994,1,2,0:0:0:0:
16,271,31594,2,0,P|9:302|4:336,2,61.7499971733095,2|0|0,0:0|0:0|0:0,0:0:0:0:
104,212,32194,70,0,B|173:205|146:242|230:232,1,123.499994346619,2|2,0:0|0:0,0:0:0:0:
256,300,32794,2,0,B|231:187|296:239|258:117,1,185.249991519928,2|2,0:0|0:0,0:0:0:0:
258,120,33794,1,2,0:0:0:0:
294,55,33994,1,0,0:0:0:0:
183,119,34194,1,2,0:0:0:0:
183,119,34994,1,2,0:0:0:0:
149,52,35194,1,2,0:0:0:0:
249,0,35394,6,0,P|277:9|311:18,1,61.7499971733095,2|0,0:0|0:0,0:0:0:0:
375,108,35794,1,2,0:0:0:0:
375,108,35994,2,0,B|363:139|337:162|337:162|361:200|377:278,1,185.249991519928,2|2,0:0|0:0,0:0:0:0:
376,273,36994,1,2,0:0:0:0:
445,240,37194,1,0,0:0:0:0:
511,328,37394,1,2,0:0:0:0:
505,322,37994,1,2,0:0:0:0:
302,288,38594,70,0,P|264:276|230:266,1,71.2500027179719,2|0,3:2|0:0,0:0:0:0:
315,210,38994,1,2,0:0:0:0:
315,210,39194,2,0,B|397:235|346:267|429:297,1,142.500005435944,2|0,0:0|0:0,0:0:0:0:
486,260,39794,2,0,P|496:230|470:246,1,71.2500027179719,2|2,0:0|0:0,0:0:0:0:
356,339,40194,5,2,0:2:0:0:
302,288,40394,1,0,0:0:0:0:
213,355,40594,1,2,0:0:0:0:
221,346,41194,1,0,0:0:0:0:
172,290,41394,2,0,P|136:303|102:312,1,71.2500027179719,2|2,0:0|0:0,0:0:0:0:
222,233,41794,70,0,P|228:194|238:160,1,71.2500027179719,2|0,3:2|0:0,0:0:0:0:
289,288,42194,1,2,0:0:0:0:
289,288,42394,2,0,P|319:312|344:337,1,71.2500027179719,2|0,0:0|0:0,0:0:0:0:
389,191,42794,1,2,0:0:0:0:
389,191,42994,2,0,P|352:205|317:213,1,71.2500027179719,2|0,0:0|0:0,0:0:0:0:
428,269,43394,5,2,0:0:0:0:
481,216,43594,1,0,0:0:0:0:
428,122,43794,1,2,0:0:0:0:
428,122,44994,70,0,P|392:109|361:93,1,71.2500027179719,2|0,3:2|0:0,0:0:0:0:
322,25,45394,1,2,0:0:0:0:
322,25,45594,2,0,B|370:157|287:94|331:240,1,213.750008153916,2|2,0:0|0:0,0:0:0:0:
329,232,46594,1,2,0:0:0:0:
385,290,46794,1,0,0:0:0:0:
317,361,46994,1,2,0:0:0:0:
306,353,47394,5,2,0:0:0:0:
237,319,47594,1,2,0:0:0:0:
156,260,47794,69,2,0:0:0:0:
86,297,47994,1,2,0:0:0:0:
158,155,48194,6,0,P|217:166|224:246,1,142.500005435944,2|2,3:2|0:0,0:0:0:0:
156,260,48794,2,0,B|284:236|221:329|373:289,1,213.750008153916,2|2,0:0|0:0,0:0:0:0:
400,232,49594,1,2,0:0:0:0:
327,123,49794,69,2,3:2:0:0:
395,155,49994,1,0,0:0:0:0:
339,33,50194,2,0,B|271:55|271:55|238:117|238:117|166:143,1,213.750008153916,2|0,0:0|0:0,0:0:0:0:
114,95,50994,1,2,0:0:0:0:
160,29,51194,1,2,0:0:0:0:
24,73,51394,6,0,P|45:160|76:310,1,228,2|0,3:2|0:0,0:0:0:0:
58,373,52194,2,0,P|104:312|185:320,1,152,2|0,0:0|0:0,0:0:0:0:
232,376,52794,1,2,0:0:0:0:
232,376,52994,2,0,P|320:365|335:229,1,228,2|0,0:0|0:0,0:0:0:0:
301,182,53794,2,0,P|310:143|317:103,1,76,2|0,0:0|0:0,0:0:0:0:
108,25,54594,70,0,B|86:63|14:80|14:80|88:73|123:109,1,228,2|0,3:2|0:0,0:0:0:0:
171,171,55394,2,0,B|297:122|196:73|350:24,1,228,2|0,0:0|0:0,0:0:0:0:
407,67,56194,2,0,B|396:117|396:117|401:134|401:134|389:182,1,114,2|0,0:0|0:0,0:0:0:0:
391,177,56594,1,2,0:0:0:0:
214,344,56994,2,0,P|203:300|194:267,1,76,2|0,0:0|0:0,0:0:0:0:
131,236,57394,1,2,0:0:0:0:
198,172,57594,1,2,0:0:0:0:
324,294,57794,6,0,P|356:164|382:67,1,228,2|0,3:2|0:0,0:0:0:0:
452,41,58594,2,0,B|322:0|355:111|230:74,1,228,2|0,0:0|0:0,0:0:0:0:
180,23,59394,2,0,B|182:45|220:92|220:92|206:161|226:232|226:232|187:281|184:305,1,304,2|2,0:0|0:0,0:0:0:0:
0,202,60994,70,0,P|68:171|133:148,1,132.999995941162,2|2,3:2|0:0,0:0:0:0:
190,191,61594,1,2,0:0:0:0:
201,16,61794,6,0,P|266:63|323:111,1,152,2|2,3:2|0:0,0:0:0:0:
319,190,62394,1,2,0:0:0:0:
496,65,62594,70,0,P|486:164|469:254,1,190,2|2,3:2|0:0,0:0:0:0:
352,377,66594,6,0,B|392:367|392:367|411:343|411:343|455:332,1,113.999996520996,2|2,0:0|0:0,0:0:0:0:
512,384,67194,1,2,0:0:0:0:
373,233,67406,54,0,B|261:205|308:269|195:242,1,170.999994781494,4|0,1:0|0:0,0:0:0:0:
241,174,68006,1,0,0:0:0:0:
154,17,68206,2,0,P|167:63|177:106,1,85.4999973907472,10|0,0:0|0:0,0:0:0:0:
80,224,68606,1,2,0:0:0:0:
80,224,68806,2,0,P|44:210|-5:194,1,85.4999973907472,2|0,1:2|0:0,0:0:0:0:
88,129,69206,1,0,0:0:0:0:
215,310,69406,2,0,P|262:295|282:261,1,85.4999973907472,0|0,1:0|0:0,0:0:0:0:
209,88,69806,1,10,0:0:0:0:
282,123,70006,1,0,0:0:0:0:
201,79,70206,2,0,B|188:44|188:44|210:-6,1,85.4999973907472,2|0,0:0|0:0,0:0:0:0:
193,180,70606,6,0,P|113:212|24:249,1,170.999994781494,2|2,1:2|0:0,0:0:0:0:
271,213,71206,2,0,P|304:239|343:268,1,85.4999973907472,2|8,0:0|0:0,0:0:0:0:
457,171,71606,1,2,0:0:0:0:
415,236,71806,1,2,0:0:0:0:
282,123,72006,6,0,P|291:82|310:27,1,85.4999973907472,0|0,1:0|0:0,0:0:0:0:
148,191,72406,1,0,0:0:0:0:
148,191,72606,2,0,P|161:231|170:273,1,85.4999973907472,0|0,1:0|0:0,0:0:0:0:
156,86,73006,2,0,B|46:88|86:151|-2:163,1,170.999994781494,10|2,0:0|0:0,0:0:0:0:
0,83,73606,1,2,0:0:0:0:
237,12,73806,38,0,B|254:40|279:60|279:60|251:107|243:159,1,170.999994781494,0|0,1:2|0:0,0:0:0:0:
289,220,74406,1,2,0:0:0:0:
85,281,74606,2,0,B|68:240|68:240|85:201,1,85.4999973907472,10|0,0:0|0:0,0:0:0:0:
156,241,75006,1,2,0:0:0:0:
90,359,75206,2,0,P|39:373|-5:390,1,85.4999973907472,2|0,1:2|0:0,0:0:0:0:
180,326,75606,1,0,0:0:0:0:
180,326,75806,2,0,P|217:363|254:392,1,85.4999973907472,0|0,1:0|0:0,0:0:0:0:
398,265,76206,5,8,0:0:0:0:
327,295,76406,1,0,0:0:0:0:
248,109,76606,5,2,0:0:0:0:
351,157,76806,1,2,0:0:0:0:
178,233,77006,6,0,B|75:213|112:269|12:263,1,170.999994781494,2|2,1:2|0:0,0:0:0:0:
36,188,77606,1,0,0:0:0:0:
203,317,77806,2,0,B|235:215|177:247|210:143,1,170.999994781494,10|2,0:0|0:0,0:0:0:0:
326,66,78406,2,0,P|365:83|407:95,1,85.4999973907472,0|0,1:0|0:0,0:0:0:0:
252,0,78806,1,0,0:0:0:0:
252,0,79006,2,0,P|217:25|186:55,1,85.4999973907472,0|2,1:0|0:0,0:0:0:0:
43,246,79406,37,10,0:0:0:0:
114,206,79606,1,2,0:0:0:0:
237,287,79806,5,2,0:0:0:0:
106,197,80006,1,2,0:0:0:0:
294,357,80206,6,0,B|311:329|336:309|336:309|308:262|300:210,1,170.999994781494,4|0,1:0|0:0,0:0:0:0:
208,106,80806,1,0,0:0:0:0:
381,165,81006,2,0,P|422:177|468:186,1,85.4999973907472,10|0,0:0|0:0,0:0:0:0:
362,78,81406,1,2,0:0:0:0:
197,199,81606,2,0,P|155:190|114:178,1,85.4999973907472,2|0,1:2|0:0,0:0:0:0:
310,263,82006,1,0,0:0:0:0:
310,263,82206,2,0,P|319:311|326:358,1,85.4999973907472,0|0,1:0|0:0,0:0:0:0:
266,127,82606,1,10,0:0:0:0:
330,173,82806,1,0,0:0:0:0:
258,121,83006,2,0,P|264:78|272:36,1,85.4999973907472,2|0,0:0|0:0,0:0:0:0:
164,202,83406,6,0,B|65:190|109:146|0:134,1,170.999994781494,2|2,1:2|0:0,0:0:0:0:
164,17,84006,2,0,B|181:52|181:52|166:100,1,85.4999973907472,2|8,0:0|0:0,0:0:0:0:
72,259,84406,1,2,0:0:0:0:
142,294,84606,1,2,0:0:0:0:
245,184,84806,1,2,1:2:0:0:
256,348,85006,37,2,0:0:0:0:
212,256,85206,1,0,0:0:0:0:
261,357,85406,2,0,P|309:340|344:329,1,85.4999973907472,0|0,1:0|0:0,0:0:0:0:
413,137,85806,2,0,P|338:168|354:249,1,170.999994781494,10|2,0:0|0:0,0:0:0:0:
411,294,86406,1,2,0:0:0:0:
245,184,86606,6,0,B|136:167|176:224|71:221,1,170.999994781494,0|0,1:0|0:0,0:0:0:0:
172,92,87206,1,2,0:0:0:0:
44,146,87406,2,0,B|21:127|21:127|5:72,1,85.4999973907472,10|0,0:0|0:0,0:0:0:0:
128,254,87806,1,2,0:0:0:0:
178,193,88006,2,0,P|219:164|252:145,1,85.4999973907472,2|0,1:2|0:0,0:0:0:0:
128,254,88406,1,0,0:0:0:0:
128,254,88606,2,0,P|82:232|49:213,1,85.4999973907472,0|0,1:0|0:0,0:0:0:0:
138,369,89006,5,10,0:0:0:0:
207,334,89206,1,0,0:0:0:0:
278,256,89406,5,2,0:0:0:0:
379,304,89606,1,0,1:0:0:0:
382,127,89806,38,0,P|299:151|218:177,1,170.999994781494,2|2,1:2|0:0,0:0:0:0:
479,322,90606,2,0,B|446:230|513:272|472:155,1,170.999994781494,10|2,0:0|0:0,0:0:0:0:
322,28,91206,2,0,P|361:42|407:52,1,85.4999973907472,2|0,1:2|0:0,0:0:0:0:
242,105,91606,1,0,0:0:0:0:
242,105,91806,2,0,P|234:64|220:19,1,85.4999973907472,0|0,1:0|0:0,0:0:0:0:
141,187,92206,5,8,0:0:0:0:
328,117,92406,1,8,0:0:0:0:
386,281,92606,1,8,0:0:0:0:
199,350,92806,1,8,0:0:0:0:
242,105,92998,6,0,B|344:142|269:181|374:216,1,161.500003080368,6|2,1:2|0:0,0:0:0:0:
421,164,93598,1,0,0:0:0:0:
209,267,93798,2,0,P|217:225|231:181,1,80.750001540184,10|0,0:0|0:0,0:0:0:0:
135,314,94198,1,2,0:0:0:0:
135,314,94398,2,0,P|94:328|49:337,1,80.750001540184,2|0,0:0|0:0,0:0:0:0:
129,232,94798,1,2,0:2:0:0:
278,358,94998,2,0,P|317:348|355:335,1,80.750001540184,2|0,1:2|0:0,0:0:0:0:
363,116,95398,5,10,0:0:0:0:
291,149,95598,1,0,0:0:0:0:
219,251,95798,37,2,0:0:0:0:
133,118,95998,1,2,1:2:0:0:
129,109,96098,1,2,1:2:0:0:
137,97,96198,6,0,P|208:120|292:149,1,161.500003080368,4|0,1:2|0:0,0:0:0:0:
358,184,96798,1,0,0:0:0:0:
216,326,96998,2,0,B|203:292|203:292|219:249,1,80.750001540184,10|0,0:0|0:0,0:0:0:0:
286,293,97398,1,2,0:0:0:0:
141,225,97598,1,2,0:0:0:0:
86,304,97798,5,0,0:0:0:0:
256,171,97998,1,10,0:0:0:0:
137,88,98198,1,2,1:2:0:0:
181,152,98398,1,0,0:0:0:0:
304,0,98598,5,10,0:0:0:0:
242,40,98798,1,0,0:0:0:0:
137,88,98998,37,2,0:0:0:0:
52,36,99198,1,2,0:0:0:0:
115,223,99398,6,0,P|197:198|279:176,1,161.500003080368,6|2,1:2|1:2,0:0:0:0:
342,213,99998,1,0,0:0:0:0:
410,62,100198,2,0,B|371:69|371:69|336:102,1,80.750001540184,10|0,0:0|0:0,0:0:0:0:
491,77,100598,2,0,B|504:39|504:39|493:-7,1,80.750001540184,2|2,0:0|0:0,0:0:0:0:
437,151,100998,5,0,0:0:0:0:
456,226,101198,1,2,0:2:0:0:
434,140,101398,2,0,P|475:154|519:162,1,80.750001540184,2|0,1:2|0:0,0:0:0:0:
326,288,101798,2,0,P|285:302|241:310,1,80.750001540184,10|0,0:0|0:0,0:0:0:0:
307,180,102198,1,2,0:0:0:0:
373,221,102398,1,2,1:2:0:0:
288,104,102598,6,0,P|296:53|305:19,1,80.750001540184,2|0,1:2|0:0,0:0:0:0:
431,155,102998,1,2,1:2:0:0:
376,96,103198,1,0,0:0:0:0:
447,260,103398,2,0,P|456:299|462:339,1,80.750001540184,10|0,0:0|0:0,0:0:0:0:
373,221,103798,2,0,P|334:209|296:194,1,80.750001540184,2|2,0:0|1:2,0:0:0:0:
144,55,104198,38,0,P|69:83|93:165,1,161.500003080368,8|0,0:0|0:0,0:0:0:0:
189,267,104798,2,0,P|198:217|207:184,1,80.750001540184,8|2,3:3|0:2,0:0:0:0:
101,299,105198,1,8,3:3:0:0:
64,231,105398,1,6,3:0:0:0:
296,334,105806,38,0,B|383:320|358:375|451:351,1,152,6|2,1:2|0:0,0:0:0:0:
486,289,106406,1,2,0:0:0:0:
368,206,106606,1,8,0:0:0:0:
363,217,107006,1,2,0:0:0:0:
437,185,107206,1,2,0:0:0:0:
308,119,107406,38,0,P|246:141|255:216,2,152,2|0|8,0:0|1:0|0:0,0:0:0:0:
308,119,108606,1,2,0:0:0:0:
354,55,108806,1,2,0:0:0:0:
249,0,109006,2,0,P|180:27|101:49,1,152,2|0,1:2|0:0,0:0:0:0:
13,213,109606,2,0,B|25:181|25:181|8:135,1,76,2|8,0:0|0:0,0:0:0:0:
137,190,110006,1,2,0:0:0:0:
91,125,110206,1,2,0:0:0:0:
57,285,110406,38,0,P|93:301|130:321,1,76,0|2,1:0|0:0,0:0:0:0:
263,226,110806,1,0,0:0:0:0:
263,226,111006,2,0,P|227:242|190:262,1,76,0|0,1:0|0:0,0:0:0:0:
355,341,111406,2,0,B|334:257|393:289|361:188,1,152,8|0,0:0|0:0,0:0:0:0:
170,11,112206,38,0,B|154:34|105:53|105:53|158:44|183:58,1,152,2|2,1:2|0:0,0:0:0:0:
224,117,112806,1,2,0:0:0:0:
145,255,113006,2,0,B|79:237|79:237|70:228|70:228|0:209,1,152,8|2,0:0|0:0,0:0:0:0:
168,168,113606,2,0,P|195:140|231:109,1,76,2|2,0:0|0:0,0:0:0:0:
64,43,114206,2,0,P|73:80|82:127,1,76,0|0,1:0|0:0,0:0:0:0:
229,243,114606,1,8,0:0:0:0:
237,247,115006,1,2,0:0:0:0:
175,297,115206,1,2,0:0:0:0:
300,183,115406,38,0,B|390:202|344:245|426:262,1,152,2|2,1:2|0:0,0:0:0:0:
247,116,116006,2,0,B|242:85|242:85|259:42,1,76,2|8,0:0|0:0,0:0:0:0:
383,132,116406,1,2,0:0:0:0:
345,65,116606,1,2,0:0:0:0:
220,194,116806,2,0,P|153:223|75:247,1,152,0|0,1:0|0:0,0:0:0:0:
12,110,117406,2,0,P|45:134|80:166,1,76,0|0,1:0|0:0,0:0:0:0:
211,298,117806,1,8,0:0:0:0:
218,290,118206,2,0,B|267:275|267:275|275:267|275:267|332:250,1,114
347,230,118606,38,0,B|318:140|381:184|342:83,1,152,6|2,1:2|0:0,0:0:0:0:
281,34,119206,1,2,0:0:0:0:
186,179,119406,2,0,B|94:159|142:127|38:113,1,152,8|2,0:0|0:0,0:0:0:0:
186,93,120006,2,0,B|198:64|198:64|183:11,1,76,2|2,0:0|0:0,0:0:0:0:
115,55,120406,1,0,0:0:0:0:
258,141,120606,2,0,P|289:161|327:176,1,76,0|0,1:0|0:0,0:0:0:0:
178,298,121006,1,8,0:0:0:0:
183,290,121406,1,2,0:0:0:0:
250,247,121606,1,2,1:2:0:0:
131,192,121806,38,0,B|75:211|75:211|50:248|50:248|-9:269,1,152,2|2,1:2|0:0,0:0:0:0:
0,184,122406,1,2,0:0:0:0:
182,121,122606,2,0,P|167:70|156:43,1,76,8|2,0:0|0:0,0:0:0:0:
90,11,123006,1,2,0:0:0:0:
273,174,123206,2,0,P|259:209|249:246,1,76,0|2,1:0|0:0,0:0:0:0:
311,97,123606,1,0,0:0:0:0:
311,97,123806,2,0,P|286:67|260:40,1,76,0|0,1:0|0:0,0:0:0:0:
358,168,124206,1,8,0:0:0:0:
358,168,124406,2,0,B|449:142|389:116|489:98,1,152,2|0,0:0|0:0,0:0:0:0:
347,275,125006,38,0,B|294:258|294:258|267:222|267:222|218:207,1,152,2|2,1:2|0:0,0:0:0:0:
151,243,125606,1,2,0:0:0:0:
284,96,125806,2,0,P|353:114|341:195,1,152,8|2,0:0|0:0,0:0:0:0:
273,196,126406,1,2,0:0:0:0:
456,326,126606,2,0,B|430:234|486:268|449:177,1,152,2|0,0:0|1:0,0:0:0:0:
321,384,127406,37,10,0:0:0:0:
254,346,127606,1,2,0:0:0:0:
207,281,127806,37,2,0:0:0:0:
109,329,128006,1,2,1:2:0:0:
9,246,128206,38,0,B|18:181|18:181|30:167|30:167|39:96,1,152,2|2,1:2|0:0,0:0:0:0:
172,178,128806,2,0,P|139:193|102:221,1,76,2|10,0:0|0:0,0:0:0:0:
109,229,129406,1,2,0:0:0:0:
171,94,129606,1,10,0:0:0:0:
238,131,129806,1,0,0:0:0:0:
160,86,130006,1,0,1:0:0:0:
295,272,130206,1,8,0:0:0:0:
350,218,130406,2,0,B|251:224|299:264|198:277,1,152,0|8,1:0|3:3,0:0:0:0:
97,151,131006,1,10,2:3:0:0:
180,185,131206,1,6,3:0:0:0:
114,366,131406,38,0,B|121:336|143:319|143:319|126:276|114:216,1,152,6|0,1:2|0:0,0:0:0:0:
97,151,132006,1,0,0:0:0:0:
241,51,132206,2,0,B|337:73|267:113|370:140,1,152,10|0,0:0|0:0,0:0:0:0:
375,60,132806,1,0,0:0:0:0:
186,113,133006,2,0,B|170:144|170:144|182:196,1,76,2|0,0:0|0:0,0:0:0:0:
153,38,133406,2,0,P|116:14|79:-7,1,76,0|0,1:0|0:0,0:0:0:0:
19,180,133806,37,10,0:0:0:0:
82,138,134006,1,0,0:0:0:0:
38,78,134206,1,0,0:0:0:0:
212,149,134406,5,0,1:0:0:0:
274,52,134606,2,0,P|211:74|225:161,1,152,2|0,1:2|0:0,0:0:0:0:
269,203,135206,1,0,0:0:0:0:
208,341,135406,2,0,B|142:326|142:326|127:312|127:312|62:297,1,152,10|0,0:0|0:0,0:0:0:0:
10,247,136006,1,0,0:0:0:0:
81,381,136206,1,2,0:0:0:0:
186,177,136406,1,8,0:0:0:0:
162,249,136606,1,0,1:0:0:0:
80,49,137006,2,0,P|110:95|172:102,1,114,8|0,0:0|0:0,0:0:0:0:
165,104,137406,1,2,0:0:0:0:
251,52,137606,1,2,1:2:0:0:
408,146,137806,38,0,P|329:158|285:225,1,152,2|0,1:2|0:0,0:0:0:0:
336,276,138406,1,0,0:0:0:0:
126,347,138606,2,0,B|214:330|181:391|289:353,1,152,10|0,0:0|0:0,0:0:0:0:
144,212,139206,1,8,0:0:0:0:
86,268,139406,2,0,P|50:289|16:301,1,76,2|0,0:0|0:0,0:0:0:0:
240,221,139806,2,0,B|229:167|229:167|233:152|233:152|222:95,1,114,0|0,1:0|0:0,0:0:0:0:
225,109,140206,37,10,0:0:0:0:
301,85,140406,1,0,0:0:0:0:
316,12,140606,1,2,0:0:0:0:
236,31,140806,1,0,0:0:0:0:
455,190,141006,38,0,P|469:135|489:60,1,132.999995941162,6|2,1:2|0:0,0:0:0:0:
429,8,141606,1,2,1:2:0:0:
378,266,141806,38,0,P|362:211|336:115,1,152,12|2,0:0|0:0,0:0:0:0:
247,88,142406,1,10,3:3:0:0:
323,337,142606,37,4,0:0:0:0:
455,190,142806,1,10,0:0:0:0:
464,198,143206,1,0,1:0:0:0:
247,88,143406,1,8,0:0:0:0:
300,149,143606,1,0,1:0:0:0:
136,230,143806,2,0,B|137:198|137:198|156:155,1,76,2|0,0:0|0:0,0:0:0:0:
248,261,144206,22,0,B|113:221|156:316|12:268,1,237.5,2|0,0:0|0:0,0:0:0:0:
119,92,146406,2,0,P|131:101|142:110,1,28.4999991302491,0|0,1:0|1:0,0:0:0:0:
47,100,146606,2,0,B|140:122|75:160|195:182,1,152,10|2,0:0|0:0,0:0:0:0:
239,132,147206,1,2,0:0:0:0:
425,12,147400,70,0,P|353:42|375:121,1,170.999994781494,4|0,1:0|0:0,0:0:0:0:
478,217,148000,1,0,0:0:0:0:
285,264,148200,2,0,P|241:246|200:233,1,85.4999973907472,10|0,0:0|0:0,0:0:0:0:
340,199,148600,1,2,0:0:0:0:
368,299,148800,2,0,P|374:346|383:388,1,85.4999973907472,2|0,1:2|0:0,0:0:0:0:
290,344,149200,1,0,0:0:0:0:
421,171,149400,2,0,P|379:184|333:201,1,85.4999973907472,0|0,1:0|0:0,0:0:0:0:
175,333,149800,2,0,P|102:293|127:221,1,170.999994781494,10|2,0:0|0:0,0:0:0:0:
257,159,150400,2,0,P|264:180|271:209,1,42.7499986953736,0|0,1:0|0:0,0:0:0:0:
332,115,150600,6,0,P|308:185|285:282,1,170.999994781494,2|2,1:2|0:0,0:0:0:0:
502,379,151200,2,0,B|497:345|497:345|463:307,1,85.4999973907472,2|8,0:0|0:0,0:0:0:0:
306,384,151600,1,2,0:0:0:0:
357,326,151800,1,2,0:0:0:0:
230,174,152000,6,0,P|189:191|135:203,1,85.4999973907472,0|0,1:0|0:0,0:0:0:0:
284,66,152400,1,0,1:0:0:0:
284,66,152600,2,0,P|325:83|379:95,1,85.4999973907472,0|0,1:0|0:0,0:0:0:0:
264,259,153000,2,0,B|239:142|298:192|265:88,1,170.999994781494,10|2,0:0|0:0,0:0:0:0:
205,36,153600,1,2,0:0:0:0:
19,175,153800,38,0,B|12:160|-14:158|-14:158|20:152|73:173|30:193|107:213,1,170.999994781494,0|0,1:0|0:0,0:0:0:0:
196,285,154400,1,2,0:0:0:0:
290,144,154600,2,0,P|242:160|205:170,1,85.4999973907472,10|0,0:0|0:0,0:0:0:0:
276,65,155000,1,2,0:0:0:0:
370,167,155200,2,0,P|407:200|435:227,1,85.4999973907472,2|0,1:2|0:0,0:0:0:0:
423,108,155600,1,0,0:0:0:0:
288,268,155800,2,0,B|281:309|281:309|311:359,1,85.4999973907472,0|0,1:0|0:0,0:0:0:0:
197,167,156200,5,8,0:0:0:0:
128,206,156400,1,0,0:0:0:0:
227,60,156600,5,2,0:0:0:0:
342,114,156800,2,0,P|336:86|329:66,1,42.7499986953736,2|0,1:2|0:0,0:0:0:0:
358,193,157000,2,0,P|378:96|402:27,1,170.999994781494,2|0,1:2|0:0,0:0:0:0:
476,0,157600,1,0,0:0:0:0:
271,148,157800,2,0,B|185:98|255:80|147:29,1,170.999994781494,10|2,0:0|0:0,0:0:0:0:
57,156,158400,2,0,P|102:139|141:118,1,85.4999973907472,0|0,1:0|0:0,0:0:0:0:
189,282,158800,1,0,0:0:0:0:
189,282,159000,2,0,P|151:251|114:228,1,85.4999973907472,0|2,1:0|0:0,0:0:0:0:
0,373,159400,5,10,0:0:0:0:
68,336,159600,1,2,0:0:0:0:
218,383,159800,37,10,0:0:0:0:
43,258,160000,1,10,0:0:0:0:
286,170,160200,6,0,B|347:192|347:192|373:228|373:228|437:250,1,170.999994781494,4|0,1:0|0:0,0:0:0:0:
315,300,160800,1,0,0:0:0:0:
214,110,161000,2,0,P|171:128|123:140,1,85.4999973907472,10|0,0:0|0:0,0:0:0:0:
221,16,161400,1,2,0:0:0:0:
365,139,161600,2,0,P|410:160|453:172,1,85.4999973907472,2|0,1:2|0:0,0:0:0:0:
329,0,162000,1,0,0:0:0:0:
329,0,162200,2,0,P|318:44|311:94,1,85.4999973907472,0|0,1:0|0:0,0:0:0:0:
165,206,162600,1,10,0:0:0:0:
242,270,162800,1,0,0:0:0:0:
156,198,163000,2,0,P|149:155|138:114,1,85.4999973907472,2|0,0:0|0:0,0:0:0:0:
242,270,163400,6,0,B|301:287|301:287|331:326|331:326|392:343,1,170.999994781494,2|2,1:2|0:0,0:0:0:0:
158,303,164000,2,0,P|125:326|85:358,1,85.4999973907472,2|8,0:0|0:0,0:0:0:0:
25,178,164400,1,2,0:0:0:0:
101,210,164600,1,2,0:0:0:0:
9,319,164800,1,2,1:2:0:0:
89,354,165000,5,0,0:0:0:0:
42,254,165200,1,0,0:0:0:0:
95,364,165400,2,0,P|143:347|178:336,1,85.4999973907472,0|0,1:0|0:0,0:0:0:0:
325,260,165800,2,0,B|414:280|363:297|436:321,1,128.249996086121,10|0,0:0|0:0,0:0:0:0:
463,305,166200,2,0,P|469:283|475:263,1,42.7499986953736,10|0,3:3|0:0,0:0:0:0:
381,147,166400,2,0,P|387:167|392:188,1,42.7499986953736,6|0,3:3|0:0,0:0:0:0:
270,352,166600,38,0,P|191:298|216:238,1,170.999994781494,4|0,1:0|0:0,0:0:0:0:
277,200,167200,1,2,0:0:0:0:
114,112,167400,2,0,B|133:134|133:134|140:191,1,85.4999973907472,10|0,0:0|0:0,0:0:0:0:
54,168,167800,1,2,0:0:0:0:
158,41,168000,2,0,P|202:28|242:8,1,85.4999973907472,2|0,1:2|0:0,0:0:0:0:
75,40,168400,1,0,0:0:0:0:
75,40,168600,2,0,P|29:18|-4:-1,1,85.4999973907472,0|0,1:0|0:0,0:0:0:0:
190,149,169000,5,10,0:0:0:0:
259,111,169200,1,0,0:0:0:0:
359,139,169400,5,2,0:0:0:0:
223,40,169600,1,0,1:0:0:0:
454,106,169800,6,0,P|442:191|429:278,1,170.999994781494,6|2,1:2|0:0,0:0:0:0:
365,317,170400,1,2,1:2:0:0:
166,217,170600,2,0,B|87:242|138:273|54:302,1,128.249996086121,12|0,0:0|0:0,0:0:0:0:
45,273,171000,2,0,P|40:250|34:229,1,42.7499986953736,2|0,1:2|0:0,0:0:0:0:
130,108,171200,2,0,P|124:128|119:149,1,42.7499986953736,0|0,1:0|0:0,0:0:0:0:
32,55,171400,37,8,0:0:0:0:
232,151,171600,2,0,P|295:134|366:116,1,128.249996086121,8|0,3:3|0:0,0:0:0:0:
356,118,172000,2,0,B|376:155|376:155|361:201,1,85.4999973907472,8|0,3:3|0:0,0:0:0:0:
187,298,172400,5,6,3:3:0:0:
320,369,172600,1,6,3:3:0:0:
297,239,172800,69,2,0:0:0:0:
264,305,173000,2,0,B|161:319|223:366|124:379,1,152,2|2,3:2|0:0,0:0:0:0:
35,173,174600,6,0,P|71:182|114:194,1,76,2|2,3:2|0:0,0:0:0:0:
170,243,175200,2,0,B|219:227|219:227|227:218|227:218|276:201,1,114,2|2,0:0|0:0,0:0:0:0:
185,41,176200,69,2,3:2:0:0:
179,56,176400,1,0,0:0:0:0:
208,123,176600,1,0,0:0:0:0:
149,177,176800,2,0,B|100:161|100:161|92:152|92:152|43:135,1,114,2|0,0:0|0:0,0:0:0:0:
18,64,177600,2,0,P|24:40|29:18,1,38,2|0,0:0|3:0,0:0:0:0:
18,64,178800,5,2,0:0:0:0:
60,126,179000,1,2,0:0:0:0:
138,96,179200,1,2,0:0:0:0:
232,167,179400,70,0,B|224:217|224:217|227:228|227:228|218:282,1,114,2|2,3:2|0:0,0:0:0:0:
148,317,180200,2,0,P|123:308|106:302,1,38,2|0,0:0|0:0,0:0:0:0:
255,379,181000,6,0,P|291:362|326:350,1,76,2|2,3:2|0:0,0:0:0:0:
371,289,181600,2,0,B|439:306|407:327|478:346,1,114,2|2,0:0|0:0,0:0:0:0:
512,282,182400,1,2,0:0:0:0:
470,184,182600,69,2,3:2:0:0:
456,177,182800,1,0,0:0:0:0:
388,202,183000,1,0,0:0:0:0:
328,151,183200,2,0,P|335:106|343:62,1,76,2|0,0:0|0:0,0:0:0:0:
340,76,184000,1,2,0:0:0:0:
277,11,184200,5,0,3:0:0:0:
263,21,184400,1,0,0:0:0:0:
230,7,184600,1,0,0:0:0:0:
167,49,184800,2,0,P|174:94|182:138,1,76,2|0,0:0|0:0,0:0:0:0:
138,184,185400,1,2,0:0:0:0:
62,158,185600,1,2,0:0:0:0:
154,266,185800,70,0,B|238:242|177:227|276:206,1,132.999995941162,6|2,1:2|0:0,0:0:0:0:
332,258,186400,1,2,0:0:0:0:
138,184,186600,2,0,B|132:154|132:154|154:106,1,66.4999979705811,8|0,0:0|0:0,0:0:0:0:
218,87,187000,1,0,1:0:0:0:
71,4,187200,6,0,P|83:40|93:81,1,66.4999979705811,8|0,3:3|1:0,0:0:0:0:
32,150,187600,2,0,P|14:142|-8:132,1,33.2499989852906,4|0,0:3|0:0,0:0:0:0:
77,211,187800,2,0,P|106:197|142:181,1,66.4999979705811,0|0,1:0|0:0,0:0:0:0:
27,271,188200,2,0,B|17:297|17:297|35:352,1,66.4999979705811,8|0,0:0|0:0,0:0:0:0:
149,369,188600,1,2,0:0:0:0:
102,305,188800,1,2,1:2:0:0:
204,214,189000,70,0,B|282:237|232:267|310:292,1,132.999995941162,2|2,1:2|0:0,0:0:0:0:
323,217,189600,1,2,0:0:0:0:
185,133,189800,2,0,B|144:151|144:151|123:185|123:185|79:204,1,132.999995941162,8|2,0:0|1:2,0:0:0:0:
16,102,190400,2,0,P|12:114|7:134,1,33.2499989852906,10|0,3:3|0:0,0:0:0:0:
63,38,190600,5,4,3:0:0:0:
129,73,190800,1,0,0:0:0:0:
185,133,191000,69,0,1:0:0:0:
271,93,191200,1,0,1:0:0:0:
394,152,191400,6,0,B|383:211|383:211|385:226|385:226|374:282,1,132.999995941162,8|0,0:0|1:0,0:0:0:0:
313,330,192000,1,0,1:0:0:0:
230,312,192200,70,0,P|194:324|158:337,1,66.4999979705811,6|0,1:2|0:0,0:0:0:0:
284,251,192600,2,0,P|291:213|298:176,1,66.4999979705811,2|0,0:0|0:0,0:0:0:0:
313,330,193000,2,0,P|341:355|370:379,1,66.4999979705811,10|0,0:0|0:0,0:0:0:0:
432,273,193400,2,0,P|416:280|396:287,1,33.2499989852906,10|0,3:3|0:0,0:0:0:0:
510,315,193600,2,0,B|518:272|518:272|496:215,1,99.7499969558717,8|0,3:3|0:0,0:0:0:0:
497,219,194000,5,4,0:3:0:0:
410,163,194200,1,6,0:3:0:0:
471,114,194400,1,0,1:0:0:0:
358,226,194600,2,0,B|283:206|312:247|226:228,1,132.999995941162,10|2,0:0|1:2,0:0:0:0:
241,125,195200,2,0,P|248:140|254:155,1,33.2499989852906,0|0,1:0|0:0,0:0:0:0:
173,284,195400,69,2,1:2:0:0:
62,227,195600,1,0,1:0:0:0:
162,278,195800,1,2,0:0:0:0:
162,203,196000,1,2,1:2:0:0:
85,324,196200,2,0,P|73:272|62:227,1,99.7499969558717,8|0,0:0|0:0,0:0:0:0:
40,204,196600,2,0,P|26:208|3:216,1,33.2499989852906,2|0,1:2|0:0,0:0:0:0:
76,127,196800,2,0,P|86:137|104:153,1,33.2499989852906,10|0,3:3|0:0,0:0:0:0:
8,80,197029,5,0,1:0:0:0:
30,3,197229,1,0,1:0:0:0:
76,127,197429,69,8,0:3:0:0:
13,85,197629,1,8,0:3:0:0:
165,77,197829,5,0,1:0:0:0:
83,123,198029,1,0,1:0:0:0:
297,175,198229,69,8,1:3:0:0:
174,84,198429,1,8,1:3:0:0:
287,54,198617,22,0,P|271:147|241:341,1,284.999991302491,2|0,3:0|0:0,0:0:0:0:
241,335,200992,2,0,B|222:328|184:339|184:339|219:322|229:301,1,113.999996520996,2|2,0:0|0:0,0:0:0:0:
289,259,201592,1,2,0:0:0:0:
138,122,201800,70,0,B|35:154|104:191|9:226,1,170.999994781494,4|0,1:0|0:0,0:0:0:0:
122,268,202400,1,0,1:0:0:0:
214,79,202600,2,0,B|228:46|228:46|210:-6,1,85.4999973907472,10|0,0:0|0:0,0:0:0:0:
217,161,203000,2,0,P|236:171|260:185,1,42.7499986953736,2|0,1:2|0:0,0:0:0:0:
129,29,203200,2,0,P|76:56|10:95,1,128.249996086121,2|0,1:2|0:0,0:0:0:0:
16,91,203600,1,0,1:0:0:0:
122,210,203800,2,0,P|130:164|139:124,1,85.4999973907472,0|0,1:0|0:0,0:0:0:0:
0,276,204200,1,10,0:0:0:0:
47,215,204400,2,0,B|126:232|70:263|168:284,1,128.249996086121,0|0,1:0|0:0,0:0:0:0:
222,246,204800,2,0,P|243:238|256:234,2,28.4999991302491,2|2|2,3:0|3:0|3:0,0:0:0:0:
202,220,205000,6,0,B|184:142|184:142|187:127|187:127|169:42,1,170.999994781494,2|2,1:2|0:0,0:0:0:0:
317,123,205600,1,2,1:2:0:0:
152,280,205800,2,0,P|117:310|86:344,1,85.4999973907472,8|2,0:0|0:0,0:0:0:0:
260,304,206200,2,0,P|303:318|348:328,1,85.4999973907472,2|0,1:2|0:0,0:0:0:0:
462,133,206600,5,0,0:0:0:0:
368,191,206800,1,0,1:0:0:0:
317,123,207000,37,0,0:0:0:0:
456,227,207200,1,0,1:0:0:0:
189,310,207400,6,0,B|111:284|111:284|103:273|103:273|30:247,1,170.999994781494,10|2,0:0|0:0,0:0:0:0:
0,180,208000,1,2,0:0:0:0:
218,384,208200,6,0,B|197:283|267:323|228:208,1,170.999994781494,0|0,1:0|0:0,0:0:0:0:
156,96,208800,2,0,P|151:114|146:141,1,42.7499986953736,2|0,1:2|0:0,0:0:0:0:
321,36,209000,2,0,B|373:55|373:55|386:75|386:75|441:95,1,128.249996086121,10|0,0:0|0:0,0:0:0:0:
458,72,209400,2,0,P|454:50|448:30,1,42.7499986953736,2|0,1:2|0:0,0:0:0:0:
394,168,209600,2,0,P|340:213|291:263,1,128.249996086121,2|0,1:2|0:0,0:0:0:0:
268,251,210000,2,0,P|249:242|227:234,1,42.7499986953736,0|0,1:0|0:0,0:0:0:0:
399,302,210200,2,0,B|414:336|414:336|396:389,1,85.4999973907472,0|0,1:0|0:0,0:0:0:0:
182,297,210600,1,8,0:0:0:0:
252,334,210800,2,0,P|260:286|268:250,1,85.4999973907472,0|2,1:0|0:0,0:0:0:0:
198,166,211200,1,2,3:0:0:0:
189,158,211300,1,2,3:0:0:0:
175,157,211400,6,0,B|79:196|152:235|44:280,1,170.999994781494,2|2,1:2|0:0,0:0:0:0:
0,151,212000,1,0,1:0:0:0:
196,256,212200,2,0,P|208:298|220:348,1,85.4999973907472,10|0,0:0|0:0,0:0:0:0:
342,208,212600,1,2,1:2:0:0:
309,278,212800,1,0,0:0:0:0:
414,332,213000,37,0,0:0:0:0:
209,158,213200,1,8,0:0:0:0:
270,112,213400,1,0,0:0:0:0:
202,164,213600,1,0,1:0:0:0:
383,31,213800,5,10,0:0:0:0:
457,169,214000,1,8,3:3:0:0:
493,73,214200,5,6,0:3:0:0:
374,190,214400,2,0,P|360:183|344:176,1,28.4999991302491,6|0,1:2|0:0,0:0:0:0:
457,169,214600,6,0,B|350:193|422:237|312:266,1,170.999994781494,4|0,1:0|0:0,0:0:0:0:
370,372,215200,1,0,1:0:0:0:
241,225,215400,2,0,B|241:191|241:191|262:142,1,85.4999973907472,10|0,0:0|0:0,0:0:0:0:
322,263,215800,2,0,P|341:272|366:288,1,42.7499986953736,2|0,1:2|0:0,0:0:0:0:
195,306,216000,2,0,P|143:328|73:347,1,128.249996086121,2|0,1:2|0:0,0:0:0:0:
74,347,216400,1,0,1:0:0:0:
0,194,216600,2,0,P|37:209|86:223,1,85.4999973907472,0|0,1:0|0:0,0:0:0:0:
298,124,217000,1,10,0:0:0:0:
228,161,217200,2,0,P|178:116|208:63,1,128.249996086121,0|0,1:0|0:0,0:0:0:0:
264,27,217600,2,0,P|261:15|256:-1,2,28.4999991302491,2|2|2,3:0|3:0|3:0,0:0:0:0:
295,37,217800,38,0,B|353:53|353:53|378:99|378:99|438:118,1,170.999994781494,2|2,1:2|0:0,0:0:0:0:
318,217,218400,1,2,1:2:0:0:
477,334,218600,5,8,0:0:0:0:
453,259,218800,1,2,0:0:0:0:
282,358,219000,6,0,P|305:369|329:381,1,42.7499986953736,2|0,1:2|0:0,0:0:0:0:
227,289,219200,2,0,P|204:300|180:312,1,42.7499986953736,2|0,0:0|0:0,0:0:0:0:
65,375,219400,5,2,0:0:0:0:
20,243,219600,1,0,1:0:0:0:
101,220,219800,37,0,0:0:0:0:
0,320,220000,1,0,1:0:0:0:
126,121,220200,6,0,P|200:137|199:221,1,170.999994781494,10|2,0:0|0:0,0:0:0:0:
149,277,220800,1,2,0:0:0:0:
392,358,221000,6,0,B|291:323|322:387|218:354,1,170.999994781494,4|0,1:0|0:0,0:0:0:0:
291,203,221600,2,0,P|296:222|300:247,1,42.7499986953736,2|0,1:2|0:0,0:0:0:0:
127,367,221800,2,0,B|75:343|75:343|65:323|65:323|20:303,1,128.249996086121,10|0,0:0|0:0,0:0:0:0:
9,274,222200,2,0,P|12:252|17:232,1,42.7499986953736,2|0,1:2|0:0,0:0:0:0:
120,109,222400,2,0,P|153:158|220:161,1,128.249996086121,2|0,1:2|0:0,0:0:0:0:
236,136,222800,2,0,P|232:116|227:95,1,42.7499986953736,0|0,1:0|0:0,0:0:0:0:
311,183,223000,2,0,B|346:191|346:191|393:166,1,85.4999973907472,0|0,1:0|0:0,0:0:0:0:
197,294,223400,1,10,0:0:0:0:
273,274,223600,2,0,P|206:249|132:227,1,128.249996086121,0|0,1:0|0:0,0:0:0:0:
125,251,224000,2,0,P|119:271|110:303,1,42.7499986953736,0|0,1:0|0:0,0:0:0:0:
311,183,224200,6,0,B|420:210|341:251|452:280,1,170.999994781494,6|2,1:2|0:0,0:0:0:0:
498,224,224800,1,2,1:2:0:0:
287,65,225000,2,0,B|226:87|226:87|209:134|209:134|150:160,1,170.999994781494,12|2,0:0|0:0,0:0:0:0:
401,64,225600,1,8,0:0:0:0:
367,133,225800,1,0,1:0:0:0:
141,5,226133,5,8,0:0:0:0:
150,13,226200,21,8,0:0:0:0:
287,65,226400,1,8,3:3:0:0:
233,147,226600,5,8,0:3:0:0:
138,191,226800,1,8,3:3:0:0:
191,274,227000,5,6,3:3:0:0:
264,301,227200,1,4,3:3:0:0:
393,148,227406,6,0,P|321:158|316:229,1,152,6|0,1:0|0:0,0:0:0:0:
450,298,228006,2,0,B|460:268|460:268|440:224,1,76,0|8,1:0|0:0,0:0:0:0:
230,319,228606,2,0,P|248:309|266:299,1,38,2|0,1:2|0:0,0:0:0:0:
294,373,228806,2,0,B|225:351|225:351|219:342|219:342|141:317,1,152,0|0,1:0|1:0,0:0:0:0:
48,365,229406,1,0,1:0:0:0:
182,174,229806,1,8,0:0:0:0:
150,245,230006,2,0,B|124:152|184:198|152:88,1,152,0|0,1:0|0:0,0:0:0:0:
266,26,230606,38,0,B|354:52|297:90|381:118,1,152,0|2,1:0|0:0,0:0:0:0:
506,35,231206,2,0,B|480:46|480:46|460:96,1,76,0|8,1:0|0:0,0:0:0:0:
512,278,231806,2,0,P|451:262|390:242,1,114,2|0,1:2|0:0,0:0:0:0:
402,246,232206,5,0,0:0:0:0:
340,287,232406,1,0,1:0:0:0:
282,343,232606,5,0,0:0:0:0:
193,302,232806,1,0,1:0:0:0:
47,383,233006,6,0,B|35:312|35:312|28:303|28:303|17:230,1,152,10|2,0:0|0:0,0:0:0:0:
60,170,233606,1,0,1:2:0:0:
215,71,233806,38,0,B|320:85|243:119|380:137,1,152,4|0,1:2|0:0,0:0:0:0:
205,229,234406,2,0,P|209:196|217:153,1,76,0|8,1:0|0:0,0:0:0:0:
383,309,235006,2,0,P|379:291|374:271,1,38,2|0,1:2|0:0,0:0:0:0:
459,307,235206,2,0,B|354:321|431:355|294:373,1,152,0|0,1:0|1:0,0:0:0:0:
209,309,235806,1,0,1:0:0:0:
350,141,236206,1,10,0:0:0:0:
284,185,236406,2,0,P|210:151|228:86,1,152,0|0,1:0|1:0,0:0:0:0:
372,11,237006,6,0,B|419:29|419:29|445:71|445:71|495:92,1,152,4|0,1:2|0:0,0:0:0:0:
506,16,237606,1,0,1:0:0:0:
350,141,237806,5,8,0:0:0:0:
287,93,238006,2,0,B|220:121|258:140|186:173,1,114,0|0,1:0|0:0,0:0:0:0:
201,165,238406,1,10,0:0:0:0:
170,96,238606,5,0,1:0:0:0:
318,258,238806,1,8,0:0:0:0:
308,248,239206,1,0,1:0:0:0:
122,373,239406,1,8,0:0:0:0:
169,252,239606,37,0,3:0:0:0:
203,267,239706,1,0,3:0:0:0:
224,293,239806,1,2,3:0:0:0:
236,320,239906,1,0,3:0:0:0:
257,335,240006,1,0,3:0:0:0:
279,340,240106,1,0,3:0:0:0:
295,339,240206,6,0,B|363:318|363:318|370:310|370:310|448:286,1,152,4|0,0:0|0:0,0:0:0:0:
335,143,240806,2,0,B|323:169|323:169|339:223,1,76,0|8,1:0|0:0,0:0:0:0:
458,52,241406,1,2,0:0:0:0:
486,124,241606,1,0,1:0:0:0:
455,42,241806,5,0,0:0:0:0:
386,77,242006,1,0,1:0:0:0:
335,143,242206,5,0,1:0:0:0:
252,105,242406,1,0,0:0:0:0:
109,229,242606,37,8,0:0:0:0:
200,273,242806,2,0,B|184:208|184:208|188:193|188:193|172:125,1,152,0|0,1:0|1:0,0:0:0:0:
344,65,243406,6,0,B|434:94|370:129|470:166,1,152,0|2,1:0|0:0,0:0:0:0:
252,105,244006,2,0,B|246:72|246:72|267:26,1,76,0|10,1:0|0:0,0:0:0:0:
350,217,244606,2,0,P|345:196|339:173,1,38,2|0,1:2|0:0,0:0:0:0:
464,123,244806,2,0,P|459:141|454:159,1,38,0|0,1:0|0:0,0:0:0:0:
423,239,245006,5,0,0:0:0:0:
252,105,245206,1,8,0:0:0:0:
322,58,245406,1,0,0:0:0:0:
259,101,245606,1,0,1:0:0:0:
423,239,245806,1,8,0:0:0:0:
350,217,246006,2,0,P|288:239|303:327,1,152,0|0,1:0|0:0,0:0:0:0:
177,384,246606,6,0,B|114:359|114:359|105:344|105:344|42:316,1,152,4|2,1:2|0:0,0:0:0:0:
229,319,247206,2,0,P|240:277|256:238,1,76,0|10,1:0|0:0,0:0:0:0:
132,106,247806,2,0,P|139:126|145:148,1,38,2|0,1:2|0:0,0:0:0:0:
239,51,248006,2,0,P|232:68|227:87,1,38,0|0,1:0|0:0,0:0:0:0:
160,6,248206,37,2,0:0:0:0:
232,46,248406,1,0,1:0:0:0:
346,99,248606,2,0,P|385:86|426:74,1,76,0|0,1:0|0:0,0:0:0:0:
259,243,249006,1,8,0:0:0:0:
291,321,249206,2,0,B|269:236|322:275|291:170,1,152,0|8,1:0|3:3,0:0:0:0:
180,108,249806,5,4,1:2:0:0:
393,255,250006,2,0,P|401:214|411:175,1,76,8|0,0:0|0:0,0:0:0:0:
479,133,250406,1,0,1:0:0:0:
259,243,250606,1,8,0:0:0:0:
232,172,250806,1,0,1:0:0:0:
158,196,251006,1,0,1:0:0:0:
267,250,251206,1,8,3:0:0:0:
74,328,251406,5,0,1:0:0:0:
93,254,251606,1,0,1:0:0:0:
213,98,251806,5,8,0:0:0:0:
232,172,252006,1,0,1:0:0:0:
21,47,252206,37,8,0:0:0:0:
123,154,252406,1,8,3:3:0:0:
142,24,252606,5,4,3:0:0:0:
90,84,252806,1,4,3:3:0:0:
232,172,253006,38,0,B|334:144|300:224|429:175,1,190,2|0,0:0|0:0,0:0:0:0:
460,118,254206,2,0,P|445:188|433:264,1,142.5,2|0,0:0|0:0,0:0:0:0:
361,291,255006,2,0,P|334:280|303:269,1,47.5,2|2,0:0|0:0,0:0:0:0:
247,312,255406,1,0,0:0:0:0:
247,312,255606,2,0,B|206:299|206:299|196:288|196:288|154:274,1,95,2|0,0:0|0:0,0:0:0:0:
95,199,256206,70,0,P|120:139|195:144,1,142.5,2|2,0:0|0:0,0:0:0:0:
243,194,257006,1,2,0:0:0:0:
255,199,257206,1,2,0:0:0:0:
321,170,257406,1,2,0:0:0:0:
297,87,257606,5,2,0:0:0:0:
305,91,258206,1,2,0:0:0:0:
226,18,258606,1,2,0:0:0:0:
226,18,258806,2,0,B|185:31|185:31|175:42|175:42|133:56,1,95,2|2,0:0|0:0,0:0:0:0:
68,123,259406,70,0,P|77:160|90:227,1,95,2|2,0:0|0:0,0:0:0:0:
200,141,260206,1,2,0:0:0:0:
261,191,260406,2,0,P|252:228|239:295,1,95,2|2,0:0|0:0,0:0:0:0:
353,377,261006,6,0,P|344:340|331:273,1,95,2|2,0:0|0:0,0:0:0:0:
221,359,261806,1,2,0:0:0:0:
160,309,262006,2,0,P|169:272|182:205,1,95,2|2,0:0|0:0,0:0:0:0:
290,123,262606,70,0,P|297:153|308:209,1,76,2|2,0:0|0:0,0:0:0:0:
406,134,263406,1,2,0:0:0:0:
465,188,263606,2,0,P|457:219|446:277,1,76,2|2,0:0|0:0,0:0:0:0:
488,105,264606,5,2,0:0:0:0:
256,192,264706,12,0,268606,0:0:0:0:
