osu file format v14

[General]
AudioFilename: audio.mp3
AudioLeadIn: 0
PreviewTime: 87786
Countdown: 0
SampleSet: Soft
StackLeniency: 0.7
Mode: 0
LetterboxInBreaks: 0
WidescreenStoryboard: 0

[Editor]
DistanceSpacing: 1.8
BeatDivisor: 8
GridSize: 32
TimelineZoom: 2.1

[Metadata]
Title:ninelie
TitleUnicode:ninelie
Artist:SawanoHiroyuki[nZk]:Aimer
ArtistUnicode:SawanoHiroyuki[nZk]:Aimer
Creator:alevi
Version:Unwavering
Source:甲鉄城のカバネリ
Tags:japanese rock jrock j-rock pop jpop j-pop anime female vocals vocalist koutetsujou no kabaneri of the iron fortress 澤野弘之 sawano hiroyuki エメ version 2V-ALK
BeatmapID:4234239
BeatmapSetID:2031510

[Difficulty]
HPDrainRate:5
CircleSize:4.3
OverallDifficulty:8
ApproachRate:8.1
SliderMultiplier:2.1
SliderTickRate:1

[Events]
//Background and Video events
0,0,"F0bChYpagAE9H27.jpg",0,0
//Break Periods
//Storyboard Layer 0 (Background)
//Storyboard Layer 1 (Fail)
//Storyboard Layer 2 (Pass)
//Storyboard Layer 3 (Foreground)
//Storyboard Layer 4 (Overlay)
//Storyboard Sound Samples

[TimingPoints]
316,697.674418604651,4,2,1,50,1,0
23339,-500,4,2,1,50,0,0
33804,-125,4,2,1,60,0,0
34763,-125,4,2,1,5,0,0
34850,-125,4,2,1,60,0,0
37379,-125,4,2,1,5,0,0
37815,-125,4,2,1,60,0,0
40344,-125,4,2,1,5,0,0
40432,-125,4,2,1,60,0,0
42961,-125,4,2,1,5,0,0
43397,-125,4,2,1,60,0,0
44967,-125,4,2,1,45,0,0
49502,-166.666666666667,4,2,1,45,0,0
50548,-500.000000000003,4,2,1,45,0,0
51943,-166.666666666667,4,2,1,45,0,0
56129,-90.9090909090909,4,2,1,55,0,0
59879,-90.9090909090909,4,2,1,5,0,0
59967,-90.9090909090909,4,2,1,55,0,0
61711,-83.3333333333333,4,2,1,55,0,0
62409,-90.9090909090909,4,2,1,55,0,0
64763,-90.9090909090909,4,2,1,5,0,0
64850,-90.9090909090909,4,2,1,55,0,0
67292,-142.857142857143,4,2,1,60,0,0
67990,-90.9090909090909,4,2,1,60,0,0
68077,-90.9090909090909,4,2,1,5,0,0
68339,-90.9090909090909,4,2,1,60,0,0
68688,-142.857142857143,4,2,1,60,0,0
69385,-111.111111111111,4,2,1,60,0,0
70083,-90.9090909090908,4,2,1,60,0,0
73397,-142.857142857143,4,2,1,60,0,0
74095,-90.909090909091,4,2,1,60,0,0
74967,-142.857142857143,4,2,1,60,0,0
75839,-200.000000000001,4,2,1,60,0,0
76188,-1000,4,2,1,60,0,0
77757,-166.666666666667,4,2,1,60,0,0
78455,-166.666666666667,4,2,1,45,0,0
81246,-500.000000000003,4,2,1,45,0,0
83339,-200,4,2,1,45,0,0
86914,-200,4,2,1,5,0,0
89618,-76.9230769230769,4,2,2,75,0,0
89967,-76.9230769230769,4,2,1,75,0,0
90315,-90.9090909090909,4,2,1,75,0,0
92409,-76.9230769230769,4,2,1,75,0,0
92670,-76.9230769230769,4,2,1,5,0,0
92757,-90.9090909090909,4,2,1,75,0,0
93106,-111.111111111111,4,2,1,75,0,0
95199,-76.9230769230769,4,2,1,75,0,0
95460,-76.9230769230769,4,2,1,5,0,0
95548,-76.9230769230769,4,2,1,75,0,0
96507,-76.9230769230769,4,2,1,5,0,0
96595,-76.9230769230769,4,2,1,75,0,0
97990,-66.6666666666667,4,2,1,75,0,0
98251,-66.6666666666667,4,2,1,5,0,0
98339,-90.9090909090909,4,2,1,75,0,0
100781,-76.9230769230769,4,2,1,75,0,0
101129,-76.9230769230769,4,2,1,75,0,0
103571,-66.6666666666667,4,2,1,75,0,0
103832,-66.6666666666667,4,2,1,5,0,0
103920,-90.9090909090909,4,2,1,75,0,0
106362,-66.6666666666667,4,2,1,75,0,0
106623,-66.6666666666667,4,2,1,5,0,0
106711,-76.9230769230769,4,2,1,75,0,0
111943,-500,4,2,1,75,0,0
114036,-500,4,2,1,5,0,0
114734,697.674418604651,4,2,1,50,1,0
114734,-71.4285714285714,4,2,2,75,0,0
114995,-71.4285714285714,4,2,2,5,0,0
115082,-71.4285714285714,4,2,1,75,0,0
115780,-83.3333333333333,4,2,1,75,0,0
125896,-66.6666666666667,4,2,1,75,0,0
126158,-66.6666666666667,4,2,1,5,0,0
126245,-83.3333333333333,4,2,1,75,0,0
135751,-83.3333333333333,4,2,1,5,0,0
135838,-83.3333333333333,4,2,1,75,0,0
136013,-100,4,2,1,75,0,0
137060,-100,4,2,1,65,0,0
154763,-100,4,2,1,5,0,0
154850,-100,4,2,1,65,0,0
155873,697.674418604651,4,2,1,65,1,0
156594,697.674418604651,4,2,1,65,1,0
156594,-83.3333333333333,4,2,1,65,0,0
156855,-83.3333333333333,4,2,1,5,0,0
156942,-83.3333333333333,4,2,1,65,0,0
157117,-100,4,2,1,65,0,0
159384,697.674418604651,4,2,1,55,1,0
159384,-90.9090909090909,4,2,1,55,0,0
160343,-90.9090909090909,4,2,1,5,0,0
160430,-90.9090909090909,4,2,1,55,0,0
166535,-125,4,2,1,55,0,0
167756,-90.9090909090909,4,2,1,55,0,0
170546,-500,4,2,1,50,0,0
171942,-200,4,2,1,50,0,0
173337,-111.111111111111,4,2,1,50,0,0
173599,-111.111111111111,4,2,1,5,0,0
173686,-111.111111111111,4,2,1,50,0,0
174035,-166.666666666666,4,2,1,50,0,0
175430,-249.999999999999,4,2,1,50,0,0
178918,-111.111111111111,4,2,1,50,0,0
179006,-111.111111111111,4,2,1,5,0,0
181709,-76.9230769230769,4,2,2,85,0,1
181971,-76.9230769230769,4,2,2,5,0,1
182058,-76.9230769230769,4,2,1,85,0,1
183017,-76.9230769230769,4,2,1,5,0,1
183104,-76.9230769230769,4,2,1,85,0,1
189732,-66.6666666666667,4,2,1,85,0,1
189994,-66.6666666666667,4,2,1,5,0,1
190081,-90.9090909090909,4,2,1,85,0,1
191302,-76.9230769230769,4,2,1,85,0,1
192087,-76.9230769230769,4,2,1,5,0,1
192174,-76.9230769230769,4,2,1,85,0,1
193134,-76.9230769230769,4,2,1,5,0,1
193221,-76.9230769230769,4,2,1,85,0,1
195227,-76.9230769230769,4,2,1,5,0,1
195314,-76.9230769230769,4,2,1,85,0,1
195663,-66.6666666666667,4,2,1,85,0,1
196360,-76.9230769230769,4,2,1,85,0,1
197145,-76.9230769230769,4,2,1,5,0,1
197232,-76.9230769230769,4,2,1,85,0,1
199413,-76.9230769230769,4,2,1,5,0,1
199500,-76.9230769230769,4,2,1,85,0,1
200808,-76.9230769230769,4,2,1,5,0,1
200895,-76.9230769230769,4,2,1,85,0,1
201506,-76.9230769230769,4,2,1,5,0,1
201593,-76.9230769230769,4,2,1,85,0,1
204035,-500,4,2,1,70,0,0
206128,-500,4,2,1,5,0,0
206825,697.674418604651,4,2,1,50,1,0
206825,-66.6666666666667,4,2,2,85,0,1
207173,-66.6666666666667,4,2,1,85,0,1
207522,-76.9230769230769,4,2,1,85,0,1
209179,-76.9230769230769,4,2,1,5,0,1
209266,-76.9230769230769,4,2,1,85,0,1
209877,-76.9230769230769,4,2,1,5,0,1
209964,-76.9230769230769,4,2,1,85,0,1
212144,-76.9230769230769,4,2,1,5,0,1
212231,-76.9230769230769,4,2,1,85,0,1
215458,-76.9230769230769,4,2,1,5,0,1
215545,-76.9230769230769,4,2,1,85,0,1
216156,-76.9230769230769,4,2,1,5,0,1
216243,-76.9230769230769,4,2,1,85,0,1
217987,-66.6666666666667,4,2,1,85,0,1
218249,-66.6666666666667,4,2,1,5,0,1
218336,-66.6666666666667,4,2,1,85,0,1
218685,-76.9230769230769,4,2,1,85,0,1
219295,-76.9230769230769,4,2,1,5,0,1
219383,-76.9230769230769,4,2,1,85,0,1
221040,-76.9230769230769,4,2,1,5,0,1
221127,-76.9230769230769,4,2,1,85,0,1
226621,-76.9230769230769,4,2,1,5,0,1
226708,-76.9230769230769,4,2,1,85,0,1
229150,-76.9230769230769,4,2,1,85,0,0
231941,697.674418604651,4,2,1,50,1,0
231941,-76.9230769230769,4,2,2,85,0,1
232202,-76.9230769230769,4,2,2,5,0,1
232289,-76.9230769230769,4,2,1,85,0,1
234382,-66.6666666666667,4,2,1,85,0,1
234644,-66.6666666666667,4,2,1,5,0,1
234731,-76.9230769230769,4,2,1,85,0,1
236214,-76.9230769230769,4,2,1,5,0,1
236301,-76.9230769230769,4,2,1,85,0,1
237784,-76.9230769230769,4,2,1,5,0,1
237871,-76.9230769230769,4,2,1,85,0,1
238830,-76.9230769230769,4,2,1,5,0,1
238917,-76.9230769230769,4,2,1,85,0,1
240225,-76.9230769230769,4,2,1,5,0,1
240313,-76.9230769230769,4,2,1,85,0,1
241795,-76.9230769230769,4,2,1,5,0,1
241882,-76.9230769230769,4,2,1,85,0,1
243103,-66.6666666666667,4,2,1,85,0,1
243365,-66.6666666666667,4,2,1,5,0,1
243452,-66.6666666666667,4,2,1,85,0,1
243801,-76.9230769230769,4,2,1,85,0,1
245545,-66.6666666666667,4,2,1,85,0,1
245807,-66.6666666666667,4,2,1,5,0,1
245894,-76.9230769230769,4,2,1,85,0,1
250778,-66.6666666666667,4,2,1,85,0,1
251039,-66.6666666666667,4,2,1,5,0,1
251127,-76.9230769230769,4,2,1,85,0,1
252958,-76.9230769230769,4,2,1,5,0,1
253045,-76.9230769230769,4,2,1,85,0,1
254266,-500,4,2,2,70,0,0
256359,-500,4,2,1,5,0,0
257057,697.674418604651,4,2,1,50,1,0
257057,-76.9230769230769,4,2,1,75,0,0
265690,-76.9230769230769,4,2,1,5,0,0
265777,-76.9230769230769,4,2,1,75,0,0
268219,-142.857142857143,4,2,1,60,0,0
273801,-500,4,2,1,50,0,0

[Colours]
Combo1 : 103,197,241
Combo2 : 251,206,228

[HitObjects]
256,192,17060,12,0,22641,0:0:0:0:
387,3,23339,6,0,P|391:13|399:34,1,31.5,2|0,0:0|0:0,0:0:0:0:
467,52,24036,2,0,P|464:64|460:82,1,31.5,2|0,0:0|0:0,0:0:0:0:
512,142,24734,2,0,P|500:149|483:160,1,31.5,2|0,0:0|0:0,0:0:0:0:
475,232,25432,2,0,P|457:235|434:246,3,42,2|0|0|0,0:0|0:0|0:0|0:0,0:0:0:0:
125,381,28920,6,0,P|121:371|113:350,1,31.5,2|0,0:0|0:0,0:0:0:0:
45,332,29618,2,0,P|48:320|52:302,1,31.5,2|0,0:0|0:0,0:0:0:0:
0,235,30315,2,0,P|12:228|29:217,1,31.5,2|0,0:0|0:0,0:0:0:0:
69,148,31013,2,0,P|88:155|112:159,3,42,2|0|0|0,0:0|0:0|0:0|0:0,0:0:0:0:
284,384,33804,6,0,P|296:341|299:293,1,84,0|0,1:2|0:0,0:0:0:0:
299,301,34327,1,0,0:0:0:0:
407,183,34502,2,0,P|419:211|424:250,1,63,2|0,1:2|0:0,0:0:0:0:
423,242,34850,2,0,B|427:245|448:241|465:257,1,42
271,138,35199,6,0,P|308:129|357:117,1,84,2|0,1:2|0:0,0:0:0:0:
19,178,35897,2,0,P|59:185|115:195,1,84,2|0,1:2|0:0,0:0:0:0:
159,253,36420,1,0,0:0:0:0:
159,253,36507,1,0,0:0:0:0:
159,253,36595,6,0,B|147:318|106:285|93:362,1,126,2|0,1:2|0:0,0:0:0:0:
82,339,37292,2,0,P|79:324|76:309,1,21,2|0,1:2|0:0,0:0:0:0:
309,380,37815,1,0,0:0:0:0:
237,329,37990,2,0,B|242:335|242:335|277:334|312:364,1,84,2|0,1:2|0:0,0:0:0:0:
387,344,38513,1,0,0:0:0:0:
387,344,38688,2,0,P|391:362|398:389,1,42,2|0,1:2|0:0,0:0:0:0:
468,328,39036,2,0,P|474:308|486:291,1,42
512,191,39385,6,0,P|471:194|442:233,1,84,0|0,1:0|0:0,0:0:0:0:
444,224,39909,1,0,0:0:0:0:
326,139,40083,2,0,P|292:133|255:118,1,63,2|0,1:2|0:0,0:0:0:0:
265,123,40432,2,0,P|273:104|278:80,1,42
434,52,40781,6,0,P|467:39|505:10,1,84,2|0,1:2|0:0,0:0:0:0:
215,202,41478,2,0,P|249:208|296:229,1,84,2|0,1:2|0:0,0:0:0:0:
1,229,42176,6,0,P|26:273|42:349,1,126,2|0,1:2|0:0,0:0:0:0:
31,341,42874,2,0,P|25:351|23:367,1,21,2|0,1:2|0:0,0:0:0:0:
175,270,43397,1,0,0:0:0:0:
108,337,43571,2,0,B|145:323|125:301|175:290,1,84,2|0,1:2|0:0,0:0:0:0:
126,182,44095,1,0,0:0:0:0:
126,182,44269,2,0,B|131:140|163:156|170:106,1,84,2|0,1:2|0:0,0:0:0:0:
7,6,44967,5,2,0:0:0:0:
7,6,46013,1,0,0:0:0:0:
76,32,46362,1,2,0:0:0:0:
76,32,47409,2,0,P|81:50|86:78,1,42
155,108,47757,5,2,0:0:0:0:
46,187,48106,1,0,0:0:0:0:
210,164,48455,2,0,P|201:192|193:246,1,84,2|0,0:0|0:0,0:0:0:0:
245,306,49153,1,2,0:0:0:0:
57,384,49502,2,0,B|65:385|65:385|104:347|174:343,1,125.999996154785
72,288,50548,6,0,P|45:285|8:273,1,63,2|0,0:0|0:0,0:0:0:0:
0,203,51943,1,2,0:0:0:0:
0,203,52990,2,0,P|16:198|34:190,1,31.4999990386963
103,204,53339,5,2,0:0:0:0:
4,118,53688,2,0,P|12:104|16:83,1,31.4999990386963,0|2,0:0|0:0,0:0:0:0:
174,13,54211,1,0,0:0:0:0:
107,56,54385,2,0,P|100:25|82:0,1,62.9999980773926,2|0,0:0|0:0,0:0:0:0:
331,210,55432,2,0,P|371:221|424:235,1,94.499997116089
230,373,56129,6,0,P|215:315|218:250,1,115.50000352478,2|0,1:2|0:0,0:0:0:0:
114,186,56653,1,0,0:0:0:0:
114,186,56827,2,0,P|82:181|39:167,1,57.7500017623902,0|0,1:0|0:0,0:0:0:0:
174,129,57176,2,0,P|203:123|234:106,1,57.7500017623902,2|0,0:0|0:0,0:0:0:0:
9,101,57525,6,0,P|46:56|72:5,1,115.50000352478,2|0,1:2|0:0,0:0:0:0:
71,5,58048,2,0,B|75:9|75:9|100:8|125:31,1,57.7500017623902,0|0,0:0|1:0,0:0:0:0:
276,157,58571,1,2,0:0:0:0:
150,220,58746,1,0,0:0:0:0:
223,237,58920,6,0,P|230:259|233:302,1,57.7500017623902,2|0,1:2|0:0,0:0:0:0:
305,384,59269,2,0,P|323:360|331:326,1,57.7500017623902
509,289,59618,2,0,B|501:289|501:289|468:285|423:322,1,86.6250026435853,2|0,1:2|0:0,0:0:0:0:
429,316,59967,2,0,P|409:291|406:253,1,57.7500017623902
335,235,60315,5,2,1:2:0:0:
472,20,60664,2,0,P|515:42|501:112,1,115.50000352478,0|0,0:0|1:0,0:0:0:0:
511,102,61362,2,0,P|486:109|459:130,1,57.7500017623902,2|0,0:0|0:0,0:0:0:0:
321,118,61711,6,0,B|307:180|269:151|253:221,1,125.999996154785,2|0,1:2|0:0,0:0:0:0:
182,267,62234,1,0,0:0:0:0:
297,342,62409,2,0,P|275:323|248:313,1,57.7500017623902,0|0,1:0|0:0,0:0:0:0:
90,199,62757,1,2,0:0:0:0:
152,347,62932,1,0,0:0:0:0:
1,288,63106,6,0,P|31:281|61:266,1,57.7500017623902,2|0,1:2|0:0,0:0:0:0:
21,149,63455,2,0,P|53:102|67:39,1,115.50000352478,2|0,0:0|1:0,0:0:0:0:
253,0,64153,1,0,0:0:0:0:
324,27,64327,1,0,0:0:0:0:
199,114,64502,6,0,B|206:115|206:115|235:84|285:83,1,86.6250026435853,2|0,1:2|0:0,0:0:0:0:
276,83,64850,1,0,0:0:0:0:
429,171,65025,2,0,P|435:200|446:243,1,57.7500017623902,2|0,0:0|1:0,0:0:0:0:
352,152,65374,1,0,0:0:0:0:
512,47,65548,1,2,0:0:0:0:
452,85,65722,1,2,0:0:0:0:
452,85,65810,1,2,0:0:0:0:
452,85,65897,6,0,P|427:78|383:64,1,57.7500017623902,0|0,1:2|0:0,0:0:0:0:
276,83,66246,2,0,P|271:55|259:20,1,57.7500017623902
99,40,66595,1,0,1:0:0:0:
170,72,66769,1,2,0:0:0:0:
137,140,66943,1,0,0:0:0:0:
67,114,67118,1,2,0:0:0:0:
206,249,67292,6,0,B|196:304|161:282|150:346,1,110.249996635437,6|0,1:2|0:0,0:0:0:0:
136,336,67990,2,0,P|140:346|145:368,1,28.8750008811951,0|0,1:0|0:0,0:0:0:0:
345,384,68339,1,0,0:0:0:0:
291,333,68513,1,0,0:0:0:0:
400,256,68688,6,0,B|459:239|447:267|514:253,1,110.249996635437,2|0,1:2|0:0,0:0:0:0:
463,183,69385,2,0,P|448:162|440:128,1,47.2499985580445,2|0,1:2|0:0,0:0:0:0:
347,38,69734,2,0,P|337:59|335:93,1,47.2499985580445
264,123,70083,5,2,1:2:0:0:
370,184,70257,2,0,B|359:185|359:185|323:146|266:144,1,115.50000352478,0|2,0:0|0:2,0:0:0:0:
174,71,70781,2,0,P|201:64|227:50,1,57.7500017623902,0|0,1:0|0:0,0:0:0:0:
95,189,71129,2,0,P|120:195|157:224,1,57.7500017623902,2|0,0:2|0:0,0:0:0:0:
35,130,71478,5,0,1:0:0:0:
77,333,71827,2,0,P|94:310|98:281,1,57.7500017623902
287,376,72176,1,0,1:0:0:0:
216,376,72350,2,0,P|243:368|270:357,1,57.7500017623902,0|2,0:0|0:0,0:0:0:0:
406,242,72699,1,0,0:0:0:0:
406,242,72786,1,0,0:0:0:0:
406,242,72874,5,2,1:2:0:0:
320,204,73048,2,0,B|316:221|316:221|328:266,1,57.7500017623902
463,132,73397,2,0,B|475:76|510:105|513:25,1,110.249996635437,2|0,0:0|0:0,0:0:0:0:
448,0,74095,2,0,P|473:13|501:17,1,57.7500017623902,0|0,0:0|1:0,0:0:0:0:
322,115,74618,1,0,0:0:0:0:
253,86,74792,1,0,0:0:0:0:
225,193,74967,6,0,B|221:197|221:197|170:193|126:231,1,110.249996635437,2|0,1:2|0:0,0:0:0:0:
63,197,75664,1,2,1:2:0:0:
187,300,75839,2,0,P|181:312|179:332,1,26.25
75,359,76188,6,0,L|82:384,1,26.25,2|0,0:0|1:0,0:0:0:0:
71,377,77757,2,0,L|89:310,1,62.9999980773926,2|0,1:2|0:0,0:0:0:0:
30,269,78281,1,0,0:0:0:0:
30,269,78368,1,0,0:0:0:0:
30,269,78455,5,4,0:0:0:0:
240,167,79850,5,2,0:0:0:0:
309,205,80374,5,0,0:0:0:0:
361,303,80548,5,2,0:0:0:0:
511,368,81071,5,0,0:0:0:0:
511,368,81159,1,0,0:0:0:0:
511,368,81246,1,2,0:0:0:0:
436,384,81420,2,0,P|434:377|433:370,1,10.5
484,259,81769,2,0,P|492:237|497:209,1,52.5,2|0,0:0|0:0,0:0:0:0:
497,208,83339,2,0,P|464:187|459:150,1,78.75,2|0,0:0|0:0,0:0:0:0:
512,97,84036,5,2,0:0:0:0:
414,4,84211,2,0,B|417:13|417:13|409:39,1,26.25
346,71,84560,2,0,B|272:79|304:116|218:116,1,131.25,2|2,0:0|0:0,0:0:0:0:
10,18,86827,6,0,L|5:1,1,13.125,2|0,0:0|0:0,0:0:0:0:
417,108,89618,6,0,B|401:178|354:137|342:222,1,136.499993751526,6|0,1:2|0:0,0:0:0:0:
180,269,90141,1,8,0:3:0:0:
222,328,90315,2,0,B|225:311|225:311|213:268,1,57.7500017623902,2|0,0:3|0:0,0:0:0:0:
102,327,90664,2,0,B|42:334|68:373|-15:374,1,115.50000352478,8|2,0:3|0:0,0:0:0:0:
131,211,91188,5,4,0:3:0:0:
77,157,91362,2,0,P|48:151|20:143,1,57.7500017623902,6|0,0:3|0:0,0:0:0:0:
242,104,91711,2,0,P|232:73|224:39,1,57.7500017623902,2|8,0:0|0:3,0:0:0:0:
286,2,92060,1,6,1:3:0:0:
398,142,92234,1,0,1:0:0:0:
338,210,92409,6,0,B|343:214|343:214|391:212|433:249,1,102.374995313645,8|0,1:3|0:0,0:0:0:0:
430,246,92757,2,0,P|416:269|409:303,1,57.7500017623902,2|8,0:0|0:3,0:0:0:0:
239,183,93106,2,0,P|243:206|256:225,1,47.2499985580445,2|0,0:0|0:0,0:0:0:0:
196,384,93455,1,10,0:3:0:0:
310,284,93629,2,0,B|303:313|303:313|273:325|270:365,1,94.499997116089,2|0,0:0|0:0,0:0:0:0:
81,372,94153,2,0,P|54:380|24:387,1,47.2499985580445,2|0,0:0|0:0,0:0:0:0:
60,260,94502,5,2,1:2:0:0:
128,290,94676,1,0,1:0:0:0:
91,358,94850,5,6,0:3:0:0:
240,285,95025,1,4,0:3:0:0:
442,384,95199,6,0,P|394:380|359:338,1,102.374995313645,8|0,0:3|0:0,0:0:0:0:
360,341,95548,2,0,B|358:336|358:336|380:310|377:276,1,68.2499968757631,2|4,0:0|0:3,0:0:0:0:
512,200,95897,2,0,B|503:168|483:184|468:150,1,68.2499968757631,2|0,0:0|0:0,0:0:0:0:
512,21,96246,2,0,P|465:43|416:56,1,102.374995313645,10|0,0:3|0:0,0:0:0:0:
416,56,96595,5,0,0:0:0:0:
346,33,96769,1,4,0:3:0:0:
312,104,96943,1,6,0:3:0:0:
380,135,97118,1,0,0:0:0:0:
390,141,97292,5,2,1:2:0:0:
235,216,97467,1,0,1:0:0:0:
165,176,97641,2,0,P|153:143|145:104,1,68.2499968757631,6|0,0:3|0:0,0:0:0:0:
386,272,97990,6,0,B|379:335|341:304|332:386,1,118.125004506111,10|0,0:3|0:0,0:0:0:0:
333,374,98339,2,0,P|310:361|277:355,1,57.7500017623902,2|4,0:0|0:3,0:0:0:0:
164,314,98688,2,0,P|192:305|222:283,1,57.7500017623902,2|0,0:0|0:0,0:0:0:0:
14,347,99036,2,0,P|29:323|35:294,1,57.7500017623902,10|2,0:3|0:0,0:0:0:0:
93,238,99385,5,0,1:0:0:0:
0,121,99560,2,0,B|4:127|4:127|59:122|107:169,1,115.50000352478,8|0,0:3|0:0,0:0:0:0:
298,71,100083,5,10,0:3:0:0:
226,103,100257,1,8,0:3:0:0:
273,0,100432,5,6,0:3:0:0:
431,93,100606,1,4,0:3:0:0:
378,151,100781,6,0,B|391:221|443:187|450:262,1,136.499993751526,6|0,1:2|0:0,0:0:0:0:
509,314,101304,1,8,0:3:0:0:
302,383,101478,2,0,P|336:375|380:364,1,68.2499968757631,6|0,0:3|0:0,0:0:0:0:
208,236,101827,2,0,P|227:204|240:175,1,68.2499968757631,8|0,0:3|0:0,0:0:0:0:
272,289,102176,5,2,1:2:0:0:
78,247,102350,1,8,0:3:0:0:
127,310,102525,2,0,B|133:329|133:329|122:355|132:380,1,68.2499968757631,6|0,0:3|0:0,0:0:0:0:
0,228,102874,5,10,0:3:0:0:
112,177,103048,1,0,0:0:0:0:
84,103,103222,5,6,0:3:0:0:
219,200,103397,1,4,0:3:0:0:
436,170,103571,6,0,B|398:162|398:162|367:182|316:171,1,118.125004506111,8|0,0:3|0:0,0:0:0:0:
321,172,103920,2,0,P|308:145|304:105,1,57.7500017623902,2|8,0:0|0:3,0:0:0:0:
441,59,104269,2,0,P|445:30|458:4,1,57.7500017623902,2|0,1:2|0:0,0:0:0:0:
220,122,104618,2,0,P|215:93|202:67,1,57.7500017623902,6|0,0:3|0:0,0:0:0:0:
411,196,104967,5,0,1:0:0:0:
370,258,105141,2,0,B|394:320|337:301|360:377,1,115.50000352478,8|0,0:3|0:0,0:0:0:0:
286,383,105664,5,2,1:2:0:0:
167,308,105839,1,4,0:3:0:0:
51,297,106013,5,6,0:3:0:0:
197,240,106188,1,0,1:0:0:0:
0,137,106362,6,0,P|33:183|96:185,1,118.125004506111,6|0,1:2|0:0,0:0:0:0:
102,201,106711,2,0,P|138:191|151:155,1,68.2499968757631,2|8,0:0|0:3,0:0:0:0:
291,65,107060,2,0,P|280:30|273:-5,1,68.2499968757631,4|0,0:3|0:0,0:0:0:0:
202,25,107409,1,8,0:3:0:0:
364,103,107583,1,2,0:0:0:0:
332,171,107757,5,4,0:3:0:0:
509,127,107932,2,0,B|499:202|446:159|441:260,1,136.499993751526,8|0,0:3|0:0,0:0:0:0:
280,377,108455,5,4,0:3:0:0:
313,308,108629,1,8,0:3:0:0:
222,236,108804,5,2,1:2:0:0:
390,309,108978,1,2,1:2:0:0:
298,208,109153,5,4,0:3:0:0:
153,332,109327,2,0,B|79:340|111:377|25:377,1,136.499993751526,8|8,0:3|0:3,0:0:0:0:
81,189,109850,2,0,P|113:202|147:209,1,68.2499968757631,4|0,0:3|0:0,0:0:0:0:
286,114,110199,2,0,B|272:98|272:98|258:53,1,68.2499968757631,8|0,0:3|0:0,0:0:0:0:
374,248,110548,5,4,0:3:0:0:
452,220,110722,2,0,P|482:172|500:95,1,136.499993751526,8|0,0:3|0:0,0:0:0:0:
306,207,111246,5,8,0:3:0:0:
467,354,111420,1,8,0:3:0:0:
512,295,111595,5,4,0:3:0:0:
377,379,111769,1,4,0:3:0:0:
172,325,111943,6,0,B|180:327|180:327|217:283|288:280,1,126,4|0,1:2|0:0,0:0:0:0:
89,0,114734,6,0,P|102:48|108:117,1,110.249996635437,6|0,1:2|0:0,0:0:0:0:
108,108,115082,2,0,P|74:120|30:124,1,73.4999977569581,0|2,1:0|1:2,0:0:0:0:
243,246,115431,1,8,0:0:0:0:
143,182,115780,2,0,B|217:190|185:227|272:227,1,125.999996154785,0|2,1:2|0:0,0:0:0:0:
420,141,116303,1,0,1:2:0:0:
341,101,116478,2,0,B|347:121|347:121|335:163,1,62.9999980773926,0|2,1:2|0:0,0:0:0:0:
443,272,116827,2,0,B|461:333|505:299|514:380,1,125.999996154785,8|0,0:0|0:0,0:0:0:0:
512,371,117350,1,0,0:0:0:0:
327,345,117524,6,0,B|321:349|321:349|261:339|211:386,1,125.999996154785,2|0,1:2|0:0,0:0:0:0:
168,318,118047,1,2,1:2:0:0:
222,185,118222,2,0,P|210:215|188:247,1,62.9999980773926,8|0,0:0|0:0,0:0:0:0:
33,320,118571,1,2,1:2:0:0:
74,252,118745,2,0,B|66:184|21:210|21:135,1,125.999996154785,0|0,1:0|0:0,0:0:0:0:
122,49,119268,2,0,P|96:66|63:76,1,62.9999980773926,0|2,1:0|0:0,0:0:0:0:
281,166,119617,1,8,0:0:0:0:
207,181,119792,2,0,B|213:185|213:185|270:187|316:237,1,125.999996154785,0|0,1:0|0:0,0:0:0:0:
329,313,120315,5,2,1:2:0:0:
512,124,120664,1,0,1:0:0:0:
440,152,120838,1,2,1:2:0:0:
412,16,121013,2,0,B|418:35|418:35|409:58|420:82,1,62.9999980773926,8|0,0:0|0:0,0:0:0:0:
503,204,121361,1,0,1:2:0:0:
495,214,121710,5,2,0:0:0:0:
432,250,121885,1,0,1:0:0:0:
421,322,122059,5,0,1:0:0:0:
315,277,122234,1,2,0:0:0:0:
131,371,122408,6,0,P|96:379|51:389,1,62.9999980773926,8|0,0:0|0:0,0:0:0:0:
244,308,122757,2,0,P|216:290|190:263,1,62.9999980773926,2|0,0:0|0:0,0:0:0:0:
0,197,123106,6,0,P|52:184|78:120,1,125.999996154785,2|0,1:2|0:0,0:0:0:0:
149,96,123629,1,2,1:2:0:0:
288,7,123803,2,0,P|292:30|304:75,1,62.9999980773926,8|0,0:0|0:0,0:0:0:0:
353,191,124152,1,2,1:2:0:0:
228,131,124327,2,0,B|302:139|270:176|357:176,1,125.999996154785,0|8,1:2|0:0,0:0:0:0:
447,79,124850,2,0,P|479:70|513:53,1,62.9999980773926,0|2,0:0|0:0,0:0:0:0:
389,261,125199,5,8,0:0:0:0:
461,289,125373,1,0,1:0:0:0:
351,192,125547,5,8,0:0:0:0:
213,319,125722,1,8,0:0:0:0:
39,266,125896,6,0,B|73:259|73:259|107:282|154:272,1,118.125004506111,6|0,1:2|0:0,0:0:0:0:
153,272,126245,2,0,P|166:242|167:206,1,62.9999980773926,0|2,1:0|1:2,0:0:0:0:
271,107,126594,1,8,0:0:0:0:
256,98,126943,2,0,P|249:67|232:42,1,62.9999980773926,0|0,1:2|0:0,0:0:0:0:
294,0,127292,1,2,0:0:0:0:
155,121,127466,1,0,1:0:0:0:
39,47,127640,2,0,P|65:60|101:67,1,62.9999980773926,0|2,1:0|0:0,0:0:0:0:
201,214,127989,2,0,B|211:216|211:216|254:180|321:183,1,125.999996154785,8|0,0:0|0:0,0:0:0:0:
319,182,128513,1,0,0:0:0:0:
467,317,128687,6,0,P|479:262|514:200,1,125.999996154785,2|0,1:2|0:0,0:0:0:0:
512,201,129210,1,2,1:2:0:0:
359,115,129385,2,0,P|339:88|332:52,1,62.9999980773926,8|0,0:0|0:0,0:0:0:0:
419,200,129734,1,2,1:2:0:0:
374,264,129908,2,0,B|298:287|341:307|252:317,1,125.999996154785,0|0,1:0|0:0,0:0:0:0:
165,212,130431,2,0,P|188:232|227:242,1,62.9999980773926,0|2,1:0|0:0,0:0:0:0:
87,384,130780,1,8,0:0:0:0:
27,341,130954,2,0,P|16:283|-3:208,1,125.999996154785,0|0,1:0|0:0,0:0:0:0:
157,127,131478,6,0,B|170:87|170:87|213:62|215:7,1,125.999996154785,2|0,1:2|1:0,0:0:0:0:
285,53,132001,1,2,1:2:0:0:
412,211,132175,2,0,B|396:195|396:195|386:148,1,62.9999980773926,8|0,0:0|0:0,0:0:0:0:
505,80,132524,2,0,P|479:92|436:100,1,62.9999980773926,0|0,1:0|0:0,0:0:0:0:
304,197,132873,5,2,0:0:0:0:
249,243,133047,1,0,1:2:0:0:
281,313,133222,5,0,1:2:0:0:
142,275,133396,1,2,0:0:0:0:
0,384,133571,5,8,0:0:0:0:
69,361,133745,1,0,0:0:0:0:
41,292,133920,2,0,B|35:261|14:276|4:242,1,62.9999980773926,2|0,0:0|0:0,0:0:0:0:
137,105,134268,6,0,L|262:133,1,125.999996154785,2|0,1:2|0:0,0:0:0:0:
315,190,134792,1,2,1:2:0:0:
461,99,134966,2,0,P|474:68|477:34,1,62.9999980773926,8|0,0:0|0:0,0:0:0:0:
354,121,135315,1,2,1:2:0:0:
512,203,135489,2,0,B|506:208|506:208|463:204|423:243,1,94.499997116089,0|0,1:0|0:0,0:0:0:0:
427,238,135838,1,8,0:0:0:0:
272,334,136013,2,0,P|279:359|286:394,1,52.5,0|2,1:0|0:0,0:0:0:0:
168,214,136361,5,8,0:0:0:0:
322,278,136536,1,8,0:3:0:0:
247,202,136710,5,6,0:3:0:0:
141,292,136885,1,4,0:3:0:0:
68,260,137059,6,0,P|60:217|48:149,1,105,6|0,1:2|1:0,0:0:0:0:
230,50,137582,1,0,1:0:0:0:
139,0,137757,2,0,P|151:21|157:51,1,52.5,8|0,0:0|0:0,0:0:0:0:
285,129,138106,2,0,P|308:139|334:144,1,52.5,2|0,1:2|0:0,0:0:0:0:
478,237,138454,1,2,0:0:0:0:
409,211,138629,1,0,1:0:0:0:
378,276,138803,1,0,1:0:0:0:
512,382,139152,2,0,B|502:381|502:381|472:344|420:341,1,105,8|2,0:0|0:0,0:0:0:0:
419,340,139675,1,0,0:0:0:0:
281,255,139850,6,0,P|235:271|226:323,1,105,2|2,1:2|0:0,0:0:0:0:
177,381,140373,1,0,1:0:0:0:
56,350,140547,2,0,P|41:320|36:291,1,52.5,10|0,0:0|0:0,0:0:0:0:
100,173,140896,2,0,P|118:191|142:201,1,52.5,2|0,1:2|1:0,0:0:0:0:
187,264,141245,1,2,0:0:0:0:
0,106,141594,2,0,P|46:95|110:64,1,105,2|8,1:2|0:0,0:0:0:0:
161,116,142117,1,0,1:0:0:0:
295,15,142292,2,0,B|283:24|283:24|276:61,1,52.5,2|0,0:0|0:0,0:0:0:0:
324,131,142640,6,0,B|385:146|355:168|424:175,1,105,2|0,1:2|1:0,0:0:0:0:
484,218,143164,1,0,1:0:0:0:
450,349,143338,2,0,P|424:354|398:365,1,52.5,8|0,0:0|0:0,0:0:0:0:
273,336,143687,2,0,P|284:354|293:389,1,52.5,2|0,1:2|0:0,0:0:0:0:
386,247,144036,1,2,0:0:0:0:
319,220,144210,1,0,1:0:0:0:
163,302,144385,2,0,B|168:302|168:302|183:285|213:283,1,52.5,0|0,1:0|0:0,0:0:0:0:
376,173,144734,2,0,B|388:120|431:143|434:82,1,105,8|2,0:0|0:0,0:0:0:0:
505,114,145257,1,0,0:0:0:0:
314,49,145431,6,0,P|302:24|299:-7,1,52.5,2|0,1:2|0:0,0:0:0:0:
257,98,145780,1,0,0:0:0:0:
139,89,145954,2,0,P|155:106|186:118,1,52.5,2|8,1:2|0:0,0:0:0:0:
294,205,146303,1,0,0:0:0:0:
223,225,146478,1,2,1:2:0:0:
250,345,146652,2,0,B|244:349|244:349|194:347|145:390,1,105,0|8,1:0|0:0,0:0:0:0:
304,287,147175,2,0,P|327:298|369:308,1,52.5,0|0,1:0|0:0,0:0:0:0:
208,151,147524,1,8,0:0:0:0:
141,183,147699,1,0,1:0:0:0:
100,116,147873,1,0,0:0:0:0:
193,34,148047,2,0,B|179:44|179:44|170:87,1,52.5,0|2,0:0|1:2,0:0:0:0:
311,207,148571,5,0,1:0:0:0:
381,176,148745,1,0,1:0:0:0:
421,304,148920,2,0,B|486:324|447:339|517:351,1,105,8|2,0:0|1:2,0:0:0:0:
300,362,149443,2,0,P|278:376|253:384,1,52.5,0|2,0:0|0:0,0:0:0:0:
118,248,149792,1,0,1:0:0:0:
186,190,149966,2,0,P|195:213|201:254,1,52.5,0|0,1:0|0:0,0:0:0:0:
0,378,150315,2,0,B|8:322|57:359|53:276,1,105,8|0,0:0|0:0,0:0:0:0:
52,293,150838,1,0,0:0:0:0:
35,99,151013,6,0,P|58:111|83:116,1,52.5,2|0,1:2|0:0,0:0:0:0:
186,190,151361,2,0,P|199:212|217:231,1,52.5,2|0,0:0|1:0,0:0:0:0:
205,18,151710,2,0,P|193:43|188:81,1,52.5,10|0,0:0|0:0,0:0:0:0:
54,193,152059,2,0,B|50:196|50:196|26:195|5:220,1,52.5,2|0,1:2|1:0,0:0:0:0:
227,247,152408,2,0,B|292:267|253:282|323:294,2,105,2|2|8,0:0|1:2|0:0,0:0:0:0:
401,201,153280,1,0,1:0:0:0:
372,133,153454,2,0,P|398:127|428:111,1,52.5,2|0,0:0|0:0,0:0:0:0:
242,99,153803,6,0,P|263:51|269:-8,1,105,2|0,1:2|1:0,0:0:0:0:
343,10,154327,1,0,1:0:0:0:
169,73,154501,2,0,B|164:79|164:79|128:78|95:108,1,78.75,8|0,0:0|0:0,0:0:0:0:
99,104,154850,2,0,P|85:88|77:58,1,52.5,2|0,1:2|0:0,0:0:0:0:
245,188,155199,1,2,0:2:0:0:
230,261,155373,1,0,1:2:0:0:
105,220,155547,2,0,P|130:225|155:234,1,52.5,2|0,1:2|0:0,0:0:0:0:
328,362,155873,2,0,P|368:338|357:274,1,105,8|2,0:0|0:0,0:0:0:0:
430,249,156396,1,0,0:0:0:0:
512,186,156594,6,0,B|505:129|469:155|459:104,1,94.499997116089,2|0,1:2|0:0,0:0:0:0:
460,111,156942,1,0,0:0:0:0:
361,0,157117,2,0,B|366:13|366:13|355:60,1,52.5,2|8,0:0|0:0,0:0:0:0:
285,67,157466,1,0,0:0:0:0:
237,190,157640,1,2,1:2:0:0:
167,162,157814,2,0,B|102:182|141:197|71:209,1,105,0|8,1:0|0:0,0:0:0:0:
18,257,158338,5,0,0:0:0:0:
110,297,158512,1,0,1:0:0:0:
86,370,158687,5,8,0:0:0:0:
242,307,158861,1,0,1:0:0:0:
290,249,159035,5,4,0:3:0:0:
372,341,159210,1,4,0:3:0:0:
441,307,159384,6,0,P|432:254|422:188,1,115.50000352478,6|0,1:2|0:0,0:0:0:0:
353,168,159907,1,8,0:3:0:0:
512,66,160081,2,0,P|475:76|426:89,1,86.6250026435853,0|0,1:0|0:0,0:0:0:0:
428,88,160430,2,0,B|426:72|426:72|404:61|399:37,1,57.7500017623902,8|0,0:3|0:0,0:0:0:0:
239,0,160779,5,2,1:2:0:0:
305,37,160953,1,4,0:3:0:0:
228,10,161128,2,0,P|221:38|214:66,1,57.7500017623902,4|0,0:3|0:0,0:0:0:0:
104,206,161477,1,2,1:2:0:0:
56,146,161651,1,8,0:3:0:0:
121,103,161825,1,4,0:3:0:0:
169,166,162000,1,4,0:3:0:0:
8,267,162174,6,0,B|13:273|13:273|67:272|111:316,1,115.50000352478,2|0,1:2|0:0,0:0:0:0:
257,360,162697,1,10,0:3:0:0:
186,384,162872,2,0,P|211:377|231:352,1,57.7500017623902,0|0,1:0|0:0,0:0:0:0:
334,247,163221,2,0,P|353:267|356:296,1,57.7500017623902,8|0,0:3|0:0,0:0:0:0:
423,339,163570,5,0,1:0:0:0:
258,240,163744,2,0,B|243:181|204:213|195:147,1,115.50000352478,4|0,0:3|0:0,0:0:0:0:
138,102,164267,5,0,1:0:0:0:
205,66,164442,1,4,0:3:0:0:
247,2,164616,5,2,0:0:0:0:
344,62,164790,1,0,0:0:0:0:
331,134,164965,5,2,1:2:0:0:
467,85,165139,2,0,P|458:57|453:28,1,57.7500017623902
405,199,165488,2,0,B|331:215|380:241|288:247,1,115.50000352478,10|0,0:3|0:0,0:0:0:0:
86,333,166011,2,0,B|121:342|121:342|145:376|190:383,1,115.50000352478,8|0,0:3|0:0,0:0:0:0:
231,249,166535,6,0,P|224:214|216:160,1,84,4|0,0:3|0:0,0:0:0:0:
143,61,167058,1,2,1:2:0:0:
286,125,167232,1,0,1:0:0:0:
348,79,167407,2,0,P|356:59|359:28,1,42,4|0,0:3|0:0,0:0:0:0:
235,67,167756,5,2,1:2:0:0:
356,175,167930,2,0,P|382:187|429:192,1,57.7500017623902
298,285,168279,2,0,B|292:290|292:290|246:285|188:327,1,115.50000352478,10|0,0:3|0:0,0:0:0:0:
14,318,168802,2,0,P|18:343|35:370,1,57.7500017623902,8|0,0:3|0:0,0:0:0:0:
108,344,169151,5,0,1:0:0:0:
0,206,169325,2,0,B|61:193|23:158|102:144,1,115.50000352478,8|0,0:3|0:0,0:0:0:0:
115,76,169849,5,10,0:3:0:0:
218,122,170023,1,8,0:3:0:0:
192,190,170197,5,4,0:3:0:0:
330,122,170372,1,4,0:3:0:0:
151,6,170546,5,6,1:2:0:0:
151,6,171244,2,0,P|156:23|161:37,1,31.5,0|0,1:0|0:0,0:0:0:0:
98,83,171942,2,0,P|57:95|44:150,1,105,2|2,1:2|1:2,0:0:0:0:
431,196,173337,6,0,B|437:217|437:217|421:243|436:275,1,70.8749978370667,2|0,1:2|0:0,0:0:0:0:
431,264,173686,2,0,P|449:271|486:276,1,47.2499985580445,2|0,0:0|0:0,0:0:0:0:
358,343,174035,2,0,B|289:350|319:384|239:384,1,125.999996154785,2|0,1:2|1:0,0:0:0:0:
112,242,175430,2,0,P|78:236|47:219,1,63,2|0,1:2|0:0,0:0:0:0:
44,147,176128,5,2,0:0:0:0:
330,0,178918,6,0,L|335:26,1,23.6249992790222,2|0,0:0|0:0,0:0:0:0:
489,75,181709,6,0,B|483:79|483:79|436:73|393:110,1,102.374995313645,6|0,1:2|0:0,0:0:0:0:
395,108,182058,1,0,1:0:0:0:
175,71,182232,2,0,P|162:37|156:-1,1,68.2499968757631,0|10,1:0|0:0,0:0:0:0:
284,172,182581,1,0,0:0:0:0:
361,188,182756,2,0,B|352:243|320:221|312:286,1,102.374995313645,0|0,1:0|0:0,0:0:0:0:
313,276,183104,5,2,0:0:0:0:
241,249,183279,1,0,1:0:0:0:
319,384,183453,5,2,1:2:0:0:
445,309,183628,1,0,0:0:0:0:
243,361,183802,2,0,P|207:370|171:384,1,68.2499968757631,10|0,0:0|0:0,0:0:0:0:
115,177,184151,2,0,P|137:203|177:231,1,68.2499968757631,2|0,0:0|0:0,0:0:0:0:
0,384,184500,6,0,B|24:305|55:357|73:275,1,136.499993751526,0|2,1:0|0:0,0:0:0:0:
145,300,185023,1,0,1:0:0:0:
0,126,185197,2,0,P|33:120|65:108,1,68.2499968757631,10|0,0:0|0:0,0:0:0:0:
309,22,185546,1,2,1:2:0:0:
233,0,185721,6,0,B|226:38|226:38|186:61|182:121,1,136.499993751526,2|0,1:2|0:0,0:0:0:0:
323,186,186157,1,2,0:0:0:0:
329,198,186244,2,0,P|364:210|410:222,1,68.2499968757631,2|0,1:2|0:0,0:0:0:0:
268,384,186593,1,10,0:0:0:0:
198,342,186767,2,0,B|192:348|192:348|127:341|66:390,1,136.499993751526,0|0,1:0|0:0,0:0:0:0:
281,268,187290,5,0,1:0:0:0:
0,102,187639,1,2,1:2:0:0:
132,162,187814,1,0,1:0:0:0:
195,113,187988,2,0,B|202:90|202:90|186:43,1,68.2499968757631,10|0,0:0|0:0,0:0:0:0:
18,247,188337,2,0,B|38:319|87:274|91:377,1,136.499993751526,2|0,1:2|0:0,0:0:0:0:
299,304,188860,5,0,1:0:0:0:
258,237,189035,2,0,P|221:231|182:212,1,68.2499968757631,2|0,1:2|0:0,0:0:0:0:
405,144,189384,2,0,P|419:114|430:67,1,68.2499968757631,10|0,0:0|0:0,0:0:0:0:
383,310,189732,2,0,B|451:330|412:348|492:359,1,118.125004506111,2|0,0:0|0:0,0:0:0:0:
477,366,190081,6,0,P|448:377|403:388,1,57.7500017623902,2|0,1:2|0:0,0:0:0:0:
272,308,190430,1,2,0:0:0:0:
373,225,190604,1,0,1:0:0:0:
284,163,190779,2,0,P|290:191|302:228,1,57.7500017623902,10|0,0:0|0:0,0:0:0:0:
227,383,191128,1,2,1:2:0:0:
140,303,191302,6,0,B|189:293|189:293|221:319|283:305,1,136.499993751526,2|0,1:2|0:0,0:0:0:0:
373,225,191825,2,0,B|394:175|427:204|443:142,1,102.374995313645,2|0,1:2|0:0,0:0:0:0:
440,151,192174,5,10,0:0:0:0:
502,103,192349,1,0,1:0:0:0:
320,0,192523,5,2,0:0:0:0:
407,77,192697,1,0,0:0:0:0:
229,159,192872,6,0,B|223:164|223:164|174:162|124:202,1,102.374995313645,6|0,1:2|0:0,0:0:0:0:
135,193,193221,1,0,1:0:0:0:
163,267,193395,1,0,1:0:0:0:
35,381,193570,2,0,B|40:361|40:361|64:350|74:322,1,68.2499968757631,10|0,0:0|0:0,0:0:0:0:
251,311,193918,2,0,P|240:274|235:231,1,68.2499968757631,0|0,1:0|0:0,0:0:0:0:
490,336,194267,5,2,0:0:0:0:
386,276,194442,1,0,1:0:0:0:
348,341,194616,5,2,1:2:0:0:
242,384,194790,1,0,0:0:0:0:
109,247,194965,2,0,B|103:220|103:220|67:203|58:161,1,102.374995313645,10|0,0:0|0:0,0:0:0:0:
58,163,195314,2,0,P|91:158|123:140,1,68.2499968757631,2|0,0:0|0:0,0:0:0:0:
319,10,195663,6,0,P|386:25|382:104,1,157.500006008148,0|2,1:0|0:0,0:0:0:0:
319,141,196186,1,0,1:0:0:0:
512,248,196360,2,0,P|474:240|443:223,1,68.2499968757631,10|0,0:0|0:0,0:0:0:0:
240,311,196709,1,2,1:2:0:0:
234,170,196884,6,0,B|253:228|293:192|299:281,1,102.374995313645,0|0,1:0|0:0,0:0:0:0:
294,249,197232,1,0,0:0:0:0:
432,152,197407,2,0,P|447:120|454:77,1,68.2499968757631,2|0,1:2|0:0,0:0:0:0:
512,369,197756,1,10,0:0:0:0:
439,336,197930,2,0,B|365:344|397:381|311:381,1,136.499993751526,0|0,1:2|0:0,0:0:0:0:
206,319,198366,1,2,0:0:0:0:
193,309,198453,6,0,P|181:273|177:239,1,68.2499968757631,2|0,1:2|0:0,0:0:0:0:
11,118,198802,1,2,1:2:0:0:
35,190,198977,1,0,1:2:0:0:
198,80,199151,2,0,B|205:81|205:81|236:51|298:51,1,102.374995313645,8|0,0:0|0:0,0:0:0:0:
293,51,199500,1,0,1:0:0:0:
432,149,199674,1,2,0:0:0:0:
505,151,199849,5,2,0:0:0:0:
393,217,200023,1,0,1:2:0:0:
361,288,200197,5,2,1:2:0:0:
248,244,200372,1,0,0:0:0:0:
9,375,200546,2,0,B|28:328|61:352|75:299,1,102.374995313645,8|0,0:0|0:0,0:0:0:0:
74,300,200895,2,0,P|57:269|51:224,1,68.2499968757631,2|2,0:0|0:0,0:0:0:0:
37,66,201244,6,0,P|78:91|146:107,1,102.374995313645,0|0,1:0|0:0,0:0:0:0:
130,105,201593,2,0,P|124:138|100:175,1,68.2499968757631,0|0,0:0|1:0,0:0:0:0:
271,290,201942,2,0,B|277:308|277:308|299:320|302:354,1,68.2499968757631,8|0,0:0|0:0,0:0:0:0:
483,384,202290,1,0,1:0:0:0:
512,307,202465,2,0,B|503:308|503:308|458:262|385:266,1,136.499993751526,0|0,1:0|0:0,0:0:0:0:
243,89,202988,2,0,P|230:54|226:19,1,68.2499968757631,0|0,1:0|0:0,0:0:0:0:
446,84,203337,5,8,0:0:0:0:
305,233,203511,1,0,1:0:0:0:
165,110,203686,5,0,0:0:0:0:
288,155,203860,1,0,0:0:0:0:
107,323,204035,6,0,B|34:347|81:366|-4:383,1,126
0,86,206825,6,0,P|76:101|169:119,1,157.500006008148,6|0,1:2|1:0,0:0:0:0:
188,184,207348,1,0,1:0:0:0:
363,111,207522,2,0,P|376:78|379:36,1,68.2499968757631,10|0,0:0|0:0,0:0:0:0:
245,243,207871,2,0,P|218:251|178:273,1,68.2499968757631,0|0,1:0|0:0,0:0:0:0:
267,167,208220,1,2,0:0:0:0:
364,253,208394,1,2,1:2:0:0:
309,317,208569,2,0,B|316:336|316:336|303:361|317:392,1,68.2499968757631,2|0,1:2|0:0,0:0:0:0:
443,282,208830,1,2,0:0:0:0:
442,270,208918,6,0,B|461:212|493:247|507:182,1,102.374995313645,8|0,0:0|0:0,0:0:0:0:
504,192,209266,2,0,P|466:181|437:158,1,68.2499968757631,2|2,0:0|0:0,0:0:0:0:
233,42,209615,6,0,B|239:47|239:47|285:42|324:80,1,102.374995313645,2|0,1:2|0:0,0:0:0:0:
324,80,209964,2,0,P|344:61|357:20,1,68.2499968757631,2|0,0:0|1:0,0:0:0:0:
179,171,210313,2,0,P|161:139|156:101,1,68.2499968757631,10|0,0:0|0:0,0:0:0:0:
31,224,210662,2,0,B|42:257|66:240|73:294,1,68.2499968757631,2|0,1:2|1:0,0:0:0:0:
19,366,211011,5,2,0:0:0:0:
142,307,211185,1,0,0:0:0:0:
131,233,211359,5,2,1:2:0:0:
259,295,211534,1,0,0:0:0:0:
479,255,211708,5,8,0:0:0:0:
364,384,211883,2,0,B|371:351|371:351|406:333|413:284,1,102.374995313645,0|0,1:0|0:0,0:0:0:0:
410,297,212231,1,0,0:0:0:0:
444,166,212406,5,2,1:2:0:0:
442,156,212755,5,2,1:2:0:0:
512,190,212929,1,2,1:2:0:0:
423,84,213104,5,10,0:0:0:0:
307,170,213278,1,2,0:0:0:0:
139,64,213452,2,0,P|124:26|121:-18,1,68.2499968757631,2|0,1:2|0:2,0:0:0:0:
252,110,213801,5,2,0:0:0:0:
155,244,213976,1,0,1:0:0:0:
186,153,214150,2,0,P|157:163|112:171,1,68.2499968757631,2|2,1:2|0:0,0:0:0:0:
368,299,214499,2,0,B|450:326|397:346|502:359,1,136.499993751526,8|2,0:0|0:0,0:0:0:0:
445,163,215022,1,2,0:0:0:0:
374,193,215197,6,0,B|368:165|368:165|332:147|331:102,1,102.374995313645,2|0,1:2|0:0,0:0:0:0:
331,105,215545,2,0,P|366:98|395:78,1,68.2499968757631,2|2,0:0|1:2,0:0:0:0:
203,0,215894,2,0,P|198:53|167:109,1,102.374995313645,8|0,0:0|0:0,0:0:0:0:
176,96,216243,1,2,1:2:0:0:
224,167,216418,1,0,1:0:0:0:
5,123,216592,6,0,P|18:154|45:176,1,68.2499968757631,2|0,0:0|0:0,0:0:0:0:
238,284,216941,2,0,P|207:270|166:262,1,68.2499968757631,2|2,1:2|0:0,0:0:0:0:
0,380,217290,5,8,0:0:0:0:
118,325,217464,1,0,1:0:0:0:
55,281,217638,5,4,0:3:0:0:
231,384,217813,1,4,0:3:0:0:
352,325,217987,6,0,P|340:257|332:193,1,118.125004506111,6|0,1:2|0:0,0:0:0:0:
333,208,218336,1,0,1:0:0:0:
404,173,218511,1,0,1:0:0:0:
230,81,218685,2,0,P|193:74|151:56,1,68.2499968757631,10|0,0:0|0:0,0:0:0:0:
370,0,219034,2,0,B|378:25|378:25|363:62|383:104,1,102.374995313645,0|0,1:0|0:0,0:0:0:0:
380,98,219383,5,2,0:0:0:0:
236,159,219557,1,2,1:2:0:0:
257,233,219731,2,0,B|251:237|251:237|218:233|186:266,1,68.2499968757631,2|0,1:2|0:0,0:0:0:0:
0,384,220080,6,0,B|23:306|72:350|77:261,1,136.499993751526,8|2,0:0|0:0,0:0:0:0:
144,313,220604,1,2,0:0:0:0:
0,146,220778,2,0,P|47:159|114:174,1,102.374995313645,2|0,1:2|0:0,0:0:0:0:
99,171,221127,2,0,P|114:140|119:94,1,68.2499968757631,2|0,0:0|1:0,0:0:0:0:
306,69,221476,2,0,B|302:49|302:49|276:35|274:1,1,68.2499968757631,10|0,0:0|0:0,0:0:0:0:
470,82,221825,2,0,P|437:92|385:105,1,68.2499968757631,2|0,1:2|1:2,0:2:0:0:
178,191,222173,5,2,0:0:0:0:
344,218,222348,1,2,0:0:0:0:
239,116,222522,2,0,P|245:150|259:190,1,68.2499968757631,2|0,1:2|0:0,0:0:0:0:
313,384,222871,5,8,0:0:0:0:
246,285,223045,1,0,1:0:0:0:
324,292,223220,5,2,0:0:0:0:
130,361,223394,2,0,P|103:368|57:378,1,68.2499968757631,2|2,0:0|1:2,0:0:0:0:
52,364,223918,5,2,1:2:0:0:
84,292,224092,1,2,1:2:0:0:
3,169,224266,5,10,0:0:0:0:
157,250,224441,1,2,0:0:0:0:
269,190,224615,2,0,B|227:197|227:197|202:235|144:238,1,136.499993751526,2|0,1:2|0:0,0:0:0:0:
103,77,225138,5,0,1:0:0:0:
174,0,225313,2,0,B|167:19|167:19|181:67,1,68.2499968757631,0|0,1:0|0:0,0:0:0:0:
346,225,225662,2,0,B|427:251|378:278|474:288,1,136.499993751526,8|2,0:0|0:0,0:0:0:0:
249,322,226185,1,2,0:0:0:0:
197,384,226359,6,0,P|152:376|136:317,1,102.374995313645,2|0,1:2|0:0,0:0:0:0:
133,327,226708,2,0,P|145:297|154:259,1,68.2499968757631,2|2,0:0|1:2,0:0:0:0:
343,95,227057,2,0,P|312:109|279:119,1,68.2499968757631,10|0,0:0|0:0,0:0:0:0:
192,200,227406,1,2,1:2:0:0:
88,115,227580,2,0,P|150:124|187:195,1,136.499993751526,0|0,1:0|0:0,0:0:0:0:
255,242,228016,1,2,0:0:0:0:
263,257,228104,2,0,B|270:264|270:264|299:261|328:285,1,68.2499968757631,2|0,1:2|0:0,0:0:0:0:
54,378,228452,5,8,0:0:0:0:
122,302,228627,1,0,1:0:0:0:
304,378,228801,5,8,0:0:0:0:
69,235,228976,1,8,0:0:0:0:
475,360,231941,6,0,P|427:347|409:282,1,102.374995313645,6|0,1:2|0:0,0:0:0:0:
405,302,232289,1,0,1:0:0:0:
506,244,232464,1,0,1:0:0:0:
297,139,232638,2,0,P|286:168|281:212,1,68.2499968757631,10|0,0:0|0:0,0:0:0:0:
210,338,232987,2,0,B|204:319|204:319|182:310|171:274,1,68.2499968757631,0|0,1:0|0:0,0:0:0:0:
35,121,233336,5,2,0:0:0:0:
158,200,233510,1,0,1:0:0:0:
84,229,233685,2,0,P|53:243|13:250,1,68.2499968757631,2|0,1:2|0:0,0:0:0:0:
219,114,234034,2,0,P|230:83|240:40,1,68.2499968757631,10|0,0:0|0:0,0:0:0:0:
255,321,234382,2,0,B|321:347|289:361|363:371,1,118.125004506111,2|0,0:0|0:0,0:0:0:0:
372,384,234731,6,0,B|395:307|441:357|442:269,1,136.499993751526,0|2,1:0|0:0,0:0:0:0:
512,255,235254,1,0,1:0:0:0:
355,127,235429,2,0,P|381:140|436:149,1,68.2499968757631,10|0,0:0|0:0,0:0:0:0:
230,253,235778,1,2,1:2:0:0:
188,318,235952,2,0,P|142:294|146:236,1,102.374995313645,2|0,1:2|0:0,0:0:0:0:
138,248,236301,5,0,0:0:0:0:
229,87,236475,2,0,B|235:69|235:69|256:56|264:14,1,68.2499968757631,2|0,1:2|0:0,0:0:0:0:
64,191,236824,2,0,P|34:203|-17:215,1,68.2499968757631,10|0,0:0|1:0,0:0:0:0:
100,104,237173,1,2,0:0:0:0:
106,121,237522,6,0,B|112:127|112:127|159:126|204:177,1,102.374995313645,0|0,1:0|0:0,0:0:0:0:
194,166,237871,1,2,1:2:0:0:
145,223,238045,1,0,1:0:0:0:
301,366,238220,2,0,P|288:339|281:297,1,68.2499968757631,10|0,0:0|0:0,0:0:0:0:
410,139,238568,2,0,B|396:189|362:159|344:214,1,102.374995313645,2|0,1:2|0:0,0:0:0:0:
344,212,238917,5,0,0:0:0:0:
376,335,239092,1,0,1:0:0:0:
444,298,239266,2,0,P|472:293|518:278,1,68.2499968757631,2|0,1:2|0:0,0:0:0:0:
204,185,239615,2,0,P|224:157|240:113,1,68.2499968757631,10|0,0:0|0:0,0:0:0:0:
40,233,239964,2,0,B|47:256|47:256|86:269|94:327,1,102.374995313645,2|0,0:0|0:0,0:0:0:0:
85,333,240313,6,0,B|98:334|98:334|135:296|214:292,1,136.499993751526,2|2,1:2|0:0,0:0:0:0:
272,251,240836,1,0,1:0:0:0:
64,150,241010,2,0,P|24:138|-4:114,1,68.2499968757631,10|0,0:0|0:0,0:0:0:0:
176,151,241359,1,2,1:2:0:0:
194,0,241534,6,0,P|200:42|236:107,1,102.374995313645,2|0,1:2|0:0,0:0:0:0:
226,95,241882,1,0,0:0:0:0:
402,63,242057,2,0,P|420:36|429:-4,1,68.2499968757631,2|0,1:2|0:0,0:0:0:0:
289,199,242406,5,10,0:0:0:0:
454,271,242580,1,0,1:0:0:0:
372,183,242754,5,2,0:0:0:0:
246,307,242929,1,0,0:0:0:0:
60,254,243103,6,0,B|99:246|99:246|129:271|180:262,1,118.125004506111,6|0,1:2|0:0,0:0:0:0:
173,263,243452,1,0,1:0:0:0:
361,365,243627,1,0,1:0:0:0:
429,332,243801,2,0,P|451:292|451:253,1,68.2499968757631,10|0,0:0|0:0,0:0:0:0:
252,95,244150,2,0,P|258:130|297:171,1,68.2499968757631,0|0,1:0|0:0,0:0:0:0:
512,222,244499,5,2,0:0:0:0:
365,122,244673,1,0,1:0:0:0:
489,138,244847,2,0,B|467:143|467:143|457:167|423:175,1,68.2499968757631,2|0,1:2|0:0,0:0:0:0:
238,383,245196,2,0,P|261:355|275:316,1,68.2499968757631,10|0,0:0|0:0,0:0:0:0:
112,237,245545,2,0,B|87:167|54:205|39:141,1,118.125004506111,2|0,0:0|0:0,0:0:0:0:
44,127,245894,6,0,P|80:119|121:92,1,68.2499968757631,0|0,1:0|0:0,0:0:0:0:
194,17,246243,1,2,0:0:0:0:
112,0,246417,1,0,1:0:0:0:
188,173,246592,2,0,B|194:178|194:178|222:175|252:210,1,68.2499968757631,10|0,0:0|0:0,0:0:0:0:
446,285,246941,1,2,1:2:0:0:
383,215,247115,2,0,B|376:250|376:250|330:267|319:330,1,136.499993751526,0|0,1:0|0:0,0:0:0:0:
154,384,247551,1,2,0:0:0:0:
141,375,247638,6,0,P|130:337|122:302,1,68.2499968757631,2|0,1:2|0:0,0:0:0:0:
0,135,247987,1,10,0:0:0:0:
65,82,248161,2,0,P|125:100|110:181,1,136.499993751526,0|0,1:0|0:0,0:0:0:0:
0,292,248685,5,2,1:2:0:0:
6,277,249034,5,2,1:2:0:0:
96,237,249208,1,0,1:0:0:0:
126,165,249382,5,8,0:0:0:0:
280,269,249557,1,0,0:0:0:0:
341,219,249731,2,0,P|333:183|326:142,1,68.2499968757631,0|2,1:0|0:0,0:0:0:0:
480,18,250080,5,2,0:0:0:0:
409,129,250254,1,0,1:2:0:0:
255,46,250429,2,0,P|287:61|326:68,1,68.2499968757631,2|0,1:2|0:0,0:0:0:0:
174,243,250778,2,0,B|102:268|143:287|68:300,1,118.125004506111,8|0,0:0|0:0,0:0:0:0:
61,292,251127,2,0,P|43:263|37:229,1,68.2499968757631,2|2,0:0|0:0,0:0:0:0:
250,384,251475,6,0,B|259:344|259:344|305:326|313:253,1,136.499993751526,0|0,1:0|0:0,0:0:0:0:
253,215,251999,1,0,1:0:0:0:
414,73,252173,2,0,B|409:94|409:94|431:157,1,68.2499968757631,8|0,0:0|0:0,0:0:0:0:
512,287,252522,1,0,1:0:0:0:
512,201,252696,6,0,B|506:210|506:210|463:202|408:252,1,102.374995313645,0|0,1:0|0:0,0:0:0:0:
422,239,253045,1,0,0:0:0:0:
304,141,253220,2,0,P|270:135|241:116,1,68.2499968757631,0|0,1:0|0:0,0:0:0:0:
79,322,253568,5,8,0:0:0:0:
167,259,253743,1,0,1:0:0:0:
32,169,253917,5,8,0:0:0:0:
237,298,254092,1,8,0:0:0:0:
288,233,254266,5,4,0:0:0:0:
410,0,257057,6,0,P|463:23|444:103,1,136.499993751526,0|0,1:0|1:0,0:0:0:0:
385,85,257580,1,0,1:0:0:0:
291,183,257754,2,0,P|256:190|217:214,1,68.2499968757631,10|0,0:0|0:0,0:0:0:0:
160,159,258103,1,0,1:0:0:0:
166,148,258452,5,2,0:0:0:0:
85,254,258626,1,0,1:0:0:0:
16,208,258801,2,0,P|3:177|0:139,1,68.2499968757631,0|0,1:0|0:0,0:0:0:0:
259,284,259150,2,0,B|224:366|185:311|172:397,1,136.499993751526,10|0,0:0|0:0,0:0:0:0:
174,384,259673,1,0,0:0:0:0:
350,337,259847,6,0,P|407:359|484:373,1,136.499993751526,2|0,1:2|0:0,0:0:0:0:
378,265,260370,1,0,1:0:0:0:
512,168,260545,2,0,P|487:180|443:191,1,68.2499968757631,10|0,0:0|0:0,0:0:0:0:
385,54,260894,1,0,1:0:0:0:
322,0,261068,6,0,P|308:67|276:126,1,136.499993751526,0|0,1:0|0:0,0:0:0:0:
121,194,261591,2,0,B|127:211|127:211|149:222|155:254,1,68.2499968757631,0|0,1:0|0:0,0:0:0:0:
367,384,261940,1,8,0:0:0:0:
403,315,262115,2,0,B|393:313|393:313|353:265|266:268,1,136.499993751526,0|0,1:0|0:0,0:0:0:0:
100,351,262638,5,0,1:0:0:0:
113,358,262987,1,0,1:0:0:0:
191,335,263161,1,0,1:0:0:0:
42,224,263336,2,0,B|28:189|6:206|-1:169,1,68.2499968757631,10|0,0:0|0:0,0:0:0:0:
158,133,263684,2,0,P|171:66|186:-3,1,136.499993751526,0|2,1:0|0:0,0:0:0:0:
322,47,264208,5,0,1:0:0:0:
346,122,264382,2,0,P|375:134|423:137,1,68.2499968757631,0|0,1:0|0:0,0:0:0:0:
265,301,264731,2,0,B|179:324|222:341|140:352,1,136.499993751526,10|0,0:0|0:0,0:0:0:0:
139,278,265254,1,0,0:0:0:0:
0,194,265429,6,0,P|40:183|67:129,1,102.374995313645,2|0,1:2|0:0,0:0:0:0:
66,131,265777,2,0,P|58:97|46:57,1,68.2499968757631
267,66,266126,2,0,B|264:47|264:47|288:-15,1,68.2499968757631,10|0,0:0|0:0,0:0:0:0:
205,109,266475,1,0,1:0:0:0:
404,111,266650,6,0,B|415:154|415:154|460:170|458:235,1,136.499993751526,0|0,1:0|0:0,0:0:0:0:
346,314,267173,2,0,P|376:304|418:295,1,68.2499968757631,0|0,1:0|0:0,0:0:0:0:
210,185,267522,1,10,0:0:0:0:
277,229,267696,1,0,1:0:0:0:
125,303,267870,2,0,P|114:271|109:233,1,68.2499968757631
287,154,268219,6,0,B|311:88|339:121|360:67,1,110.249996635437,4|0,0:0|0:0,0:0:0:0:
275,22,268917,2,0,P|238:17|207:-1,1,73.4999977569581,10|0,0:0|0:0,0:0:0:0:
82,236,269963,1,0,0:0:0:0:
82,236,270312,2,0,P|75:200|52:172,1,73.4999977569581,10|0,0:0|0:0,0:0:0:0:
146,288,271010,6,0,B|212:310|168:327|242:339,1,110.249996635437,2|0,0:0|0:0,0:0:0:0:
317,384,271708,2,0,P|335:366|349:316,1,73.4999977569581,10|0,0:0|0:0,0:0:0:0:
512,202,272754,1,0,0:0:0:0:
512,202,273103,2,0,P|494:184|480:134,1,73.4999977569581,10|0,0:0|0:0,0:0:0:0:
395,171,273801,5,0,0:0:0:0:
395,171,274498,2,0,P|380:168|362:160,1,31.5,2|0,0:0|0:0,0:0:0:0:
294,187,275196,2,0,P|289:175|286:157,1,31.5,2|0,0:0|0:0,0:0:0:0:
218,115,275894,2,0,P|225:103|232:85,1,31.5,2|0,0:0|0:0,0:0:0:0:
200,13,276591,2,0,P|220:8|239:0,3,42,2|0|0|0,0:0|0:0|0:0|0:0,0:0:0:0:
17,244,279382,5,2,0:0:0:0:
