osu file format v14

[General]
AudioFilename: audio.mp3
AudioLeadIn: 0
PreviewTime: 180730
Countdown: 1
SampleSet: Soft
StackLeniency: 0.5
Mode: 0
LetterboxInBreaks: 0
WidescreenStoryboard: 0

[Editor]
Bookmarks: 130,36356,54469,81639,117865,135979,154092,181262,217488,271828,308054,326167
DistanceSpacing: 0.8
BeatDivisor: 4
GridSize: 32
TimelineZoom: 2.899999

[Metadata]
Title:i-mage
TitleUnicode:i-mage
Artist:SawanoHiroyuki[nZk]:Aimer
ArtistUnicode:SawanoHiroyuki[nZk]:Aimer
Creator:Deca
Version:Collab Ascent
Source:
Tags:haruto tomadoi haruto_aizawa エメ R∃/MEMBER RE/MEMBER 澤野 弘之
BeatmapID:2048435
BeatmapSetID:978858

[Difficulty]
HPDrainRate:0
CircleSize:4
OverallDifficulty:8.5
ApproachRate:9.3
SliderMultiplier:2.4
SliderTickRate:1

[Events]
//Background and Video events
0,0,"73634202_p0.jpg",0,0
//Break Periods
//Storyboard Layer 0 (Background)
//Storyboard Layer 1 (Fail)
//Storyboard Layer 2 (Pass)
//Storyboard Layer 3 (Foreground)
//Storyboard Sound Samples

[TimingPoints]
164,566.037735849057,4,2,0,50,1,0
9186,-90.9090909090909,4,2,0,50,0,0
54503,-80.6451612903226,4,2,0,50,0,0
68088,-74.6268656716418,4,2,0,50,0,0
68654,-80.6451612903226,4,2,0,50,0,0
72192,-156.25,4,2,0,50,0,0
72616,-135.135135135135,4,2,0,50,0,0
77145,-185.185185185185,4,2,0,50,0,0
79409,-833.333333333333,4,2,0,50,0,0
81673,-52.6315789473684,4,2,0,50,0,0
82239,-66.6666666666667,4,2,0,50,0,0
83937,-58.8235294117647,4,2,0,50,0,0
84786,-66.6666666666667,4,2,0,50,0,0
86201,-58.8235294117647,4,2,0,50,0,0
87192,-66.6666666666667,4,2,0,50,0,0
88465,-58.8235294117647,4,2,0,50,0,0
89880,-66.6666666666667,4,2,0,50,0,0
90730,-55.5555555555556,4,2,0,50,0,0
91437,-66.6666666666667,4,2,0,50,0,0
92994,-58.8235294117647,4,2,0,50,0,0
93843,-66.6666666666667,4,2,0,50,0,0
96248,-58.8235294117647,4,2,0,50,0,0
100352,-66.6666666666667,4,2,0,50,0,0
102050,-58.8235294117647,4,2,0,50,0,0
102616,-66.6666666666667,4,2,0,50,0,0
107145,-58.8235294117647,4,2,0,50,0,0
107428,-66.6666666666667,4,2,0,50,0,0
108843,-55.5555555555556,4,2,0,50,0,0
109267,-66.6666666666667,4,2,0,50,0,0
111107,-58.8235294117647,4,2,0,50,0,0
111673,-66.6666666666667,4,2,0,50,0,0
117899,-83.3333333333333,4,2,0,50,0,0
136013,-86.2068965517241,4,2,0,50,0,0
144645,-116.279069767442,4,2,0,50,0,0
145069,-86.2068965517241,4,2,0,50,0,0
154126,-76.9230769230769,4,2,0,50,0,0
172239,-135.135135135135,4,2,0,50,0,0
179031,-833.333333333333,4,2,0,50,0,0
181296,-58.8235294117647,4,2,0,50,0,0
217522,-90.9090909090909,4,2,0,50,0,0
218088,-67.5675675675676,4,2,0,50,0,0
218796,-135.135135135135,4,2,0,50,0,0
219220,-92.5925925925926,4,2,0,50,0,0
219786,-67.5675675675676,4,2,0,50,0,0
221626,-102.040816326531,4,2,0,50,0,0
222050,-102.040816326531,4,2,0,50,0,0
222616,-128.205128205129,4,2,0,50,0,0
223041,-69.4444444444444,4,2,0,50,0,0
223324,-96.1538461538461,4,2,0,50,0,0
223748,-87.719298245614,4,2,0,50,0,0
224314,-69.4444444444444,4,2,0,50,0,0
226154,-96.1538461538461,4,2,0,50,0,0
226579,-69.4444444444444,4,2,0,50,0,0
227852,-106.382978723404,4,2,0,50,0,0
228277,-72.463768115942,4,2,0,50,0,0
230682,-92.5925925925926,4,2,0,50,0,0
231107,-147.058823529412,4,2,0,50,0,0
231673,-75.7575757575758,4,2,0,50,0,0
233088,-65.7894736842105,4,2,0,50,0,0
233371,-98.0392156862745,4,2,0,50,0,0
234503,-108.695652173913,4,2,0,50,0,0
235069,-58.1395348837209,4,2,0,50,0,0
235140,-58.1395348837209,4,2,0,10,0,0
235635,-67.5675675675676,4,2,0,50,0,1
241437,-72.463768115942,4,2,0,50,0,1
241862,-70.4225352112676,4,2,0,50,0,1
242428,-69.4444444444444,4,2,0,50,0,1
242852,-70.4225352112676,4,2,0,50,0,1
253748,-98.0392156862745,4,2,0,50,0,1
254314,-72.463768115942,4,2,0,50,0,1
255022,-92.5925925925926,4,2,0,50,0,1
255447,-72.463768115942,4,2,0,50,0,1
262380,-185.185185185185,4,2,0,50,0,1
262805,-73.5294117647059,4,2,0,50,0,1
271862,-84.7457627118644,4,2,0,50,0,0
272428,-62.5,4,2,0,50,0,0
275541,-100,4,2,0,50,0,0
275824,-58.8235294117647,4,2,0,50,0,0
276390,-71.4285714285714,4,2,0,50,0,0
276956,-62.5,4,2,0,50,0,0
281484,-71.4285714285714,4,2,0,50,0,0
285447,-83.3333333333333,4,2,0,50,0,0
286013,-66.6666666666667,4,2,0,50,0,0
292239,-76.9230769230769,4,2,0,50,0,0
294503,-100,4,2,0,50,0,0
295069,-62.5,4,2,0,50,0,0
295918,-76.9230769230769,4,2,0,50,0,0
304126,-62.5,4,2,0,50,0,0
308088,-66.6666666666667,4,2,0,50,0,0

[Colours]
Combo1 : 74,90,181
Combo2 : 145,36,36
Combo3 : 216,137,73
Combo4 : 233,221,116

[HitObjects]
184,69,164,6,0,P|211:35|249:23,1,60
301,0,447,1,0,0:0:0:0:
386,183,588,6,0,P|361:128|304:90,1,120
244,128,1013,1,0,0:0:0:0:
119,120,1154,6,0,P|132:158|135:187,1,60
44,176,1437,2,0,P|66:216|71:245,1,60
78,309,1720,1,0,0:0:0:0:
201,323,1862,6,0,L|213:177,1,120
464,224,2428,6,0,P|430:240|404:244,1,60
330,226,2711,1,0,0:0:0:0:
411,55,2852,6,0,P|465:103|476:180,1,120
336,35,3277,1,0,0:0:0:0:
274,81,3418,2,0,P|251:118|248:145,1,60
169,149,3701,2,0,L|158:22,1,120
92,181,4126,6,0,P|64:194|19:199,1,60
147,240,4409,2,0,P|119:272|82:291,1,60
357,188,4692,6,0,P|306:159|249:171,1,120
453,99,5116,2,0,P|434:144|432:170,1,60
444,291,5399,2,0,P|425:246|423:220,1,60
347,68,5682,6,0,L|356:187,2,120
224,259,6390,6,0,P|260:248|292:250,1,60
359,269,6673,1,0,0:0:0:0:
169,316,6956,6,0,P|133:305|101:307,1,60
34,326,7239,1,0,0:0:0:0:
0,158,7380,2,0,P|48:171|83:262,1,120
110,119,7805,6,0,L|179:111,1,60
246,101,8088,1,0,0:0:0:0:
355,196,8230,2,0,L|286:188,1,60
219,178,8513,1,0,0:0:0:0:
114,277,8654,5,0,0:0:0:0:
114,277,8796,1,0,0:0:0:0:
250,259,8937,5,0,0:0:0:0:
250,259,9079,1,0,0:0:0:0:
405,384,9220,6,0,P|385:332|310:292,1,132.00000402832
444,199,9645,2,0,P|435:243|434:275,1,66.0000020141602
377,158,9928,2,0,P|359:199|351:230,1,66.0000020141602
272,65,10211,6,0,P|303:92|318:129,1,66.0000020141602
209,14,10494,2,0,P|160:29|122:120,1,132.00000402832
123,191,10918,6,0,P|159:164|190:160,1,66.0000020141602
311,210,11201,2,0,P|275:183|244:179,1,66.0000020141602
155,287,11484,6,0,P|179:249|207:234,1,66.0000020141602
267,274,11767,1,0,0:0:0:0:
367,384,11909,6,0,L|377:244,1,132.00000402832
384,172,12333,1,0,0:0:0:0:
270,99,12475,6,0,P|305:112|337:111,1,66.0000020141602
221,0,12758,2,0,P|195:36|205:142,1,132.00000402832
152,193,13182,5,0,0:0:0:0:
152,193,13324,1,0,0:0:0:0:
51,98,13465,2,0,P|72:141|76:178,1,66.0000020141602
49,352,13748,6,0,P|72:302|164:278,1,132.00000402832
246,366,14173,2,0,P|231:337|193:312,1,66.0000020141602
228,244,14456,2,0,L|241:108,1,132.00000402832
324,61,15022,2,0,P|362:94|353:222,1,132.00000402832
341,329,15447,6,0,P|374:323|414:324,1,66.0000020141602
422,245,15730,2,0,P|455:251|495:250,1,66.0000020141602
304,205,16013,6,0,P|266:238|281:345,1,132.00000402832
120,220,16437,2,0,P|171:224|210:243,1,66.0000020141602
154,300,16720,2,0,P|103:304|64:323,1,66.0000020141602
86,146,17003,6,0,P|26:157|3:247,2,132.00000402832
190,70,17711,5,0,0:0:0:0:
233,134,17852,1,0,0:0:0:0:
304,97,17994,2,0,P|354:105|382:104,1,66.0000020141602
189,257,18277,6,0,P|232:217|375:267,1,198.000006042481
446,111,18843,2,0,L|434:243,1,132.00000402832
487,318,19267,6,0,P|448:322|416:338,1,66.0000020141602
348,318,19550,2,0,P|309:314|277:298,1,66.0000020141602
217,342,19833,1,0,0:0:0:0:
204,142,19975,6,0,B|235:186|235:186|215:279,1,132.00000402832
303,139,20541,6,0,B|409:120|386:217|486:212,1,198.000006042481
253,78,21107,2,0,P|207:83|161:180,1,132.00000402832
110,211,21531,1,0,0:0:0:0:
25,77,21673,6,0,P|75:91|108:92,1,66.0000020141602
190,7,21956,2,0,P|157:11|126:22,1,66.0000020141602
23,163,22239,5,0,0:0:0:0:
35,302,22380,2,0,P|44:251|138:214,1,132.00000402832
171,371,22805,6,0,L|192:147,1,198.000006042481
367,332,23371,2,0,P|352:322|242:370,1,132.00000402832
265,135,23796,6,0,P|277:183|294:224,1,66.0000020141602
341,106,24079,2,0,P|369:143|387:160,1,66.0000020141602
443,204,24362,1,0,0:0:0:0:
263,54,24503,6,0,B|182:51|164:131|164:131,1,132.00000402832
91,154,24928,1,0,0:0:0:0:
22,226,25069,6,0,L|3:82,1,132.00000402832
58,38,25494,1,0,0:0:0:0:
152,207,25635,2,0,P|192:237|287:239,1,132.00000402832
338,201,26060,1,0,0:0:0:0:
353,354,26201,2,0,P|348:317|337:287,1,66.0000020141602
432,370,26484,2,0,P|433:332|427:301,1,66.0000020141602
393,131,26767,5,0,0:0:0:0:
284,11,26909,2,0,B|325:45|325:45|312:148,1,132.00000402832
132,214,27333,5,0,0:0:0:0:
166,145,27475,1,0,0:0:0:0:
241,164,27616,1,0,0:0:0:0:
379,210,27758,6,0,P|331:208|294:227,1,66.0000020141602
218,259,28041,2,0,P|258:269|286:302,1,66.0000020141602
342,384,28324,6,0,L|351:316,1,66.0000020141602
147,223,28607,2,0,P|83:239|54:320,1,132.00000402832
35,123,29031,2,0,L|176:146,1,132.00000402832
357,88,29597,5,0,0:0:0:0:
342,161,29739,1,0,0:0:0:0:
411,202,29880,1,0,0:0:0:0:
276,209,30022,6,0,P|243:191|213:188,1,66.0000020141602
103,178,30305,2,0,P|127:149|155:136,1,66.0000020141602
237,276,30588,5,0,0:0:0:0:
124,260,30730,2,0,P|139:298|137:342,1,66.0000020141602
48,240,31013,2,0,P|33:278|35:322,1,66.0000020141602
187,198,31296,5,0,0:0:0:0:
327,283,31437,1,0,0:0:0:0:
348,168,31579,5,0,0:0:0:0:
273,195,31720,1,0,0:0:0:0:
273,195,31862,2,0,P|264:159|267:119,1,66.0000020141602
282,54,32145,1,0,0:0:0:0:
418,208,32286,6,0,P|433:148|430:118,1,66.0000020141602
476,266,32569,2,0,P|501:209|503:179,1,66.0000020141602
362,338,32852,6,0,P|400:327|478:380,2,132.00000402832
273,195,33560,2,0,P|257:228|253:268,1,66.0000020141602
294,384,33843,2,0,P|270:353|249:335,1,66.0000020141602
29,266,34126,5,0,0:0:0:0:
71,199,34267,1,0,0:0:0:0:
146,212,34409,1,0,0:0:0:0:
192,90,34550,6,0,L|202:163,1,66.0000020141602
276,91,34833,2,0,P|334:109|420:94,1,132.00000402832
415,229,35258,2,0,P|439:185|445:164,1,66.0000020141602
454,296,35541,2,0,P|491:263|504:245,1,66.0000020141602
245,232,35824,5,0,0:0:0:0:
346,190,35965,1,0,0:0:0:0:
374,313,36107,5,0,0:0:0:0:
305,284,36248,1,0,0:0:0:0:
191,348,36390,6,0,P|221:350|265:359,1,66.0000020141602
158,262,36673,1,0,0:0:0:0:
158,262,36814,2,0,P|128:264|84:273,1,66.0000020141602
8,148,37097,2,0,P|64:183|136:161,1,132.00000402832
170,103,37522,6,0,P|167:68|165:35,1,66.0000020141602
264,118,37805,1,0,0:0:0:0:
264,118,37947,2,0,P|261:153|259:186,1,66.0000020141602
445,94,38230,2,0,P|387:100|327:51,1,132.00000402832
445,94,38654,6,0,P|439:148|434:235,1,132.00000402832
495,344,39079,2,0,P|501:312|487:283,1,66.0000020141602
337,181,39362,2,0,P|322:210|328:242,1,66.0000020141602
402,304,39645,1,0,0:0:0:0:
402,304,39786,6,0,L|409:235,1,66.0000020141602
243,370,40069,2,0,L|236:301,1,66.0000020141602
322,322,40352,5,0,0:0:0:0:
166,251,40494,2,0,B|150:280|150:280|154:318,1,66.0000020141602
84,190,40777,5,0,0:0:0:0:
84,190,40918,2,0,L|72:50,1,132.00000402832
232,139,41343,2,0,P|203:126|161:125,1,66.0000020141602
277,0,41626,2,0,P|248:13|206:14,1,66.0000020141602
336,108,41909,5,0,0:0:0:0:
374,39,42050,2,0,P|438:57|461:125,1,132.00000402832
415,215,42475,2,0,L|408:289,1,66.0000020141602
506,369,42758,2,0,B|457:356|457:356|367:366,1,132.00000402832
295,267,43182,6,0,P|249:297|171:289,1,132.00000402832
64,357,43607,2,0,P|96:358|137:368,1,66.0000020141602
189,198,43890,2,0,P|156:205|123:206,1,66.0000020141602
269,111,44173,5,0,0:0:0:0:
340,143,44314,2,0,B|353:111|353:111|345:68,1,66.0000020141602
186,179,44597,2,0,B|173:147|173:147|178:116,1,66.0000020141602
341,233,44880,5,0,0:0:0:0:
401,286,45022,2,0,P|439:293|478:307,1,66.0000020141602
290,384,45305,6,0,P|293:367|293:352,1,33.0000010070801
286,335,45447,2,0,P|222:344|143:350,1,132.00000402832
47,262,45871,1,0,0:0:0:0:
11,334,46013,2,0,P|44:338|76:346,1,66.0000020141602
197,217,46296,5,0,0:0:0:0:
156,149,46437,2,0,P|110:175|26:173,1,132.00000402832
105,19,46862,2,0,P|98:52|96:92,1,66.0000020141602
236,202,47145,2,0,P|249:148|253:68,1,132.00000402832
359,0,47569,1,0,0:0:0:0:
416,59,47711,6,0,P|353:50|274:44,1,132.00000402832
459,148,48135,2,0,P|423:151|392:160,1,66.0000020141602
300,263,48418,2,0,P|364:261|425:293,1,132.00000402832
245,384,48843,6,0,P|250:352|251:316,1,66.0000020141602
269,121,49126,2,0,P|263:153|262:186,1,66.0000020141602
81,287,49409,5,0,0:0:0:0:
92,209,49550,2,0,B|166:209|133:241|220:250,1,132.00000402832
10,230,49975,6,0,P|10:158|5:90,1,132.00000402832
116,41,50399,1,0,0:0:0:0:
44,14,50541,2,0,P|38:44|38:82,1,66.0000020141602
177,152,50824,5,0,0:0:0:0:
246,181,50965,2,0,P|252:151|252:113,1,66.0000020141602
177,304,51248,2,0,P|235:273|313:295,1,132.00000402832
465,341,51673,6,0,B|380:331|414:371|336:366,1,132.00000402832
263,356,52097,1,0,0:0:0:0:
386,209,52239,6,0,P|380:241|378:284,1,66.0000020141602
279,128,52522,1,0,0:0:0:0:
279,128,52664,2,0,P|285:160|287:193,1,66.0000020141602
494,125,52947,1,0,0:0:0:0:
494,125,53088,2,0,P|479:180|472:260,1,132.00000402832
358,73,53513,2,0,P|392:73|428:65,1,66.0000020141602
60,10,53937,5,0,0:0:0:0:
135,38,54079,1,0,0:0:0:0:
213,8,54220,5,0,0:0:0:0:
169,12,54362,1,0,0:0:0:0:
135,37,54503,6,0,P|95:98|110:169,1,148.79999409668
64,246,54928,1,0,0:0:0:0:
64,246,55069,2,0,L|-9:231,1,74.39999704834
148,293,55352,1,0,0:0:0:0:
193,210,55494,2,0,P|203:172|188:123,1,74.39999704834
0,381,55777,2,0,L|91:362,1,74.39999704834
193,210,56060,5,0,0:0:0:0:
247,292,56201,2,0,B|317:295|299:231|379:234,1,148.79999409668
377,233,56767,6,0,P|371:183|365:146,1,74.39999704834
297,100,57050,1,0,0:0:0:0:
459,23,57192,1,0,0:0:0:0:
459,23,57333,2,0,P|441:74|403:95,1,74.39999704834
193,210,57616,5,0,0:0:0:0:
379,325,57758,2,0,P|429:331|466:337,1,74.39999704834
247,292,58041,5,0,0:0:0:0:
319,225,58182,1,0,0:0:0:0:
265,143,58324,1,0,0:0:0:0:
149,300,58465,6,0,L|77:318,1,74.39999704834
0,337,58748,1,0,0:0:0:0:
61,156,59031,6,0,B|116:169|116:169|136:196|136:196|193:210,1,148.79999409668
367,75,59456,1,0,0:0:0:0:
265,143,59597,2,0,P|280:98|264:56,1,74.39999704834
319,225,59880,1,0,0:0:0:0:
319,225,60022,2,0,L|409:252,1,74.39999704834
250,360,60306,2,0,B|236:327|236:327|246:291,1,74.39999704834
445,157,60588,1,0,0:0:0:0:
495,218,60730,2,0,P|515:263|466:352,1,148.79999409668
265,143,61154,5,0,0:0:0:0:
319,225,61296,2,0,L|409:252,1,74.39999704834
112,317,61579,5,0,0:0:0:0:
250,360,61720,2,0,L|178:381,1,74.39999704834
220,232,62003,6,0,P|185:199|181:97,1,148.79999409668
230,26,62428,1,0,0:0:0:0:
74,169,62569,1,0,0:0:0:0:
74,169,62711,2,0,P|25:160|-24:153,1,74.39999704834
250,360,62994,1,0,0:0:0:0:
301,278,63135,1,0,0:0:0:0:
372,329,63277,1,0,0:0:0:0:
464,22,63560,6,0,P|400:43|295:61,1,148.79999409668
265,143,63984,1,0,0:0:0:0:
265,143,64126,2,0,P|247:182|256:220,1,74.39999704834
230,26,64409,1,0,0:0:0:0:
299,315,64550,6,0,P|335:319|371:328,1,74.39999704834
161,174,64833,2,0,P|124:169|88:160,1,74.39999704834
23,99,65116,1,0,0:0:0:0:
119,364,65258,6,0,P|143:326|137:282,1,74.39999704834
58,264,65541,2,0,P|34:302|40:346,1,74.39999704834
252,224,65824,6,0,B|321:210|304:167|390:152,1,148.79999409668
281,94,66248,1,0,0:0:0:0:
486,189,66390,2,0,P|474:149|469:111,1,74.39999704834
299,384,66673,2,0,P|311:344|316:306,1,74.39999704834
318,222,66956,1,0,0:0:0:0:
230,238,67097,1,0,0:0:0:0:
396,259,67239,5,0,0:0:0:0:
281,94,67380,1,0,0:0:0:0:
145,222,67522,1,0,0:0:0:0:
212,151,67664,6,0,L|125:133,1,74.39999704834
61,121,67947,1,0,0:0:0:0:
166,381,68088,6,0,P|230:377|291:295,1,160.799992393799
230,238,68513,1,0,0:0:0:0:
366,80,68654,2,0,L|380:156,1,74.39999704834
161,33,68937,1,0,0:0:0:0:
161,33,69079,2,0,L|237:19,1,74.39999704834
230,238,69362,2,0,L|156:224,2,74.39999704834
271,158,69786,6,0,P|286:117|281:82,1,74.39999704834
82,174,70069,2,0,P|67:215|72:250,1,74.39999704834
265,358,70352,6,0,B|336:344|307:300|388:282,1,148.79999409668
448,215,70777,1,0,0:0:0:0:
282,87,70918,1,0,0:0:0:0:
282,87,71060,2,0,L|195:105,1,74.39999704834
347,176,71343,5,0,0:0:0:0:
361,99,71484,1,0,0:0:0:0:
375,22,71626,1,0,0:0:0:0:
314,294,71767,2,0,L|394:280,1,74.39999704834
452,343,72050,1,0,0:0:0:0:
229,209,72192,6,0,P|209:242|207:294,1,76.8
204,279,72616,6,0,L|26:310,2,177.600004335938
448,136,74314,1,0,0:0:0:0:
243,140,74880,6,0,P|293:71|379:74,2,177.600004335938
277,226,76579,1,0,0:0:0:0:
61,34,77145,2,0,P|99:45|132:53,1,64.8000015820313
191,211,77711,6,0,P|153:200|59:181,2,129.600003164063
48,378,79409,6,0,P|56:341|89:306,1,86.4000021093751
167,287,81248,5,0,0:0:0:0:
203,358,81390,1,0,0:0:0:0:
85,213,81531,5,0,0:0:0:0:
282,339,81673,2,0,P|285:287|296:208,1,113.999996955872
324,68,81956,1,0,0:0:0:0:
414,193,82097,1,0,0:0:0:0:
414,193,82239,2,0,P|358:153|311:145,1,90.0000034332277
203,358,82522,1,0,0:0:0:0:
167,287,82664,2,0,P|183:235|187:191,1,90.0000034332277
179,162,82947,2,0,B|290:137|254:255|366:240,1,180.000006866455
484,230,83371,5,0,0:0:0:0:
414,193,83513,1,0,0:0:0:0:
492,50,83654,5,0,0:0:0:0:
422,280,83796,1,0,0:0:0:0:
250,45,83937,2,0,B|330:21|330:21|342:82|359:155,1,204.000003890991
345,0,84362,1,0,0:0:0:0:
270,119,84503,2,0,P|203:136|167:145,1,102.000001945496
70,24,84786,2,0,P|88:55|97:125,1,90.0000034332277
73,202,85069,5,0,0:0:0:0:
0,230,85211,1,0,0:0:0:0:
212,215,85352,2,0,P|271:235|310:231,1,90.0000034332277
432,124,85635,5,0,0:0:0:0:
297,233,85777,1,0,0:0:0:0:
250,45,85918,5,0,0:0:0:0:
451,199,86060,1,0,0:0:0:0:
365,366,86201,2,0,P|377:309|381:255,1,102.000001945496
343,80,86484,1,0,0:0:0:0:
209,218,86626,1,0,0:0:0:0:
209,218,86767,2,0,P|220:155|224:84,1,102.000001945496
162,16,87050,1,0,0:0:0:0:
0,161,87192,6,0,P|64:127|135:135,1,102.000001945496
74,280,87475,2,0,B|194:249|154:364|299:340,1,204.000003890991
333,85,87899,5,0,0:0:0:0:
300,170,88041,1,0,0:0:0:0:
407,370,88182,5,0,0:0:0:0:
374,199,88324,1,0,0:0:0:0:
203,347,88465,2,0,P|134:361|91:364,1,102.000001945496
272,384,88748,1,0,0:0:0:0:
228,107,88890,5,0,0:0:0:0:
244,269,89031,1,0,0:0:0:0:
31,180,89173,2,0,P|113:186|280:190,1,204.000003890991
392,98,89597,2,0,P|378:161|373:220,1,102.000001945496
349,351,89880,2,0,P|342:300|328:263,1,90.0000034332277
124,242,90164,5,0,0:0:0:0:
57,344,90305,1,0,0:0:0:0:
31,153,90447,5,0,0:0:0:0:
140,341,90588,1,0,0:0:0:0:
295,105,90730,6,0,B|223:134|223:134|62:82,1,215.999993408203
365,0,91154,1,0,0:0:0:0:
364,172,91296,1,0,0:0:0:0:
364,172,91437,2,0,P|371:123|387:73,1,90.0000034332277
393,308,91720,6,0,P|330:244|225:266,1,180.000006866455
98,322,92145,1,0,0:0:0:0:
148,219,92286,1,0,0:0:0:0:
29,173,92428,2,0,P|44:244|47:284,1,90.0000034332277
165,67,92711,5,0,0:0:0:0:
217,126,92852,1,0,0:0:0:0:
400,2,92994,2,0,P|353:-14|329:126,1,204.000003890991
480,30,93418,1,0,0:0:0:0:
472,108,93560,2,0,P|466:168|466:224,1,102.000001945496
326,355,93843,6,0,P|324:304|320:258,1,90.0000034332277
307,186,94126,1,0,0:0:0:0:
413,267,94267,1,0,0:0:0:0:
382,139,94409,5,0,0:0:0:0:
320,265,94550,1,0,0:0:0:0:
273,54,94692,5,0,0:0:0:0:
219,180,94833,1,0,0:0:0:0:
181,258,94975,5,0,0:0:0:0:
105,264,95116,1,0,0:0:0:0:
77,249,95258,6,0,B|184:223|154:344|262:337,1,180.000006866455
219,180,95682,1,0,0:0:0:0:
101,345,95824,2,0,P|41:355|-24:358,1,102.000001945496
53,147,96107,5,0,0:0:0:0:
161,39,96248,2,0,B|241:61|241:61|225:126|215:209,1,204.000003890991
206,259,96673,1,0,0:0:0:0:
101,345,96814,1,0,0:0:0:0:
101,345,96956,2,0,P|119:264|144:140,1,204.000003890991
161,54,97380,1,0,0:0:0:0:
272,158,97522,5,0,0:0:0:0:
258,83,97664,1,0,0:0:0:0:
356,102,97805,1,0,0:0:0:0:
274,171,97947,1,0,0:0:0:0:
335,364,98088,5,0,0:0:0:0:
477,294,98230,1,0,0:0:0:0:
378,293,98371,5,0,0:0:0:0:
250,251,98513,1,0,0:0:0:0:
189,309,98654,5,0,0:0:0:0:
167,233,98796,1,0,0:0:0:0:
211,45,98937,5,0,0:0:0:0:
158,153,99079,1,0,0:0:0:0:
47,31,99220,5,0,0:0:0:0:
249,127,99362,5,0,0:0:0:0:
0,174,99503,5,0,0:0:0:0:
250,251,99645,5,0,0:0:0:0:
0,316,99786,6,0,B|126:274|96:381|209:359,1,204.000003890991
321,384,100211,1,0,0:0:0:0:
391,349,100352,2,0,P|384:286|387:230,1,90.0000034332277
333,115,100635,1,0,0:0:0:0:
396,67,100777,2,0,P|460:101|496:103,1,90.0000034332277
499,120,101060,2,0,B|397:114|433:199|286:195,1,180.000006866455
180,121,101484,5,0,0:0:0:0:
255,144,101626,1,0,0:0:0:0:
416,220,101767,5,0,0:0:0:0:
238,274,101909,1,0,0:0:0:0:
361,367,102050,6,0,P|353:307|347:234,1,102.000001945496
343,105,102333,1,0,0:0:0:0:
503,231,102475,1,0,0:0:0:0:
503,231,102616,2,0,P|458:216|409:223,1,90.0000034332277
330,281,102899,2,0,P|336:232|340:171,1,90.0000034332277
269,68,103182,6,0,B|257:113|257:113|273:164,1,90.0000034332277
419,138,103465,2,0,B|431:93|431:93|415:42,1,90.0000034332277
199,10,103748,5,0,0:0:0:0:
162,81,103890,1,0,0:0:0:0:
7,20,104031,5,0,0:0:0:0:
125,154,104173,1,0,0:0:0:0:
59,348,104314,6,0,P|71:282|74:238,1,90.0000034332277
57,105,104597,1,0,0:0:0:0:
180,243,104739,1,0,0:0:0:0:
262,148,104880,2,0,P|256:207|258:266,1,90.0000034332277
327,101,105164,1,0,0:0:0:0:
422,215,105305,6,0,P|475:229|525:233,1,90.0000034332277
281,327,105588,2,0,B|305:282|363:286|363:286|401:303|476:314,1,180.000006866455
380,133,106013,5,0,0:0:0:0:
262,216,106154,1,0,0:0:0:0:
289,41,106296,5,0,0:0:0:0:
301,118,106437,1,0,0:0:0:0:
170,294,106579,6,0,B|67:282|84:336|-16:328,1,180.000006866455
64,56,107003,5,0,0:0:0:0:
164,189,107145,2,0,P|242:214|299:215,1,102.000001945496
85,139,107428,2,0,P|40:147|0:164,1,90.0000034332277
0,170,107711,6,0,P|12:217|20:277,1,90.0000034332277
151,381,107994,2,0,P|158:336|169:293,1,90.0000034332277
210,128,108277,5,0,0:0:0:0:
100,225,108418,1,0,0:0:0:0:
124,141,108560,5,0,0:0:0:0:
190,210,108701,1,0,0:0:0:0:
382,282,108843,6,0,P|430:268|350:170,1,215.999993408203
290,336,109267,1,0,0:0:0:0:
256,265,109409,2,0,P|220:277|147:283,1,90.0000034332277
298,197,109692,1,0,0:0:0:0:
369,358,109833,2,0,P|405:370|478:376,1,90.0000034332277
507,316,110116,1,0,0:0:0:0:
404,107,110258,6,0,P|329:70|241:175,1,180.000006866455
89,245,110682,5,0,0:0:0:0:
137,74,110824,1,0,0:0:0:0:
199,166,110965,1,0,0:0:0:0:
0,136,111107,2,0,B|89:154|89:154|120:148|120:148|200:167,1,204.000003890991,0|0,3:0|3:0,3:0:0:0:
273,343,111531,1,0,0:0:0:0:
255,233,111673,2,0,P|224:244|188:299,1,90.0000034332277
310,172,111956,6,0,B|414:156|387:261|486:255,1,180.000006866455
422,122,112380,1,0,0:0:0:0:
485,73,112522,1,0,0:0:0:0:
507,182,112664,1,0,0:0:0:0:
380,36,112805,5,0,0:0:0:0:
364,236,112947,1,0,0:0:0:0:
414,110,113088,1,0,0:0:0:0:
313,86,113230,1,0,0:0:0:0:
187,0,113371,6,0,P|232:39|239:95,1,90.0000034332277
181,240,113654,1,0,0:0:0:0:
96,33,113796,1,0,0:0:0:0:
96,33,113937,2,0,B|146:70|146:70|114:141|126:233,1,180.000006866455
309,311,114362,6,0,P|288:254|172:246,1,180.000006866455
81,351,114786,1,0,0:0:0:0:
110,278,114928,1,0,0:0:0:0:
201,367,115069,2,0,P|254:381|319:385,1,90.0000034332277
470,326,115352,2,0,P|425:332|383:348,1,90.0000034332277
264,184,115635,5,0,0:0:0:0:
333,222,115777,1,0,0:0:0:0:
419,170,115918,1,0,0:0:0:0:
410,253,116060,1,0,0:0:0:0:
294,53,116201,5,0,0:0:0:0:
420,153,116343,1,0,0:0:0:0:
417,36,116484,5,0,0:0:0:0:
331,136,116626,1,0,0:0:0:0:
198,265,116767,5,0,0:0:0:0:
175,188,116909,1,0,0:0:0:0:
333,222,117050,1,0,0:0:0:0:
266,326,117192,1,0,0:0:0:0:
203,57,117333,5,0,0:0:0:0:
118,272,117475,1,0,0:0:0:0:
19,124,117616,5,0,0:0:0:0:
55,111,117687,1,0,0:0:0:0:
88,116,117758,1,0,0:0:0:0:
104,128,117829,1,0,0:0:0:0:
115,144,117899,6,0,P|149:165|279:160,1,143.999995605469
308,228,118324,1,0,0:0:0:0:
394,347,118465,2,0,P|332:355|239:369,1,143.999995605469
412,254,118890,6,0,B|400:222|400:222|408:180,1,71.9999978027344
236,283,119173,1,0,0:0:0:0:
170,326,119314,2,0,B|95:340,1,71.9999978027344
236,204,119597,6,0,P|267:150|245:68,1,143.999995605469
235,59,120022,1,0,0:0:0:0:
337,207,120164,6,0,B|421:222|383:256|475:279,1,143.999995605469
251,306,120588,1,0,0:0:0:0:
183,269,120730,2,0,B|99:284|137:318|45:341,1,143.999995605469
183,269,121154,1,0,0:0:0:0:
103,139,121296,6,0,P|99:175|92:218,1,71.9999978027344
288,349,121579,2,0,P|292:313|299:270,1,71.9999978027344
288,349,121862,1,0,0:0:0:0:
365,160,122003,6,0,P|378:226|385:309,1,143.999995605469
512,111,122428,6,0,B|464:100|426:98|426:98|421:64|427:36,1,143.999995605469
290,134,122852,1,0,0:0:0:0:
229,180,122994,2,0,L|61:209,1,143.999995605469
326,237,123418,6,0,L|404:253,1,71.9999978027344
243,314,123701,1,0,0:0:0:0:
183,360,123843,2,0,L|15:389,1,143.999995605469
186,365,124409,1,0,0:0:0:0:
186,365,124550,1,0,0:0:0:0:
83,276,124692,6,0,B|64:184|112:217|87:125,1,143.999995605469
220,255,125116,1,0,0:0:0:0:
287,211,125258,2,0,P|352:239|360:313,1,143.999995605469
479,358,125682,6,0,P|442:364|410:376,1,71.9999978027344
400,166,125965,1,0,0:0:0:0:
400,166,126107,2,0,P|433:178|469:184,1,71.9999978027344
318,16,126390,5,0,0:0:0:0:
256,64,126531,2,0,L|34:97,1,215.999993408203
18,67,127239,6,0,L|94:80,1,71.9999978027344
195,178,127522,2,0,P|127:174|65:222,1,143.999995605469
27,348,127947,6,0,P|25:313|16:272,1,71.9999978027344
230,108,128230,1,0,0:0:0:0:
230,108,128371,2,0,P|232:143|241:184,1,71.9999978027344
35,146,128654,2,0,B|125:131|125:131|137:101|123:71,1,143.999995605469
126,79,129220,6,0,P|118:152|113:228,1,143.999995605469
222,303,129645,2,0,P|228:336|229:376,1,71.9999978027344
43,272,129928,2,0,P|37:305|36:345,1,71.9999978027344
206,215,130211,6,0,B|294:200|270:249|362:240,1,143.999995605469
434,338,130635,2,0,P|398:342|364:354,1,71.9999978027344
469,164,130918,5,0,0:0:0:0:
417,110,131060,2,0,P|366:106|265:77,1,143.999995605469
164,196,131484,6,0,B|85:214|119:245|38:267,1,143.999995605469
225,361,131909,1,0,0:0:0:0:
275,299,132050,2,0,P|341:317|372:386,1,143.999995605469
455,365,132475,6,0,P|458:331|465:294,1,71.9999978027344
262,201,132758,2,0,P|259:235|252:272,1,71.9999978027344
419,80,133041,5,0,0:0:0:0:
345,57,133182,2,0,P|352:204|367:351,1,287.999991210938
385,372,134031,6,0,P|378:337|375:288,1,71.9999978027344
244,346,134314,2,0,B|159:337|185:378|100:377,1,143.999995605469
56,323,134739,1,0,0:0:0:0:
119,196,134880,6,0,P|116:228|116:269,1,71.9999978027344
344,384,135164,2,0,P|347:352|347:311,1,71.9999978027344
317,138,135447,5,0,0:0:0:0:
276,0,135588,1,0,0:0:0:0:
209,147,135730,5,0,0:0:0:0:
194,229,135871,1,0,0:0:0:0:
7,20,136013,6,0,L|162:53,1,139.200004248047
224,67,136437,1,0,0:0:0:0:
118,284,136579,2,0,P|102:233|107:206,1,69.6000021240235
120,132,136862,1,0,0:0:0:0:
120,132,137003,2,0,P|80:122|37:115,1,69.6000021240235
259,292,137286,2,0,P|293:285|326:277,1,69.6000021240235
209,147,137569,5,0,0:0:0:0:
3,377,137711,2,0,L|87:359,1,69.6000021240235
118,284,137994,2,0,P|92:243|49:228,1,69.6000021240235
188,342,138277,6,0,B|233:368|233:368|317:347,1,139.200004248047
396,321,138701,1,0,0:0:0:0:
289,139,138843,2,0,P|277:177|279:210,1,69.6000021240235
336,264,139126,1,0,0:0:0:0:
370,194,139267,1,0,0:0:0:0:
200,95,139409,5,0,0:0:0:0:
470,295,139550,1,0,0:0:0:0:
370,109,139692,5,0,0:0:0:0:
317,347,139833,1,0,0:0:0:0:
80,201,139975,2,0,L|152:180,1,69.6000021240235
162,175,140399,1,0,0:0:0:0:
0,0,140541,6,0,B|71:20|40:48|117:74,1,139.200004248047
200,95,140965,1,0,0:0:0:0:
12,342,141107,2,0,P|25:301|29:269,1,69.6000021240235
277,36,141390,1,0,0:0:0:0:
277,36,141531,2,0,P|282:70|293:103,1,69.6000021240235
368,153,141814,2,0,L|440:132,1,69.6000021240235
219,375,142097,1,0,0:0:0:0:
293,318,142239,2,0,B|315:236|315:236|293:218|283:192,1,139.200004248047
433,30,142805,6,0,L|463:181,1,139.200004248047
368,153,143230,1,0,0:0:0:0:
512,352,143371,2,0,P|481:332|436:319,1,69.6000021240235
405,238,143654,2,0,P|374:258|329:271,1,69.6000021240235
68,184,143937,5,0,0:0:0:0:
255,278,144079,1,0,0:0:0:0:
188,130,144220,5,0,0:0:0:0:
165,230,144362,1,0,0:0:0:0:
142,330,144503,1,0,0:0:0:0:
87,69,144645,6,0,P|119:110|167:126,1,103.200001574707
246,66,145069,6,0,L|394:38,1,139.200004248047
278,152,145494,1,0,0:0:0:0:
478,274,145635,2,0,P|459:231|454:189,1,69.6000021240235
436,120,145918,1,0,0:0:0:0:
436,120,146060,2,0,P|392:129|348:140,1,69.6000021240235
205,339,146343,2,0,P|238:331|273:324,2,69.6000021240235
316,241,146767,2,0,B|260:222|260:222|245:199|245:199|195:180,1,139.200004248047
2,346,147333,6,0,P|75:331|105:255,1,139.200004248047
18,257,147758,1,0,0:0:0:0:
190,14,147899,2,0,P|198:72|208:101,1,69.6000021240235
104,182,148182,2,0,P|113:148|116:114,1,69.6000021240235
48,57,148465,5,0,0:0:0:0:
15,146,148607,1,0,0:0:0:0:
176,326,148748,5,0,0:0:0:0:
133,89,148890,1,0,0:0:0:0:
18,257,149031,5,0,0:0:0:0:
293,184,149173,2,0,B|357:160|337:132|408:110,1,139.200004248047
243,341,149597,6,0,L|165:323,2,69.6000021240235
302,272,150022,1,0,0:0:0:0:
133,89,150164,2,0,P|148:127|155:169,1,69.6000021240235
236,187,150447,1,0,0:0:0:0:
236,187,150588,2,0,P|228:220|215:253,1,69.6000021240235
306,128,150871,2,0,L|385:146,2,69.6000021240235
224,88,151296,6,0,B|211:56|211:56|223:23,1,69.6000021240235
446,194,151579,2,0,B|459:226|459:226|446:258,1,69.6000021240235
245,353,151862,6,0,B|170:337|199:300|123:286,1,139.200004248047
42,320,152286,1,0,0:0:0:0:
180,120,152428,2,0,L|195:210,1,69.6000021240235
343,270,152711,2,0,L|328:360,1,69.6000021240235
94,207,152994,5,0,0:0:0:0:
126,286,153135,1,0,0:0:0:0:
62,128,153277,5,0,0:0:0:0:
199,232,153418,1,0,0:0:0:0:
275,50,153560,5,0,0:0:0:0:
230,115,153701,1,0,0:0:0:0:
267,185,153843,1,0,0:0:0:0:
346,185,153984,1,0,0:0:0:0:
365,22,154126,6,0,P|354:90|354:207,1,155.999992858887
428,196,154550,1,0,0:0:0:0:
354,351,154692,2,0,P|398:344|447:346,1,77.9999964294435
346,185,154975,1,0,0:0:0:0:
266,342,155116,2,0,P|262:305|252:254,1,77.9999964294435
168,125,155399,6,0,B|169:206|169:206|171:210|171:210|172:291,1,155.999992858887,0|0,3:0|3:0,3:0:0:0:
44,362,155824,2,0,P|85:354|120:304,1,77.9999964294435
85,145,156107,1,0,0:0:0:0:
21,195,156248,1,0,0:0:0:0:
171,280,156390,6,0,B|258:296|223:234|338:253,1,155.999992858887
400,349,156814,2,0,P|395:300|397:259,1,77.9999964294435
400,51,157097,1,0,0:0:0:0:
446,116,157239,1,0,0:0:0:0:
512,76,157380,1,0,0:0:0:0:
398,36,157522,1,0,0:0:0:0:
386,171,157664,6,0,B|343:196|343:196|206:175,1,155.999992858887
109,33,158088,5,0,0:0:0:0:
167,141,158230,2,0,P|154:192|149:240,1,77.9999964294435
35,125,158513,1,0,0:0:0:0:
40,286,158654,2,0,B|151:252|111:349|259:319,1,155.999992858887
230,213,159079,1,0,0:0:0:0:
290,259,159220,2,0,P|338:275|381:281,1,77.9999964294435
420,224,159503,5,0,0:0:0:0:
307,98,159645,1,0,0:0:0:0:
307,98,159786,2,0,P|320:144|324:204,1,77.9999964294435
435,142,160069,2,0,P|476:152|522:158,1,77.9999964294435
227,120,160352,2,0,P|159:124|48:151,1,155.999992858887
228,106,160777,1,0,0:0:0:0:
0,210,160918,6,0,P|61:223|106:259,1,77.9999964294435
131,282,161201,1,0,0:0:0:0:
250,207,161343,1,0,0:0:0:0:
250,207,161484,2,0,P|228:256|223:301,1,77.9999964294435
281,341,161767,2,0,P|361:342|439:356,1,155.999992858887
483,212,162192,5,0,0:0:0:0:
390,126,162333,1,0,0:0:0:0:
461,85,162475,1,0,0:0:0:0:
405,224,162616,5,0,0:0:0:0:
377,128,162758,1,0,0:0:0:0:
297,161,162899,1,0,0:0:0:0:
332,55,163041,1,0,0:0:0:0:
318,276,163182,6,0,P|246:295|164:264,1,155.999992858887
214,203,163607,1,0,0:0:0:0:
230,48,163748,2,0,P|218:161|213:240,1,155.999992858887
98,100,164173,2,0,P|73:114|15:120,1,77.9999964294435
10,116,164456,2,0,B|151:79|103:227|289:208,1,233.999989288331
216,208,165164,2,0,P|180:219|142:246,1,77.9999964294435
0,379,165447,5,2,0:0:0:0:
48,264,165588,1,0,0:0:0:0:
66,339,165730,1,0,0:0:0:0:
225,323,165871,1,0,0:0:0:0:
284,375,166013,2,0,P|332:384|371:384,1,77.9999964294435
430,272,166296,6,0,P|364:241|299:329,1,155.999992858887
500,356,166720,2,0,P|504:279|510:185,1,155.999992858887
353,25,167145,5,0,0:0:0:0:
395,89,167286,1,0,0:0:0:0:
509,22,167428,5,0,0:0:0:0:
431,174,167569,1,0,0:0:0:0:
343,175,167711,6,0,B|253:149|256:232|152:217,1,155.999992858887
135,169,168135,1,0,0:0:0:0:
293,256,168277,2,0,P|309:290|316:335,1,77.9999964294435
247,364,168560,1,0,0:0:0:0:
198,216,168701,6,0,P|182:250|175:295,1,77.9999964294435
101,86,168984,2,0,P|148:130|282:106,1,155.999992858887
405,55,169409,2,0,P|359:69|316:73,1,77.9999964294435
314,149,169692,2,0,P|360:163|403:167,1,77.9999964294435
247,364,169975,6,0,P|272:335|394:334,1,155.999992858887
482,342,170399,1,0,0:0:0:0:
460,192,170541,2,0,P|459:240|452:293,1,77.9999964294435
382,289,170824,1,0,0:0:0:0:
276,220,170965,6,0,P|224:227|183:227,1,77.9999964294435
81,127,171248,2,0,P|130:158|153:199,1,77.9999964294435
137,275,171531,1,0,0:0:0:0:
16,361,171673,5,0,0:0:0:0:
55,225,171814,1,0,0:0:0:0:
131,284,171956,5,0,0:0:0:0:
102,358,172097,1,0,0:0:0:0:
102,358,172239,6,0,L|288:351,2,177.600004335938
258,264,173937,1,0,0:0:0:0:
341,363,174503,6,0,P|339:299|345:170,2,177.600004335938
425,263,176201,1,0,0:0:0:0:
378,113,176767,6,0,B|284:88|291:175|203:171,2,177.600004335938
217,87,178465,2,0,P|183:96|130:97,1,88.8000021679688
107,89,179031,6,0,L|116:180,1,86.4000021093751
109,250,180871,5,0,0:0:0:0:
39,210,181013,1,0,0:0:0:0:
91,326,181154,5,0,0:0:0:0:
204,96,181296,2,0,B|311:84|284:153|401:158,1,204.000003890991
475,306,181720,2,0,P|422:311|372:334,1,102.000001945496
297,284,182003,1,0,0:0:0:0:
105,355,182145,5,0,0:0:0:0:
182,237,182286,2,0,P|191:287|198:344,1,102.000001945496
54,161,182569,2,0,P|45:211|38:268,1,102.000001945496
202,83,182852,5,0,0:0:0:0:
291,29,182994,2,0,P|300:79|307:136,1,102.000001945496
218,346,183277,1,0,0:0:0:0:
399,208,183418,1,0,0:0:0:0:
130,176,183560,6,0,P|219:181|287:288,1,204.000003890991
450,384,183984,2,0,P|459:339|494:281,1,102.000001945496
327,175,184267,1,0,0:0:0:0:
255,356,184409,1,0,0:0:0:0:
376,286,184550,1,0,0:0:0:0:
210,124,184692,6,0,B|188:165|188:165|199:229,1,102.000001945496
392,384,184975,2,0,B|414:343|414:343|403:279,1,102.000001945496
201,299,185258,2,0,L|-7:337,1,204.000003890991
201,299,185682,1,0,0:0:0:0:
352,204,185824,6,0,P|421:262|413:381,1,204.000003890991
428,137,186248,2,0,P|435:88|450:34,1,102.000001945496
228,179,186531,1,0,0:0:0:0:
413,337,186673,1,0,0:0:0:0:
340,216,186814,6,0,P|313:255|315:315,1,102.000001945496
156,129,187097,2,0,P|183:90|181:30,1,102.000001945496
40,322,187380,5,0,0:0:0:0:
112,264,187522,2,0,P|139:303|137:363,1,102.000001945496
45,178,187805,5,0,0:0:0:0:
303,67,187947,1,0,0:0:0:0:
21,64,188088,6,0,B|150:61|99:128|229:129,1,204.000003890991
384,324,188513,2,0,P|330:333|286:349,1,102.000001945496
374,100,188796,5,0,0:0:0:0:
482,293,188937,1,0,0:0:0:0:
282,174,189079,1,0,0:0:0:0:
466,14,189220,2,0,P|452:124|443:228,2,204.000003890991
250,247,189928,5,0,0:0:0:0:
456,320,190069,1,0,0:0:0:0:
363,211,190211,1,0,0:0:0:0:
219,325,190352,6,0,P|168:326|26:385,1,204.000003890991
284,118,190777,2,0,P|269:166|262:231,1,102.000001945496
469,381,191060,2,0,P|484:333|491:268,1,102.000001945496
218,302,191343,6,0,P|167:303|25:362,1,204.000003890991
371,142,191767,2,0,P|424:146|481:177,1,102.000001945496
184,195,192050,5,0,0:0:0:0:
396,35,192192,1,0,0:0:0:0:
352,229,192333,5,0,0:0:0:0:
186,0,192475,1,0,0:0:0:0:
280,96,192616,6,0,P|267:171|251:301,1,204.000003890991
36,54,193041,2,0,P|48:101|61:168,1,102.000001945496
162,277,193324,1,0,0:0:0:0:
312,78,193465,2,0,P|300:125|287:192,1,102.000001945496
66,316,193748,5,0,0:0:0:0:
207,209,193890,1,0,0:0:0:0:
321,364,194031,5,0,0:0:0:0:
181,309,194173,1,0,0:0:0:0:
324,175,194314,5,0,0:0:0:0:
414,339,194456,2,0,L|516:312,1,102.000001945496
414,339,194739,1,0,0:0:0:0:
209,91,194880,6,0,P|125:128|97:251,1,204.000003890991
132,373,195305,1,0,0:0:0:0:
274,252,195447,2,0,P|235:220|181:221,1,102.000001945496
206,305,195730,1,0,0:0:0:0:
185,219,195871,6,0,P|251:141|355:164,1,204.000003890991
443,360,196296,2,0,P|390:352|355:311,1,102.000001945496
429,50,196579,2,0,P|489:122|461:227,1,204.000003890991
343,154,197003,1,0,0:0:0:0:
203,303,197145,6,0,P|145:307|96:322,1,102.000001945496
234,218,197428,5,0,0:0:0:0:
418,319,197569,1,0,0:0:0:0:
267,372,197711,1,0,0:0:0:0:
411,227,197852,1,0,0:0:0:0:
317,299,197994,6,0,L|436:322,1,102.000001945496
187,321,198277,5,0,0:0:0:0:
309,141,198418,1,0,0:0:0:0:
328,224,198560,5,0,0:0:0:0:
207,63,198701,1,0,0:0:0:0:
156,215,198843,5,0,0:0:0:0:
311,46,198984,1,0,0:0:0:0:
266,371,199126,5,0,0:0:0:0:
243,215,199267,5,0,0:0:0:0:
215,31,199409,6,0,B|114:27|126:102|34:139,1,204.000003890991
341,269,199833,2,0,P|347:217|365:166,1,102.000001945496
146,209,200116,5,0,0:0:0:0:
334,363,200258,1,0,0:0:0:0:
243,215,200399,6,0,P|226:263|220:313,1,102.000001945496
485,383,200682,2,0,P|501:334|507:284,1,102.000001945496
316,281,200965,5,0,0:0:0:0:
220,313,201107,2,0,L|12:344,1,204.000003890991
243,215,201531,1,0,0:0:0:0:
386,375,201673,6,0,B|418:323|418:323|393:178,1,204.000003890991
141,104,202097,2,0,L|157:-4,1,102.000001945496
332,108,202380,5,0,0:0:0:0:
483,218,202522,2,0,L|468:102,1,102.000001945496
72,228,202805,6,0,P|113:197|168:195,1,102.000001945496
406,346,203088,2,0,P|365:377|310:379,1,102.000001945496
206,286,203371,5,0,0:0:0:0:
377,103,203513,1,0,0:0:0:0:
383,253,203654,5,0,0:0:0:0:
246,170,203796,1,0,0:0:0:0:
326,190,203937,6,0,P|257:212|182:99,1,204.000003890991
0,295,204362,2,0,P|51:294|98:262,1,102.000001945496
301,305,204645,5,0,0:0:0:0:
100,370,204786,1,0,0:0:0:0:
157,197,204928,6,0,P|183:239|184:290,1,102.000001945496
434,377,205211,2,0,P|407:334|406:283,1,102.000001945496
273,57,205494,5,0,0:0:0:0:
370,18,205635,2,0,P|369:68|342:111,1,102.000001945496
266,322,205918,5,0,0:0:0:0:
440,193,206060,1,0,0:0:0:0:
249,74,206201,6,0,B|140:77|177:151|62:154,1,204.000003890991
361,368,206626,6,0,P|364:320|379:257,1,102.000001945496
71,27,206909,6,0,P|68:75|53:138,1,102.000001945496
146,366,207192,5,0,0:0:0:0:
221,334,207333,2,0,P|165:277|31:298,2,204.000003890991
415,180,208041,5,0,0:0:0:0:
225,56,208182,1,0,0:0:0:0:
329,288,208324,1,0,0:0:0:0:
461,70,208465,6,0,B|338:40|379:134|260:132,1,204.000003890991
455,355,208890,6,0,P|416:328|354:318,1,102.000001945496
185,149,209173,2,0,P|146:176|84:186,1,102.000001945496
239,376,209456,6,0,P|245:326|256:269,1,102.000001945496
447,197,209739,5,0,0:0:0:0:
283,45,209880,2,0,P|292:95|298:145,1,102.000001945496
357,248,210164,1,0,0:0:0:0:
385,123,210305,5,0,0:0:0:0:
162,266,210447,1,0,0:0:0:0:
441,380,210588,1,0,0:0:0:0:
246,219,210730,6,0,B|131:206|178:282|55:293,1,204.000003890991
335,378,211154,2,0,B|321:332|321:332|336:275,1,102.000001945496
124,77,211437,5,0,0:0:0:0:
205,30,211579,2,0,B|218:82|218:82|204:128,1,102.000001945496
84,374,211862,5,0,0:0:0:0:
129,165,212003,1,0,0:0:0:0:
203,246,212145,5,0,0:0:0:0:
64,292,212286,1,0,0:0:0:0:
266,194,212428,5,0,0:0:0:0:
512,289,212569,2,0,P|406:293|303:322,1,204.000003890991
297,17,212994,6,0,P|377:61|399:179,1,204.000003890991
208,371,213418,2,0,P|223:326|230:265,1,102.000001945496
105,50,213701,5,0,0:0:0:0:
284,166,213843,1,0,0:0:0:0:
47,312,213984,2,0,P|106:265|231:272,1,204.000003890991
404,359,214409,2,0,P|459:371|508:385,1,102.000001945496
241,353,214692,5,0,0:0:0:0:
427,245,214833,1,0,0:0:0:0:
261,152,214975,1,0,0:0:0:0:
324,314,215116,1,0,0:0:0:0:
393,156,215258,6,0,P|401:104|418:52,1,102.000001945496
220,233,215541,5,0,0:0:0:0:
51,290,215682,1,0,0:0:0:0:
166,104,215824,5,0,0:0:0:0:
299,141,215965,1,0,0:0:0:0:
132,352,216107,5,0,0:0:0:0:
224,322,216248,1,0,0:0:0:0:
436,204,216390,5,0,0:0:0:0:
262,36,216531,2,0,L|149:16,1,102.000001945496
262,36,216814,1,0,0:0:0:0:
425,311,216956,5,0,0:0:0:0:
160,190,217097,1,0,0:0:0:0:
401,0,217239,1,0,0:0:0:0:
262,307,217380,1,0,0:0:0:0:
0,186,217522,6,0,P|8:120|133:117,1,198.000006042481
160,190,218088,2,0,P|147:257|128:373,1,177.600004335938
236,143,218513,2,0,P|267:111|273:57,1,88.8000021679688
29,298,218796,6,0,P|70:283|113:271,1,88.8000021679688
160,190,219220,2,0,P|199:250|192:314,1,129.600003164063
129,364,219786,5,0,0:0:0:0:
296,204,219928,2,0,L|388:184,1,88.8000021679688
136,13,220211,2,0,P|147:63|155:108,1,88.8000021679688
29,298,220494,2,0,P|37:254|46:211,1,88.8000021679688
258,112,220777,1,0,0:0:0:0:
258,112,220918,6,0,L|350:92,1,88.8000021679688
296,204,221201,2,0,L|388:184,1,88.8000021679688
175,364,221484,1,0,0:0:0:0:
106,309,221626,2,0,P|86:273|123:191,1,117.59999892334
171,143,222050,6,0,P|211:150|356:180,1,176.39999838501
423,131,222616,2,0,B|443:89|443:89|422:46,1,93.60000314209
284,253,223041,6,0,P|294:298|303:351,1,86.4000021093751
204,308,223324,2,0,P|155:287|132:223,1,124.799999238281
210,50,223748,2,0,B|268:40|322:18|322:18|357:45|339:98,1,205.199997495117
282,166,224314,6,0,P|239:155|184:143,1,86.4000021093751
379,284,224597,1,0,0:0:0:0:
379,284,224739,2,0,P|421:274|463:263,1,86.4000021093751
197,383,225022,2,0,P|212:338|204:289,1,86.4000021093751
29,105,225305,1,0,0:0:0:0:
13,196,225447,6,0,L|-4:302,1,86.4000021093751
101,165,225730,2,0,L|118:271,1,86.4000021093751
45,14,226013,5,0,0:0:0:0:
119,72,226154,2,0,P|177:93|248:106,1,124.799999238281
284,253,226579,6,0,P|342:232|453:211,1,172.80000421875
391,316,227003,1,0,0:0:0:0:
479,47,227145,2,0,P|504:94|497:132,1,86.4000021093751
450,211,227428,1,0,0:0:0:0:
378,148,227569,2,0,P|353:101|360:63,1,86.4000021093751
231,112,227852,6,0,P|236:57|274:16,1,112.799998278809
284,253,228277,2,0,P|223:231|114:206,1,165.600000252686
107,352,228843,5,0,0:0:0:0:
187,327,228984,2,0,P|147:340|108:352,1,82.8000001263428
323,164,229267,2,0,P|332:123|343:84,1,82.8000001263428
362,306,229550,2,0,P|393:333|423:363,1,82.8000001263428
80,124,229833,1,0,0:0:0:0:
125,207,229975,6,0,P|116:166|105:127,1,82.8000001263428
204,9,230258,2,0,P|195:50|184:89,1,82.8000001263428
228,295,230541,1,0,0:0:0:0:
228,295,230682,6,0,P|200:222|124:205,1,162.000003955078
65,278,231107,6,0,L|78:365,1,81.6000004980469
2,211,231531,1,0,0:0:0:0:
183,89,231673,6,0,B|241:100|241:100|265:133|265:133|322:145,1,158.399999516602
169,365,232097,1,0,0:0:0:0:
228,295,232239,1,0,0:0:0:0:
181,186,232380,6,0,L|94:206,1,79.1999997583008
301,360,232664,1,0,0:0:0:0:
301,360,232805,2,0,L|388:340,1,79.1999997583008
471,375,233088,6,0,P|469:335|461:280,1,91.1999988867188
318,50,233371,6,0,B|377:48|423:22|423:22|455:47|449:87,2,183.600001120605
269,131,234362,1,0,0:0:0:0:
269,131,234503,2,0,L|278:197,1,55.1999981469727
199,67,234786,2,0,P|150:61|121:48,1,55.1999981469727
11,368,235635,6,0,B|90:383|95:308|177:324,1,177.600004335938
264,363,236060,1,0,0:0:0:0:
103,137,236201,2,0,P|111:183|117:230,1,88.8000021679688
29,278,236484,1,0,0:0:0:0:
29,278,236626,2,0,P|21:232|15:185,1,88.8000021679688
208,23,236909,6,0,P|265:28|303:66,1,88.8000021679688
451,146,237192,1,0,0:0:0:0:
451,146,237333,2,0,P|394:151|356:189,1,88.8000021679688
189,282,237616,1,0,0:0:0:0:
259,342,237758,1,0,0:0:0:0:
277,249,237899,6,0,P|266:205|257:162,1,88.8000021679688
34,377,238182,1,0,0:0:0:0:
116,224,238324,2,0,P|107:267|96:310,1,88.8000021679688
24,78,238607,1,0,0:0:0:0:
189,282,238748,1,0,0:0:0:0:
295,85,238890,1,0,0:0:0:0:
116,224,239031,5,0,0:0:0:0:
138,129,239173,5,0,0:0:0:0:
160,34,239314,6,0,L|264:17,1,88.8000021679688
192,302,239597,5,0,0:0:0:0:
102,317,239739,2,0,L|14:331,1,88.8000021679688
211,204,240022,1,0,0:0:0:0:
286,377,240164,6,0,P|336:304|427:308,1,177.600004335938
485,245,240588,1,0,0:0:0:0:
485,245,240730,2,0,L|468:141,1,88.8000021679688
280,40,241013,1,0,0:0:0:0:
295,128,241154,2,0,L|312:232,1,88.8000021679688
179,384,241437,2,0,L|193:296,1,82.8000001263428
147,222,241720,1,0,0:0:0:0:
441,36,241862,6,0,P|401:60|352:69,1,85.1999957098391
204,146,242145,2,0,P|164:122|115:113,1,85.1999957098391
290,337,242428,6,0,B|381:320|381:320|409:351|454:351,1,172.80000421875
346,137,242852,1,0,0:0:0:0:
448,259,242994,2,0,P|454:207|461:153,1,85.1999957098391
336,239,243277,2,0,L|246:256,1,85.1999957098391
452,350,243560,1,0,0:0:0:0:
452,350,243701,1,0,0:0:0:0:
346,137,243843,5,0,0:0:0:0:
172,363,243984,1,0,0:0:0:0:
336,239,244126,1,0,0:0:0:0:
121,7,244267,2,0,P|94:53|94:100,1,85.1999957098391
101,102,244692,6,0,P|191:88|270:69,1,170.399991419678
158,343,245116,1,0,0:0:0:0:
158,343,245258,2,0,P|185:297|185:250,1,85.1999957098391
121,198,245541,1,0,0:0:0:0:
347,10,245682,2,0,L|362:95,1,85.1999957098391
321,342,245965,1,0,0:0:0:0:
303,246,246107,2,0,L|288:161,1,85.1999957098391
213,106,246390,5,0,0:0:0:0:
395,277,246531,1,0,0:0:0:0:
155,349,246673,1,0,0:0:0:0:
303,246,246814,1,0,0:0:0:0:
211,215,246956,6,0,P|169:229|114:241,1,85.1999957098391
351,49,247239,1,0,0:0:0:0:
395,277,247380,1,0,0:0:0:0:
395,277,247522,2,0,P|436:286|476:300,1,85.1999957098391
302,142,247805,1,0,0:0:0:0:
155,349,247947,1,0,0:0:0:0:
55,31,248088,6,0,L|138:52,1,85.1999957098391
111,144,248371,2,0,L|28:123,1,85.1999957098391
155,349,248654,1,0,0:0:0:0:
217,272,248796,2,0,B|296:257|301:332|383:316,1,177.600004335938
330,65,249220,6,0,P|301:122|307:163,1,85.1999957098391
481,317,249503,1,0,0:0:0:0:
395,163,249645,6,0,P|414:223|448:248,1,85.1999957098391
509,199,249928,1,0,0:0:0:0:
330,65,250069,1,0,0:0:0:0:
258,365,250211,6,0,P|266:311|272:271,1,85.1999957098391
168,45,250494,2,0,P|160:99|154:139,1,85.1999957098391
17,267,250777,1,0,0:0:0:0:
85,192,250918,2,0,P|41:174|-4:169,1,85.1999957098391
82,339,251201,2,0,P|126:357|171:362,1,85.1999957098391
395,163,251484,5,0,0:0:0:0:
392,150,251626,1,0,0:0:0:0:
373,69,251767,5,0,0:0:0:0:
290,18,251909,5,0,0:0:0:0:
270,280,252050,5,0,0:0:0:0:
362,307,252192,5,0,0:0:0:0:
448,261,252333,5,0,0:0:0:0:
461,249,252475,1,0,0:0:0:0:
231,113,252616,5,0,0:0:0:0:
161,179,252758,5,0,0:0:0:0:
158,276,252899,6,0,P|106:288|58:300,1,85.1999957098391
298,187,253182,5,0,0:0:0:0:
93,75,253324,1,0,0:0:0:0:
224,346,253465,1,0,0:0:0:0:
323,62,253607,1,0,0:0:0:0:
397,124,253748,6,0,B|449:116|462:161|518:156,1,122.40000074707
512,156,254173,1,0,0:0:0:0:
455,351,254314,2,0,P|461:310|471:256,1,82.8000001263428
399,212,254597,1,0,0:0:0:0:
399,212,254739,2,0,P|352:231|328:265,1,82.8000001263428
510,67,255022,2,0,P|505:38|498:0,1,64.8000015820313
153,248,255305,1,0,0:0:0:0:
247,225,255447,6,0,P|240:265|233:306,1,82.8000001263428
296,371,255730,1,0,0:0:0:0:
19,197,255871,1,0,0:0:0:0:
19,197,256013,2,0,P|84:186|182:142,1,165.600000252686
228,71,256437,2,0,P|217:32|206:-10,1,82.8000001263428
153,248,256720,1,0,0:0:0:0:
153,248,256862,2,0,P|142:288|131:327,1,82.8000001263428
5,115,257145,5,0,0:0:0:0:
82,137,257286,1,0,0:0:0:0:
228,71,257428,5,0,0:0:0:0:
32,258,257569,1,0,0:0:0:0:
30,34,257711,5,0,0:0:0:0:
224,346,257852,1,0,0:0:0:0:
224,346,257994,2,0,P|281:331|329:321,1,82.8000001263428
368,264,258277,6,0,B|380:166|380:166|350:151|331:117,1,165.600000252686
512,316,258701,1,0,0:0:0:0:
512,316,258843,2,0,L|417:330,1,82.8000001263428
330,26,259126,1,0,0:0:0:0:
431,0,259267,6,0,P|421:42|411:96,1,82.8000001263428
241,250,259550,2,0,P|251:208|261:154,1,82.8000001263428
198,109,259833,1,0,0:0:0:0:
349,372,259975,6,0,P|320:340|272:334,1,82.8000001263428
132,170,260258,2,0,P|103:202|55:208,1,82.8000001263428
436,37,260541,6,0,P|363:42|337:135,1,165.600000252686
392,186,260965,2,0,L|480:171,1,82.8000001263428
299,361,261248,2,0,P|311:311|313:265,1,82.8000001263428
251,217,261531,2,0,L|169:203,1,82.8000001263428
412,369,261814,5,0,0:0:0:0:
331,119,261956,1,0,0:0:0:0:
217,301,262097,5,0,0:0:0:0:
303,30,262239,1,0,0:0:0:0:
480,199,262380,6,0,P|441:189|401:179,1,81.0000019775391
359,259,262805,6,0,B|288:250|281:320|198:306,1,163.200000996094
139,248,263230,2,0,L|157:148,1,81.6000004980469
303,30,263513,2,0,L|317:110,1,81.6000004980469
486,369,263796,1,0,0:0:0:0:
486,369,263937,2,0,P|446:335|400:337,1,81.6000004980469
202,220,264220,2,0,P|241:212|269:183,1,81.6000004980469
396,2,264503,1,0,0:0:0:0:
316,109,264645,5,0,0:0:0:0:
328,244,264786,5,0,0:0:0:0:
340,378,264928,5,0,0:0:0:0:
208,68,265069,6,0,P|146:61|48:20,1,163.200000996094
105,292,265494,2,0,P|117:233|126:189,1,81.6000004980469
79,128,265777,1,0,0:0:0:0:
79,128,265918,2,0,P|24:154|6:188,1,81.6000004980469
183,365,266201,1,0,0:0:0:0:
303,30,266343,1,0,0:0:0:0:
121,212,266484,5,0,0:0:0:0:
268,188,266626,5,0,0:0:0:0:
415,164,266767,5,0,0:0:0:0:
204,66,266909,2,0,P|195:105|187:145,1,81.6000004980469
382,384,267192,1,0,0:0:0:0:
382,384,267333,6,0,P|365:304|349:224,1,163.200000996094
268,188,267758,2,0,P|238:232|241:280,1,81.6000004980469
473,374,268041,2,0,P|503:330|500:282,1,81.6000004980469
415,164,268324,1,0,0:0:0:0:
278,351,268465,5,0,0:0:0:0:
149,210,268607,5,0,0:0:0:0:
61,321,268748,5,0,0:0:0:0:
119,21,268890,5,0,0:0:0:0:
119,21,269031,6,0,P|183:39|307:65,1,163.200000996094
190,294,269456,1,0,0:0:0:0:
149,210,269597,6,0,P|140:167|158:124,1,81.6000004980469
367,28,269880,2,0,P|376:71|358:114,1,81.6000004980469
139,377,270164,1,0,0:0:0:0:
241,135,270305,1,0,0:0:0:0:
399,290,270447,1,0,0:0:0:0:
399,290,270588,1,0,0:0:0:0:
369,381,270730,1,0,0:0:0:0:
278,351,270872,1,0,0:0:0:0:
308,260,271013,2,0,P|315:208|323:152,1,81.6000004980469
119,21,271296,5,0,0:0:0:0:
190,294,271437,1,0,0:0:0:0:
367,28,271579,1,0,0:0:0:0:
28,218,271720,5,0,0:0:0:0:
28,218,271862,2,0,P|100:203|189:181,1,141.599995030518
237,139,272286,1,0,0:0:0:0:
390,314,272428,6,0,B|336:241|336:241|345:114,1,192
397,322,272852,1,0,0:0:0:0:
284,316,272994,1,0,0:0:0:0:
209,353,273135,1,0,0:0:0:0:
141,300,273277,1,0,0:0:0:0:
216,263,273418,1,0,0:0:0:0:
387,312,273560,6,0,P|376:269|373:191,1,96
462,83,273843,2,0,B|474:134|474:134|451:194,1,96
284,64,274126,2,0,B|183:64|208:153|82:133,1,192
36,85,274550,1,0,0:0:0:0:
203,198,274692,2,0,P|232:240|241:290,1,96
51,364,274975,5,0,0:0:0:0:
71,273,275116,1,0,0:0:0:0:
160,294,275258,1,0,0:0:0:0:
138,379,275399,1,0,0:0:0:0:
63,271,275541,2,0,P|18:238|-32:227,1,60
242,249,275824,6,0,B|351:259|305:182|475:209,1,204.000003890991
493,270,276248,1,0,0:0:0:0:
450,114,276390,2,0,B|436:68|440:20|440:20|423:91|376:133,1,167.999994873047
398,105,276814,1,0,0:0:0:0:
311,56,276956,6,0,L|84:81,1,192
26,17,277380,2,0,P|40:70|56:138,1,96
133,166,277664,1,0,0:0:0:0:
133,166,277805,2,0,P|119:219|103:287,1,96
80,340,278088,1,0,0:0:0:0:
28,272,278230,1,0,0:0:0:0:
178,339,278371,1,0,0:0:0:0:
244,380,278513,1,0,0:0:0:0:
80,340,278654,6,0,P|7:359|-36:383,1,96
166,249,278937,1,0,0:0:0:0:
166,249,279079,2,0,P|240:281|296:285,1,96
340,263,279362,1,0,0:0:0:0:
243,150,279503,5,0,0:0:0:0:
309,96,279645,1,0,0:0:0:0:
326,185,279786,1,0,0:0:0:0:
240,136,279928,1,0,0:0:0:0:
405,155,280069,6,0,P|462:169|507:176,1,96
348,14,280352,5,0,0:0:0:0:
164,86,280494,2,0,P|79:97|-31:105,1,192
240,136,280918,2,0,P|226:243|213:349,1,192
299,268,281343,1,0,0:0:0:0:
374,336,281484,6,0,P|431:359|483:361,1,83.9999974365235
390,256,281767,1,0,0:0:0:0:
465,204,281909,1,0,0:0:0:0:
385,139,282050,6,0,P|314:157|274:153,1,83.9999974365235
477,36,282333,2,0,P|468:132|463:238,1,167.999994873047
390,256,282758,1,0,0:0:0:0:
303,156,282899,1,0,0:0:0:0:
233,197,283041,1,0,0:0:0:0:
333,328,283182,6,0,B|433:344|392:256|530:303,1,167.999994873047
318,234,283607,1,0,0:0:0:0:
262,362,283748,2,0,P|250:286|228:174,1,167.999994873047
189,121,284173,1,0,0:0:0:0:
281,63,284314,1,0,0:0:0:0:
233,195,284456,1,0,0:0:0:0:
101,147,284597,1,0,0:0:0:0:
149,15,284739,1,0,0:0:0:0:
329,188,284880,5,0,0:0:0:0:
417,164,285022,1,0,0:0:0:0:
401,79,285164,1,0,0:0:0:0:
307,99,285305,1,0,0:0:0:0:
300,275,285447,6,0,B|172:309|214:245|70:284,1,215.999993408203
300,275,286013,2,0,B|331:309|331:309|307:374,1,90.0000034332277
228,206,286296,2,0,B|197:172|197:172|221:107,1,90.0000034332277
344,204,286579,1,0,0:0:0:0:
344,204,286720,2,0,P|411:224|540:244,1,180.000006866455
300,275,287145,2,0,P|228:294|181:318,1,90.0000034332277
69,329,287428,1,0,0:0:0:0:
97,223,287569,1,0,0:0:0:0:
62,340,287711,6,0,P|75:262|75:132,1,180.000006866455
3,26,288135,1,0,0:0:0:0:
72,75,288277,2,0,B|114:95|114:95|171:83,1,90.0000034332277
188,11,288560,2,0,B|146:-9|146:-9|89:3,1,90.0000034332277
77,161,288843,5,0,0:0:0:0:
151,209,288984,1,0,0:0:0:0:
183,355,289126,1,0,0:0:0:0:
361,288,289267,1,0,0:0:0:0:
100,278,289409,5,0,0:0:0:0:
311,360,289550,1,0,0:0:0:0:
267,150,289692,1,0,0:0:0:0:
183,355,289833,1,0,0:0:0:0:
183,355,289904,1,0,0:0:0:0:
183,355,289975,2,0,P|231:364|404:380,1,180.000006866455
183,355,290399,1,0,0:0:0:0:
92,378,290541,2,0,P|81:319|59:264,1,90.0000034332277
10,126,290824,5,0,0:0:0:0:
91,177,290965,1,0,0:0:0:0:
9,217,291106,1,0,0:0:0:0:
97,88,291248,1,0,0:0:0:0:
168,148,291390,2,0,P|219:172|270:186,1,90.0000034332277
330,70,291673,2,0,P|334:187|339:284,1,180.000006866455
410,320,292097,1,0,0:0:0:0:
410,320,292239,2,0,P|414:266|420:228,1,77.9999964294435
430,109,292522,1,0,0:0:0:0:
489,186,292664,1,0,0:0:0:0:
331,161,292805,5,0,0:0:0:0:
331,161,292947,2,0,P|276:157|227:163,1,77.9999964294435
85,152,293230,1,0,0:0:0:0:
16,101,293371,2,0,B|212:93|128:314|347:333,1,389.999982147218
412,230,294220,5,0,0:0:0:0:
357,156,294362,1,0,0:0:0:0:
326,239,294503,2,0,P|388:236|501:290,1,180
497,287,295069,2,0,B|485:201|485:201|492:187|492:187|480:78,1,192
437,27,295494,1,0,0:0:0:0:
376,102,295635,1,0,0:0:0:0:
326,260,295777,1,0,0:0:0:0:
264,192,295918,2,0,P|232:186|172:186,1,77.9999964294435
136,104,296201,2,0,P|147:163|135:218,1,77.9999964294435
55,197,296484,2,0,P|44:138|56:83,1,77.9999964294435
105,294,296767,6,0,P|166:278|263:364,1,155.999992858887
326,260,297192,1,0,0:0:0:0:
388,369,297333,2,0,P|395:308|397:259,1,77.9999964294435
428,112,297616,5,0,0:0:0:0:
506,282,297758,1,0,0:0:0:0:
326,260,297900,1,0,0:0:0:0:
326,260,298182,2,0,P|332:198|324:161,1,77.9999964294435
329,76,298465,5,0,0:0:0:0:
255,5,298607,1,0,0:0:0:0:
202,210,298748,5,0,0:0:0:0:
168,52,298890,1,0,0:0:0:0:
329,182,299031,6,0,B|390:195|390:195|419:190|419:190|519:219,1,155.999992858887
374,113,299456,1,0,0:0:0:0:
202,210,299597,2,0,P|149:217|19:285,1,155.999992858887
278,242,300022,2,0,B|296:271|296:271|287:330,1,77.9999964294435
199,211,300305,2,0,P|170:165|204:59,1,155.999992858887
263,156,300730,2,0,B|353:147|321:214|439:218,1,155.999992858887
478,170,301154,1,0,0:0:0:0:
342,51,301296,2,0,P|282:73|181:68,1,155.999992858887
81,8,301720,5,0,0:0:0:0:
81,8,301862,2,0,P|96:57|98:108,1,77.9999964294435
121,234,302145,1,0,0:0:0:0:
68,167,302286,1,0,0:0:0:0:
152,152,302428,1,0,0:0:0:0:
205,223,302569,1,0,0:0:0:0:
301,312,302711,1,0,0:0:0:0:
315,228,302852,1,0,0:0:0:0:
439,85,302994,5,0,0:0:0:0:
401,235,303135,1,0,0:0:0:0:
292,316,303277,1,0,0:0:0:0:
346,384,303418,1,0,0:0:0:0:
475,303,303560,6,0,P|479:242|499:103,1,155.999992858887
436,89,303984,1,0,0:0:0:0:
315,228,304126,6,0,P|307:150|301:105,1,96
285,51,304409,1,0,0:0:0:0:
188,166,304550,1,0,0:0:0:0:
188,166,304692,2,0,P|139:142|66:142,1,96
22,254,304975,1,0,0:0:0:0:
97,224,305116,1,0,0:0:0:0:
254,294,305258,2,0,P|328:324|407:325,1,96
173,341,305541,2,0,P|104:352|61:373,1,96
206,204,305824,5,0,0:0:0:0:
328,178,305965,1,0,0:0:0:0:
183,121,306107,5,0,0:0:0:0:
381,256,306248,1,0,0:0:0:0:
173,341,306390,1,0,0:0:0:0:
128,267,306531,1,0,0:0:0:0:
206,204,306673,1,0,0:0:0:0:
274,262,306814,1,0,0:0:0:0:
41,300,306956,5,0,0:0:0:0:
4,190,307097,1,0,0:0:0:0:
107,150,307239,1,0,0:0:0:0:
140,265,307380,1,0,0:0:0:0:
290,37,307522,5,0,0:0:0:0:
67,65,307664,5,0,0:0:0:0:
236,120,307805,5,0,0:0:0:0:
449,200,307947,5,0,0:0:0:0:
406,136,308088,6,0,B|305:134|345:195|238:194,1,180.000006866455
470,98,308513,2,0,P|473:52|481:4,1,90.0000034332277
449,200,308796,1,0,0:0:0:0:
256,112,308937,1,0,0:0:0:0:
85,277,309079,6,0,P|135:226|244:238,2,180.000006866455
319,375,309786,2,0,P|302:354|294:288,1,90.0000034332277
358,79,310069,1,0,0:0:0:0:
512,250,310211,1,0,0:0:0:0:
277,135,310352,6,0,P|178:121|98:111,1,180.000006866455
372,194,310777,2,0,P|416:187|464:180,1,90.0000034332277
298,213,311060,1,0,0:0:0:0:
146,349,311201,2,0,P|102:342|54:335,1,90.0000034332277
214,197,311484,5,0,0:0:0:0:
355,343,311626,1,0,0:0:0:0:
372,194,311767,5,0,0:0:0:0:
146,349,311909,1,0,0:0:0:0:
266,288,312050,5,0,0:0:0:0:
140,100,312192,1,0,0:0:0:0:
127,188,312333,2,0,P|137:144|139:96,1,90.0000034332277
337,235,312616,6,0,B|438:239|411:299|496:324,1,180.000006866455
234,333,313041,2,0,P|187:338|136:352,1,90.0000034332277
234,333,313324,1,0,0:0:0:0:
145,348,313465,1,0,0:0:0:0:
31,164,313607,6,0,P|47:253|48:344,2,180.000006866455
186,41,314314,5,0,0:0:0:0:
289,168,314456,1,0,0:0:0:0:
166,270,314597,1,0,0:0:0:0:
63,143,314739,1,0,0:0:0:0:
192,174,314880,6,0,P|254:189|283:296,1,180.000006866455
345,342,315305,2,0,L|434:363,1,90.0000034332277
126,111,315588,2,0,L|37:132,1,90.0000034332277
126,111,315871,1,0,0:0:0:0:
350,5,316013,6,0,B|320:115|388:82|358:190,1,180.000006866455
360,179,316579,1,0,0:0:0:0:
157,312,316720,1,0,0:0:0:0:
216,187,316862,5,0,0:0:0:0:
349,307,317003,1,0,0:0:0:0:
261,273,317145,6,0,L|273:90,1,180.000006866455
261,273,317569,1,0,0:0:0:0:
331,41,317711,2,0,B|373:52|373:52|420:38,1,90.0000034332277
273,93,317994,1,0,0:0:0:0:
32,57,318135,6,0,B|114:21|114:21|213:50,2,180.000006866455
91,210,318843,2,0,P|103:169|93:124,1,90.0000034332277
382,294,319126,2,0,P|371:337|383:380,1,90.0000034332277
121,335,319409,6,0,B|221:336|179:266|294:283,1,180.000006866455
121,335,319833,1,0,0:0:0:0:
352,215,319975,2,0,P|378:245|380:300,1,90.0000034332277
228,146,320258,1,0,0:0:0:0:
427,24,320399,1,0,0:0:0:0:
320,130,320541,6,0,L|330:40,1,90.0000034332277
471,269,320824,2,0,L|461:359,1,90.0000034332277
285,281,321107,5,0,0:0:0:0:
469,124,321248,1,0,0:0:0:0:
320,130,321390,5,0,0:0:0:0:
381,293,321531,1,0,0:0:0:0:
415,209,321673,6,0,P|350:198|285:292,1,180.000006866455
415,209,322097,1,0,0:0:0:0:
188,366,322239,2,0,P|172:325|178:281,1,90.0000034332277
381,293,322522,1,0,0:0:0:0:
177,151,322664,6,0,P|87:167|-2:184,2,180.000006866455
370,155,323371,5,0,0:0:0:0:
200,66,323513,1,0,0:0:0:0:
299,12,323654,2,0,B|316:49|316:49|301:109,1,90.0000034332277
461,309,323937,6,0,B|430:226|430:226|464:131,1,180.000006866455
461,309,324362,1,0,0:0:0:0:
243,368,324503,2,0,L|339:385,1,90.0000034332277
176,151,324786,2,0,L|87:135,1,90.0000034332277
30,190,325069,5,0,0:0:0:0:
445,53,325352,1,0,0:0:0:0:
147,49,325635,5,0,0:0:0:0:
320,134,325777,1,0,0:0:0:0:
457,270,325918,5,0,0:0:0:0:
190,362,326060,1,0,0:0:0:0:
32,291,326201,5,0,0:0:0:0:
256,192,326343,12,0,335258,0:0:0:0:
