osu file format v14

[General]
AudioFilename: audio.mp3
AudioLeadIn: 0
PreviewTime: 32402
Countdown: 0
SampleSet: Soft
StackLeniency: 0.2
Mode: 0
LetterboxInBreaks: 0
WidescreenStoryboard: 0

[Editor]
DistanceSpacing: 0.8
BeatDivisor: 4
GridSize: 16
TimelineZoom: 1

[Metadata]
Title:gravityWall (TV Size)
TitleUnicode:gravityWall (TV Size)
Artist:SawanoHiroyuki[nZk]: Tielle & Gemie
ArtistUnicode:SawanoHiroyuki[nZk]: Tielle & Gemie
Creator:Yamakudzi
Version:Easy
Source:Re:CREATORS
Tags:DendyHere Djulus Daycore PandaHero
BeatmapID:1741337
BeatmapSetID:831162

[Difficulty]
HPDrainRate:3.5
CircleSize:3.5
OverallDifficulty:4
ApproachRate:4
SliderMultiplier:1.35
SliderTickRate:1

[Events]
//Background and Video events
0,0,"anime-re--creators-devushka-1204518.jpg",0,0
//Break Periods
2,25553,31156
2,49912,56540
//Storyboard Layer 0 (Background)
//Storyboard Layer 1 (Fail)
//Storyboard Layer 2 (Pass)
//Storyboard Layer 3 (Foreground)
//Storyboard Sound Samples

[TimingPoints]
425,512.820512820513,4,2,1,70,1,0
425,-100,4,2,1,70,0,0
8245,-100,4,2,1,40,0,0
8373,-100,4,2,1,50,0,0
8501,-100,4,2,1,60,0,0
8630,-100,4,2,1,70,0,0
16450,-100,4,2,1,45,0,0
16578,-100,4,2,1,55,0,0
16707,-100,4,2,1,65,0,0
24655,-100,4,2,1,40,0,0
24783,-100,4,2,1,50,0,0
24912,-100,4,2,1,65,0,0
25040,-100,4,2,1,15,0,0
27091,-100,4,2,1,15,0,0
29142,-100,4,2,1,15,0,0
30425,-100,4,2,1,30,0,0
31194,-100,4,2,1,20,0,0
32476,-100,4,2,1,50,0,0
32732,-100,4,2,1,60,0,0
32989,-100,4,2,1,80,0,0
33245,-100,4,2,1,70,0,1
49655,-100,4,2,1,70,0,0
57860,-100,4,2,1,70,0,1
57989,-100,4,2,1,70,0,0
58117,-100,4,2,1,70,0,0
66066,-100,4,2,1,70,0,0
67604,-100,4,2,1,5,0,0
68117,-100,4,2,1,70,0,1
84527,-100,4,2,1,5,0,0

[Colours]
Combo1 : 244,216,138
Combo2 : 210,15,49
Combo3 : 192,192,192
Combo4 : 163,140,50

[HitObjects]
453,93,425,6,0,P|385:109|309:90,1,135,6|10,0:0|0:0,0:0:0:0:
227,44,1450,2,0,P|161:28|96:40,1,135,2|8,0:0|0:0,0:0:0:0:
35,130,2476,2,0,P|61:187|35:269,1,135,6|8,0:0|0:0,0:0:0:0:
108,343,3501,2,0,B|195:327|169:364|269:337,1,135,2|8,0:0|0:0,0:0:0:0:
346,369,4527,5,4,0:0:0:0:
433,305,5040,2,0,P|443:238|434:161,1,135,8|2,0:0|0:0,0:0:0:0:
348,107,6066,2,0,B|298:120|298:120|207:107,1,135,8|6,0:0|0:0,0:0:0:0:
146,24,7091,2,0,P|104:101|118:156,1,135,10|2,0:0|0:0,0:0:0:0:
45,229,8117,1,10,0:0:0:0:
120,305,8630,6,0,L|274:280,1,135,4|10,0:0|0:0,0:0:0:0:
344,341,9655,2,0,P|363:291|340:215,1,135,0|10,0:0|0:0,0:0:0:0:
416,139,10681,1,2,0:0:0:0:
332,70,11194,2,0,P|255:59|173:36,2,135,10|0|10,0:0|0:0|0:0,0:0:0:0:
416,139,12732,5,0,0:0:0:0:
340,215,13245,2,0,B|263:242|277:204|195:223,1,135,10|0,0:0|0:0,0:0:0:0:
118,282,14271,1,10,0:0:0:0:
51,197,14783,2,0,P|48:123|94:77,1,135,2|10,0:0|0:0,0:0:0:0:
191,108,15809,2,0,B|242:124|242:124|351:106,1,135,2|10,0:0|0:0,0:0:0:0:
400,35,16835,5,4,0:0:0:0:
475,111,17348,2,0,P|485:205|465:269,1,135,10|2,0:0|0:0,0:0:0:0:
424,338,18373,1,10,0:0:0:0:
322,299,18886,2,0,P|238:288|165:315,2,135,2|10|2,0:0|0:0|0:0,0:0:0:0:
424,338,20425,1,10,0:0:0:0:
475,243,20937,6,0,P|486:177|475:111,1,135,0|10,0:0|0:0,0:0:0:0:
382,54,21963,2,0,B|338:67|338:67|239:55,1,135,2|10,0:0|0:0,0:0:0:0:
142,37,22989,1,6,0:0:0:0:
101,136,23501,2,0,L|125:290,2,135,8|0|10,0:0|0:0|0:0,0:0:0:0:
142,37,25040,1,4,0:0:0:0:
361,71,32476,5,2,0:0:0:0:
361,71,32732,2,0,L|383:157,1,67.5,2|2,0:0|0:0,0:0:0:0:
410,179,33245,6,0,B|339:168|355:207|262:177,1,135,14|14,0:0|0:0,0:0:0:0:
234,82,34271,2,0,P|161:69|97:86,1,135,0|10,0:0|0:0,0:0:0:0:
32,165,35296,1,6,0:0:0:0:
104,245,35809,2,0,B|180:234|164:273|257:237,1,135,14|0,0:0|0:0,0:0:0:0:
322,309,36835,2,0,L|394:272,1,67.5,14|14,0:0|0:0,0:0:0:0:
434,292,37348,6,0,P|394:248|410:174,1,135,14|14,0:0|0:0,0:0:0:0:
469,90,38373,2,0,P|406:71|332:100,1,135,6|8,0:0|0:0,0:0:0:0:
239,59,39399,1,0,0:0:0:0:
188,154,39912,2,0,B|152:166|152:166|53:153,1,135,12|0,0:0|0:0,0:0:0:0:
55,207,40681,5,8,0:0:0:0:
55,207,40937,2,0,L|72:286,1,67.5,12|12,0:0|0:0,0:0:0:0:
37,316,41450,6,0,P|105:300|181:318,1,135,14|14,0:0|0:0,0:0:0:0:
265,359,42476,2,0,B|336:341|329:383|414:350,1,135,0|8,0:0|0:0,0:0:0:0:
461,268,43501,1,6,0:0:0:0:
374,203,44014,2,0,P|354:136|374:71,1,135,14|0,0:0|0:0,0:0:0:0:
263,83,45040,2,0,L|179:106,1,67.5,14|14,0:0|0:0,0:0:0:0:
146,83,45553,6,0,L|170:230,1,135,14|14,0:0|0:0,0:0:0:0:
101,301,46578,2,0,P|199:325|249:294,1,135,6|14,0:0|0:0,0:0:0:0:
330,343,47604,1,0,0:0:0:0:
326,235,48117,2,0,B|330:182|330:182|379:88,2,135,14|0|14,0:0|0:0|0:0,0:0:0:0:
330,343,49655,1,14,0:0:0:0:
105,80,57860,6,0,L|117:152,1,67.5,6|0,0:0|0:0,0:0:0:0:
75,182,58373,2,0,P|157:168|217:178,1,135,14|0,0:0|0:0,0:0:0:0:
284,251,59399,1,12,0:0:0:0:
374,191,59912,2,0,P|408:121|406:60,2,135,6|8|0,0:0|0:0|0:0,0:0:0:0:
284,251,61450,1,14,0:0:0:0:
203,323,61963,6,0,P|137:309|66:328,1,135,14|12,0:0|0:0,0:0:0:0:
18,230,62989,2,0,P|0:181|22:84,1,135,0|14,0:0|0:0,0:0:0:0:
116,130,64014,1,0,0:0:0:0:
213,83,64527,2,0,B|288:66|277:104|363:76,2,135,8|0|14,0:0|0:0|0:0,0:0:0:0:
116,130,66066,1,0,0:0:0:0:
483,356,68117,6,0,P|426:374|330:351,1,135,14|14,0:0|0:0,0:0:0:0:
264,300,69142,2,0,P|198:288|133:307,1,135,6|14,0:0|0:0,0:0:0:0:
51,377,70168,1,4,0:0:0:0:
34,270,70681,2,0,L|22:117,2,135,14|12|14,0:0|0:0|0:0,0:0:0:0:
133,307,72219,6,0,P|197:288|263:299,1,135,6|14,0:0|0:0,0:0:0:0:
346,369,73245,1,6,0:0:0:0:
414,285,73758,2,0,P|432:216|412:138,1,135,14|6,0:0|0:0,0:0:0:0:
313,171,74783,2,0,B|272:185|272:185|169:171,2,135,14|12|14,0:0|0:0|0:0,0:0:0:0:
247,85,76322,6,0,L|101:62,1,135,14|14,0:0|0:0,0:0:0:0:
44,147,77348,2,0,P|60:241|35:298,1,135,6|12,0:0|0:0,0:0:0:0:
120,356,78373,1,6,0:0:0:0:
213,302,78886,2,0,B|294:277|272:326|364:294,2,135,12|14|14,0:0|0:0|0:0,0:0:0:0:
120,356,80425,6,0,P|105:280|117:195,1,135,6|12,0:0|0:0,0:0:0:0:
165,130,81450,2,0,P|256:131|298:122,1,135,14|14,0:0|0:0,0:0:0:0:
374,199,82476,2,0,P|369:266|384:331,1,135,14|14,0:0|0:0,0:0:0:0:
330,338,83245,1,12,0:0:0:0:
330,338,83501,2,0,P|259:333|184:340,1,135,14|14,0:0|0:0,0:0:0:0:
143,355,84271,6,0,L|134:305,1,33.75,14|14,0:0|0:0,0:0:0:0:
256,192,84527,12,0,88630,0:0:0:0:
