osu file format v14

[General]
AudioFilename: audio.mp3
AudioLeadIn: 0
PreviewTime: 120198
Countdown: 0
SampleSet: Soft
StackLeniency: 0.3
Mode: 0
LetterboxInBreaks: 0
WidescreenStoryboard: 0

[Editor]
Bookmarks: 12386,24386,36386,48386,60386,69386,72386,96386,108386,119636,120386,144386,168386,192386,216386,240386
DistanceSpacing: 1.3
BeatDivisor: 8
GridSize: 32
TimelineZoom: 1.9

[Metadata]
Title:Blumenkranz
TitleUnicode:Blumenkranz
Artist:Sawano Hiroyuki
ArtistUnicode:澤野弘之
Creator:dragonicz
Version:Insane
Source:キルラキル
Tags:Cyua john mapping kill la kill OST ragyo theme anime german pop rock
BeatmapID:3843381
BeatmapSetID:1868358

[Difficulty]
HPDrainRate:4.8
CircleSize:4
OverallDifficulty:8.8
ApproachRate:9.2
SliderMultiplier:2.4
SliderTickRate:1

[Events]
//Background and Video events
0,0,"Kill-la-Kill-Honnouji-Academy.jpg",0,0
//Break Periods
//Storyboard Layer 0 (Background)
//Storyboard Layer 1 (Fail)
//Storyboard Layer 2 (Pass)
//Storyboard Layer 3 (Foreground)
//Storyboard Layer 4 (Overlay)
//Storyboard Sound Samples

[TimingPoints]
386,750,4,2,0,72,1,0
386,-250,4,2,0,40,0,0
6386,-166.666666666667,4,2,0,40,0,0
12386,-31.25,4,2,0,60,0,0
13136,-250,4,2,0,60,0,0
13698,-66.6666666666667,4,2,0,60,0,0
14261,-250,4,2,0,60,0,0
15386,-31.25,4,2,0,60,0,0
16136,-250,4,2,0,60,0,0
16698,-66.6666666666667,4,2,0,60,0,0
17261,-250,4,2,0,60,0,0
18386,-31.25,4,2,0,60,0,0
19136,-250,4,2,0,60,0,0
19698,-66.6666666666667,4,2,0,60,0,0
20261,-250,4,2,0,60,0,0
21386,-31.25,4,2,0,60,0,0
22136,-250,4,2,0,60,0,0
22698,-66.6666666666667,4,2,0,60,0,0
23261,-250,4,2,0,60,0,0
24386,-166.666666666667,4,2,0,40,0,0
36386,-40,4,2,0,50,0,0
37136,-66.6666666666667,4,2,0,50,0,0
38261,-166.666666666667,4,2,0,50,0,0
39386,-40,4,2,0,50,0,0
40136,-66.6666666666667,4,2,0,50,0,0
41261,-166.666666666667,4,2,0,50,0,0
42386,-40,4,2,0,50,0,0
43136,-66.6666666666667,4,2,0,50,0,0
44261,-166.666666666667,4,2,0,50,0,0
45386,-40,4,2,0,50,0,0
46136,-66.6666666666667,4,2,0,50,0,0
47261,-166.666666666667,4,2,0,50,0,0
48011,-166.666666666667,4,2,0,40,0,0
60386,-100,4,2,0,60,0,0
66386,-100,4,2,0,50,0,0
69386,-100,4,2,0,40,0,0
72386,-28.5714285714286,4,2,0,80,0,1
73136,-250,4,2,0,80,0,1
73698,-50,4,2,0,80,0,1
74636,-250,4,2,0,80,0,1
75386,-28.5714285714286,4,2,0,80,0,1
76136,-250,4,2,0,80,0,1
76698,-50,4,2,0,80,0,1
77636,-166.666666666667,4,2,0,80,0,1
78386,-40,4,2,0,80,0,1
80636,-100,4,2,0,80,0,1
81386,-28.5714285714286,4,2,0,80,0,1
82136,-250,4,2,0,80,0,1
82511,-66.6666666666667,4,2,0,80,0,1
84386,-28.5714285714286,4,2,0,80,0,1
85136,-250,4,2,0,80,0,1
85698,-50,4,2,0,80,0,1
86636,-250,4,2,0,80,0,1
87386,-28.5714285714286,4,2,0,80,0,1
88136,-250,4,2,0,80,0,1
88698,-50,4,2,0,80,0,1
89636,-166.666666666667,4,2,0,80,0,1
90386,-100,4,2,0,80,0,1
91136,-250,4,2,0,80,0,1
91886,-100,4,2,0,80,0,1
93386,-50,4,2,0,80,0,1
95636,-133.333333333333,4,2,0,75,0,1
96386,-100,4,2,0,40,0,0
102386,-83.3333333333333,4,2,0,45,0,0
108386,-40,4,2,0,60,0,0
109136,-66.6666666666667,4,2,0,60,0,0
110261,-166.666666666667,4,2,0,60,0,0
111386,-40,4,2,0,60,0,0
112136,-66.6666666666667,4,2,0,60,0,0
113261,-166.666666666667,4,2,0,60,0,0
114386,-40,4,2,0,60,0,0
115136,-66.6666666666667,4,2,0,60,0,0
116261,-166.666666666667,4,2,0,60,0,0
117386,-40,4,2,0,60,0,0
118136,-66.6666666666667,4,2,0,60,0,0
120386,-25,4,2,0,80,0,1
121136,-250,4,2,0,80,0,1
121886,-50,4,2,0,80,0,1
124136,-250,4,2,0,80,0,1
124698,-50,4,2,0,80,0,1
126386,-25,4,2,0,80,0,1
127136,-250,4,2,0,80,0,1
127886,-50,4,2,0,80,0,1
130136,-250,4,2,0,80,0,1
130698,-50,4,2,0,80,0,1
132386,-25,4,2,0,80,0,1
133136,-250,4,2,0,80,0,1
133886,-100,4,2,0,80,0,1
135386,-25,4,2,0,80,0,1
136136,-250,4,2,0,80,0,1
136698,-50,4,2,0,80,0,1
137636,-100,4,2,0,80,0,1
138386,-25,4,2,0,80,0,1
139136,-250,4,2,0,80,0,1
139886,-100,4,2,0,80,0,1
142136,-250,4,2,0,80,0,1
144198,-66.6666666666667,4,2,0,80,0,1
144386,-166.666666666667,4,2,0,40,0,0
168386,-125,4,2,0,40,0,0
180386,-100,4,2,0,50,0,0
183386,-250,4,2,0,50,0,0
183761,-100,4,2,0,50,0,0
186386,-40,4,2,0,50,0,0
187698,-100,4,2,0,50,0,0
189386,-40,4,2,0,50,0,0
192386,-28.5714285714286,4,2,0,80,0,1
193136,-250,4,2,0,80,0,1
193511,-28.5714285714286,4,2,0,80,0,1
193886,-50,4,2,0,80,0,1
194261,-250,4,2,0,80,0,1
195011,-50,4,2,0,80,0,1
195386,-28.5714285714286,4,2,0,80,0,1
196136,-250,4,2,0,80,0,1
196698,-50,4,2,0,80,0,1
197636,-250,4,2,0,80,0,1
198386,-28.5714285714286,4,2,0,80,0,1
199136,-250,4,2,0,80,0,1
199698,-50,4,2,0,80,0,1
200636,-66.6666666666667,4,2,0,80,0,1
204386,-28.5714285714286,4,2,0,80,0,1
205136,-250,4,2,0,80,0,1
205511,-28.5714285714286,4,2,0,80,0,1
205886,-50,4,2,0,80,0,1
206261,-250,4,2,0,80,0,1
207011,-50,4,2,0,80,0,1
207386,-28.5714285714286,4,2,0,80,0,1
208136,-250,4,2,0,80,0,1
208698,-50,4,2,0,80,0,1
209636,-250,4,2,0,80,0,1
210386,-28.5714285714286,4,2,0,80,0,1
211136,-250,4,2,0,80,0,1
211698,-50,4,2,0,80,0,1
216386,-25,4,2,0,80,0,1
217136,-250,4,2,0,80,0,1
217886,-50,4,2,0,80,0,1
219386,-25,4,2,0,80,0,1
220136,-250,4,2,0,80,0,1
220886,-50,4,2,0,80,0,1
222386,-40,4,2,0,80,0,1
224636,-100,4,2,0,80,0,1
225386,-25,4,2,0,80,0,1
226136,-250,4,2,0,80,0,1
226511,-50,4,2,0,80,0,1
228386,-25,4,2,0,80,0,1
229136,-250,4,2,0,80,0,1
229886,-40,4,2,0,80,0,1
231386,-25,4,2,0,80,0,1
232136,-250,4,2,0,80,0,1
232886,-40,4,2,0,80,0,1
234386,-66.6666666666667,4,2,0,80,0,1
235136,-250,4,2,0,80,0,1
235886,-66.6666666666667,4,2,0,80,0,1
237386,-40,4,2,0,80,0,1
240386,-250,4,2,0,40,0,0
243386,-200,4,2,0,40,0,0
246386,-166.666666666667,4,2,0,40,0,0
249386,-200,4,2,0,40,0,0
252386,-200,4,2,0,20,0,0
255386,-200,4,2,0,5,0,0

[Colours]
Combo1 : 27,180,237
Combo2 : 165,41,239

[HitObjects]
59,344,386,6,0,L|113:337,1,48
220,358,1136,2,0,L|166:365,1,48
59,344,1886,2,0,L|113:337,1,48
220,358,2636,2,0,L|166:365,1,48
59,344,3386,2,0,L|113:337,1,48
220,358,4136,2,0,L|166:365,1,48
59,344,4886,2,0,L|113:337,1,48
220,358,5636,2,0,L|166:365,1,48
142,186,6386,6,0,L|210:214,1,71.9999978027344
323,312,7136,2,0,L|254:283,1,71.9999978027344
142,186,7886,2,0,L|210:214,1,71.9999978027344
323,312,8636,2,0,L|254:283,1,71.9999978027344
142,186,9386,2,0,L|210:214,1,71.9999978027344
323,312,10136,2,0,L|254:283,1,71.9999978027344
142,186,10886,2,0,L|210:214,1,71.9999978027344
323,312,11636,2,0,L|254:283,1,71.9999978027344
256,284,12198,1,0,0:0:0:0:
265,13,12386,6,0,L|302:208,2,192,4|4|4,3:0|3:0|3:3,0:1:0:0:
323,312,13136,2,2,L|332:360,1,48,8|4,2:0|3:0,2:0:0:0:
376,243,13698,6,0,L|484:222,1,90.0000034332277,4|0,3:0|2:0,3:0:0:0:
323,312,14073,1,4,3:0:0:0:
503,152,14261,2,2,L|513:97,1,48,8|4,2:0|1:3,2:0:0:0:
511,104,15011,1,0,2:2:0:0:
389,100,15198,1,0,2:2:0:0:
453,43,15386,6,0,L|264:78,2,192,4|4|4,3:0|3:0|3:0,0:0:0:0:
115,108,16136,2,2,L|67:116,1,48,8|4,0:0|3:0,0:0:0:0:
210,6,16698,6,4,L|185:100,1,90.0000034332277,4|0,3:0|0:0,3:0:0:0:
264,78,17073,1,4,3:0:0:0:
168,166,17261,2,2,L|181:215,1,48,8|4,0:0|1:3,2:0:0:0:
168,314,18011,1,0,2:2:0:0:
158,324,18105,1,0,2:2:0:0:
149,333,18199,1,0,2:2:0:0:
139,345,18292,1,0,2:2:0:0:
132,354,18386,6,0,L|169:159,2,192,4|4|4,3:0|3:0|3:0,0:0:0:0:
190,55,19136,2,2,L|199:6,1,48,8|4,2:0|3:0,0:0:0:0:
250,125,19698,2,4,L|337:169,1,90.0000034332277,4|0,3:0|0:0,3:0:0:0:
104,66,20073,1,4,3:0:0:0:
16,187,20261,2,2,L|60:166,1,48,8|4,0:0|1:3,2:0:0:0:
16,187,21011,1,0,3:0:0:0:
107,269,21198,1,0,3:0:0:0:
0,286,21386,6,4,L|188:321,2,192,4|4|4,3:0|3:0|3:0,3:0:0:0:
249,256,21948,1,4,3:0:0:0:
338,351,22136,2,2,L|385:359,1,48,8|4,0:0|3:0,0:0:0:0:
249,256,22698,2,4,L|377:240,1,90.0000034332277,4|0,3:0|0:0,3:0:0:0:
113,273,23073,1,4,3:0:0:0:
268,149,23261,2,2,L|309:117,1,48,8|4,0:0|1:3,0:0:0:0:
306,120,24011,5,0,3:0:0:0:
249,256,24199,1,0,3:0:0:0:
249,256,25511,6,0,P|263:300|266:333,1,71.9999978027344,2|2,0:0|0:0,0:0:0:0:
317,381,26261,2,0,P|359:317|414:263,2,143.999995605469,2|2|2,0:0|0:0|0:0,0:0:0:0:
157,317,28136,1,2,0:0:0:0:
69,349,28511,1,0,3:0:0:0:
69,349,30011,5,2,0:0:0:0:
164,325,30386,2,0,P|198:333|243:349,1,71.9999978027344,2|0,0:0|0:0,0:0:0:0:
128,235,31136,2,0,P|94:243|49:259,1,71.9999978027344,2|0,0:0|0:0,0:0:0:0:
242,240,31886,2,0,P|267:263|298:300,1,71.9999978027344,2|0,0:0|0:0,0:0:0:0:
184,162,32636,2,0,P|173:128|165:81,1,71.9999978027344,2|0,0:0|0:0,0:0:0:0:
166,92,35261,5,2,0:0:0:0:
249,149,35636,1,2,0:0:0:0:
375,166,36011,1,2,0:0:0:0:
496,79,36386,6,0,P|453:6|391:14,2,150,4|0|4,3:0|0:0|3:0,0:0:0:0:
308,15,37136,2,0,P|272:54|220:45,1,90.0000034332277,8|0,0:0|0:0,0:0:0:0:
148,17,37511,1,4,3:0:0:0:
179,145,37698,2,0,P|127:133|109:84,1,90.0000034332277,8|4,0:0|3:0,0:0:0:0:
496,79,38261,2,2,P|466:105|465:151,2,71.9999978027344,4|8|4,3:0|2:0|3:0,0:0:0:0:
286,151,39386,6,4,P|358:194|350:256,2,150,4|0|4,3:0|0:0|3:0,3:0:0:0:
401,315,40136,2,0,P|361:350|370:402,1,90.0000034332277,8|0,0:0|0:0,0:0:0:0:
272,271,40511,2,0,P|255:321|289:361,1,90.0000034332277,4|8,3:0|0:0,0:0:0:0:
183,384,40886,2,0,P|134:364|124:312,1,90.0000034332277,4|0,3:0|0:0,0:0:0:0:
57,119,41261,2,2,P|93:107|109:70,2,71.9999978027344,4|8|4,3:0|2:0|3:0,0:0:0:0:
0,271,42386,6,4,P|43:198|105:206,2,150,4|0|4,3:0|0:0|3:0,3:0:0:0:
183,178,43136,2,0,P|218:217|270:208,1,90.0000034332277,8|0,0:0|0:0,0:0:0:0:
343,180,43511,1,4,3:0:0:0:
312,308,43698,2,0,P|363:296|381:247,1,90.0000034332277,8|4,0:0|3:0,0:0:0:0:
97,295,44261,2,2,P|80:328|89:360,2,71.9999978027344,4|8|4,3:0|2:0|3:0,0:0:0:0:
207,241,45386,6,4,P|249:314|312:306,2,150,4|0|4,3:0|0:0|3:0,3:0:0:0:
370,265,45948,1,8,3:0:0:0:
377,340,46136,2,0,P|428:351|446:400,1,90.0000034332277,8|0,0:0|0:0,0:0:0:0:
311,382,46511,1,4,3:0:0:0:
207,241,46698,2,0,P|242:201|294:210,1,90.0000034332277,8|4,0:0|3:0,0:0:0:0:
112,107,47261,2,2,P|92:73|107:35,1,71.9999978027344,4|8,3:0|0:0,0:0:0:0:
99,43,48011,5,8,2:0:0:0:
252,21,48198,1,8,2:0:0:0:
380,71,48386,6,0,P|401:82|417:101,1,35.9999989013672,4|0,3:0|0:0,0:0:0:0:
301,141,48761,2,0,P|300:117|308:93,1,35.9999989013672
505,244,49136,6,0,P|484:256|460:261,1,35.9999989013672,4|0,3:0|0:0,0:0:0:0:
483,140,49511,2,0,P|504:151|520:170,1,35.9999989013672
291,265,49886,6,0,P|290:241|298:217,1,35.9999989013672,4|0,3:0|0:0,0:0:0:0:
392,298,50261,2,0,P|371:310|347:315,1,35.9999989013672
380,71,50636,6,0,P|401:82|417:101,1,35.9999989013672,4|0,3:0|0:0,0:0:0:0:
301,141,51011,2,0,P|300:117|308:93,1,35.9999989013672
505,244,51386,6,0,P|484:256|460:261,1,35.9999989013672,4|0,3:0|0:0,0:0:0:0:
421,317,51761,2,0,P|400:306|384:287,1,35.9999989013672
303,105,52136,6,0,P|282:92|258:87,1,35.9999989013672,4|0,3:0|0:0,0:0:0:0:
219,32,52511,2,0,P|198:43|182:61,1,35.9999989013672
184,223,52886,6,0,P|163:235|139:240,1,35.9999989013672,4|0,3:0|0:0,0:0:0:0:
100,296,53261,2,0,P|79:285|63:266,1,35.9999989013672
0,175,53636,5,0,3:0:0:0:
87,205,53823,1,0,3:0:0:0:
87,205,53917,1,0,3:0:0:0:
87,205,54011,1,0,3:0:0:0:
184,223,54198,1,0,3:0:0:0:
143,382,54386,6,0,P|122:371|106:352,1,35.9999989013672,4|0,3:0|0:0,0:0:0:0:
222,312,54761,2,0,P|222:335|214:359,1,35.9999989013672
18,209,55136,6,0,P|38:196|62:191,1,35.9999989013672,4|0,3:0|0:0,0:0:0:0:
40,313,55511,2,0,P|19:302|3:283,1,35.9999989013672
232,188,55886,6,0,P|232:211|224:235,1,35.9999989013672,4|0,3:0|0:0,0:0:0:0:
131,155,56261,2,0,P|151:142|175:137,1,35.9999989013672
143,382,56636,6,0,P|122:371|106:352,1,35.9999989013672,4|0,3:0|0:0,0:0:0:0:
222,312,57011,2,0,P|222:335|214:359,1,35.9999989013672
49,193,57386,6,0,P|28:182|12:163,1,35.9999989013672,4|0,3:0|0:0,0:0:0:0:
87,82,57761,2,0,P|108:93|124:112,1,35.9999989013672
279,242,58136,6,0,P|300:231|316:212,1,35.9999989013672,4|0,3:0|0:0,0:0:0:0:
241,131,58511,2,0,P|220:142|204:161,1,35.9999989013672
29,341,58886,6,0,P|8:330|-8:311,1,35.9999989013672,4|0,3:0|0:0,0:0:0:0:
67,230,59261,2,0,P|88:241|104:260,1,35.9999989013672
317,336,59636,5,0,3:0:0:0:
414,318,59823,1,0,3:0:0:0:
414,318,59917,1,0,3:0:0:0:
414,318,60011,1,0,3:0:0:0:
501,288,60198,1,0,3:0:0:0:
490,376,60386,6,0,P|476:362|471:349,1,30,4|0,3:0|0:0,0:0:0:0:
414,318,60573,2,0,P|409:300|411:288,1,30,0|0,0:0|0:0,0:0:0:0:
394,218,60761,1,0,3:0:0:0:
394,218,60948,1,0,3:0:0:0:
394,218,61136,6,0,P|408:204|413:191,1,30,4|0,3:0|0:0,0:0:0:0:
470,160,61323,2,0,P|475:142|473:130,1,30,0|0,0:0|0:0,0:0:0:0:
490,60,61511,1,0,3:0:0:0:
490,60,61698,1,0,3:0:0:0:
490,60,61886,6,0,P|470:54|457:57,1,30,4|0,3:0|0:0,0:0:0:0:
401,23,62073,2,0,P|382:27|373:35,1,30,0|0,0:0|0:0,0:0:0:0:
305,55,62261,1,0,3:0:0:0:
396,106,62448,1,0,3:0:0:0:
234,130,62636,1,0,3:0:0:0:
445,175,62823,1,0,3:0:0:0:
207,220,63011,1,0,3:0:0:0:
344,242,63198,1,0,3:0:0:0:
344,242,63386,6,0,P|330:256|317:260,1,30,4|0,3:0|0:0,0:0:0:0:
284,317,63573,2,0,P|266:322|254:320,1,30,0|0,0:0|0:0,0:0:0:0:
185,337,63761,1,0,3:0:0:0:
185,337,63948,1,0,3:0:0:0:
185,337,64136,6,0,P|190:317|187:304,1,30,4|0,3:0|0:0,0:0:0:0:
219,247,64323,2,0,P|214:228|206:219,1,30,0|0,0:0|0:0,0:0:0:0:
187,151,64511,1,0,3:0:0:0:
187,151,64698,1,0,3:0:0:0:
187,151,64886,6,0,P|167:156|157:164,1,30,4|0,3:0|0:0,0:0:0:0:
92,165,65073,2,0,P|78:178|74:189,1,30,0|0,0:0|0:0,0:0:0:0:
262,116,65261,6,0,P|267:96|264:83,1,30,4|0,3:0|0:0,0:0:0:0:
297,26,65448,2,0,P|292:7|284:-2,1,30,0|0,0:0|0:0,0:0:0:0:
256,191,65636,6,0,P|270:205|282:209,1,30,4|0,3:0|0:0,0:0:0:0:
316,265,65823,2,0,P|334:270|346:268,1,30,0|0,0:0|0:0,0:0:0:0:
416,285,66011,1,0,3:0:0:0:
416,285,66198,1,0,3:0:0:0:
416,285,66386,5,0,3:0:0:0:
394,211,66573,1,0,0:0:0:0:
328,177,66761,1,0,0:0:0:0:
256,191,66948,1,0,0:0:0:0:
267,213,67136,5,0,3:0:0:0:
326,201,67323,1,0,0:0:0:0:
380,229,67511,1,0,0:0:0:0:
398,290,67698,1,0,0:0:0:0:
373,292,67886,5,0,3:0:0:0:
361,250,68073,1,0,0:0:0:0:
324,231,68261,1,0,0:0:0:0:
284,240,68448,1,0,0:0:0:0:
303,264,68636,5,0,3:0:0:0:
323,259,68823,1,0,0:0:0:0:
341,269,69011,1,0,0:0:0:0:
348,290,69198,1,0,0:0:0:0:
281,330,69386,5,0,3:0:0:0:
274,333,69761,1,0,0:0:0:0:
267,337,70136,1,0,0:0:0:0:
187,338,70511,1,0,0:0:0:0:
77,365,70698,1,0,3:0:0:0:
77,365,72386,6,0,P|67:232|218:183,1,315.000003004074,4|0,1:0|2:0,0:0:0:0:
158,134,72761,2,0,P|274:150|370:-1,1,315.000003004074,4|0,3:0|2:0,0:0:0:0:
298,178,73136,2,2,P|302:203|312:228,1,48,8|0,2:0|0:0,1:0:0:0:
482,328,73698,2,0,P|476:270|418:247,1,120,4|0,3:0|0:0,0:0:0:0:
359,288,74073,1,4,3:0:0:0:
479,165,74261,2,0,P|424:143|373:182,1,120,4|0,1:3|0:0,0:0:0:0:
219,336,74636,2,0,P|195:339|173:331,1,48,8|0,2:0|0:0,0:0:0:0:
173,331,75198,1,0,0:0:0:0:
29,37,75386,6,0,P|101:206|209:179,1,315.000003004074,4|0,1:0|2:0,0:0:0:0:
154,244,75761,2,0,P|282:221|363:365,1,315.000003004074,4|0,3:0|2:0,0:0:0:0:
279,192,76136,2,2,P|271:160|272:140,1,48,8|0,2:0|0:0,1:0:0:0:
437,31,76698,2,0,P|390:92|337:79,1,120,4|0,3:0|0:0,0:0:0:0:
264,51,77073,1,4,3:0:0:0:
363,187,77261,2,0,P|286:176|271:124,1,120,4|0,1:3|0:0,0:0:0:0:
503,148,77636,2,0,P|509:174|506:198,1,35.9999989013672,8|0,2:0|2:0,0:0:0:0:
443,259,78011,2,2,P|437:285|440:309,1,35.9999989013672,0|0,2:0|2:0,1:0:0:0:
496,384,78386,6,0,P|518:349|498:307,1,75,4|0,3:0|2:0,0:0:0:0:
443,259,78573,2,2,P|303:242|162:317,1,300,2|0,0:0|0:0,0:0:0:0:
36,279,79136,2,0,P|14:244|34:202,1,75,4|0,3:0|2:0,0:0:0:0:
89,154,79323,2,2,P|229:137|370:212,1,300,2|0,0:0|0:0,0:0:0:0:
499,173,79886,2,0,P|521:138|501:96,1,75,4|0,3:0|2:0,0:0:0:0:
446,48,80073,2,2,P|306:31|165:106,1,300,2|0,0:0|0:0,0:0:0:0:
72,61,80636,6,0,P|47:50|18:21,1,60,4|0,3:0|0:0,0:0:0:0:
271,98,81011,1,0,3:0:0:0:
236,172,81198,1,0,3:0:0:0:
459,361,81386,6,0,P|343:347|383:192,1,315.000003004074,4|0,1:0|2:0,0:0:0:0:
305,215,81761,2,0,P|388:125|279:0,1,315.000003004074,4|0,3:0|2:0,0:0:0:0:
417,128,82136,2,0,P|433:135|454:137,1,36,8|0,2:0|2:0,0:0:0:0:
503,103,82511,6,0,P|485:165|476:229,1,90.0000034332277,2|0,0:0|0:0,0:0:0:0:
440,297,82886,2,0,P|449:341|462:383,1,90.0000034332277,2|0,0:0|0:0,0:0:0:0:
346,193,83261,2,0,P|303:178|259:169,1,90.0000034332277,4|4,3:0|3:0,0:0:0:0:
180,53,83636,2,0,P|222:38|266:29,1,90.0000034332277,10|0,0:0|0:0,0:0:0:0:
425,52,84011,1,2,2:0:0:0:
440,55,84104,1,2,2:0:0:0:
457,50,84198,1,2,2:0:0:0:
471,53,84292,1,2,2:0:0:0:
486,25,84386,6,0,P|356:94|441:223,1,315.000003004074,4|0,1:0|2:0,0:0:0:0:
346,193,84761,2,0,P|388:301|203:330,1,315.000003004074,4|0,3:0|2:0,0:0:0:0:
429,293,85136,2,2,P|453:296|478:309,1,48,8|0,2:0|0:0,1:0:0:0:
235,363,85698,2,4,P|202:322|228:257,1,120,4|0,3:0|0:0,3:0:0:0:
312,283,86073,1,4,3:0:0:0:
195,173,86261,2,0,P|214:123|283:113,1,120,4|0,1:3|0:0,0:0:0:0:
438,267,86636,2,0,P|415:261|397:246,1,48,8|0,2:0|0:0,0:0:0:0:
397,245,87198,1,0,0:0:0:0:
339,26,87386,6,0,P|372:141|195:146,1,315.000003004074,4|0,1:0|2:0,0:0:0:0:
278,233,87761,2,0,P|139:232|113:385,1,315.000003004074,4|0,3:0|2:0,0:0:0:0:
142,199,88136,2,2,P|128:162|123:156,1,48,8|0,2:0|0:0,1:0:0:0:
0,14,88698,2,4,P|14:64|90:70,1,120,4|0,3:0|0:0,3:0:0:0:
152,24,89073,1,4,3:0:0:0:
122,155,89261,2,0,P|172:167|215:105,1,120,4|0,1:3|0:0,0:0:0:0:
30,223,89636,2,0,P|24:246|24:268,1,35.9999989013672,8|0,2:0|0:0,0:0:0:0:
103,338,90011,2,2,P|109:361|109:383,1,35.9999989013672,0|0,0:0|0:0,1:0:0:0:
265,255,90386,6,0,P|270:220|284:179,1,60,6|0,1:3|0:0,0:0:0:0:
354,307,90761,2,0,P|372:330|393:351,1,60,4|0,3:0|0:0,0:0:0:0:
103,338,91136,2,0,P|87:339|51:350,1,48,8|4,2:0|3:0,0:0:0:0:
145,175,91698,1,0,0:0:0:0:
57,120,91886,2,0,P|45:92|38:63,1,60,4|0,3:0|0:0,0:0:0:0:
237,14,92261,2,0,P|213:32|192:53,1,60,4|0,3:0|0:0,0:0:0:0:
311,143,92636,2,0,P|338:154|367:161,1,60,8|4,0:0|3:0,0:0:0:0:
505,115,93011,1,8,2:0:0:0:
452,176,93198,1,8,2:0:0:0:
314,35,93386,6,0,P|343:28|373:28,1,60,4|0,3:0|2:0,0:0:0:0:
444,65,93573,2,2,P|446:159|362:282,1,240,2|0,0:0|0:0,0:0:0:0:
131,203,94136,2,0,P|110:180|96:154,1,60,4|0,3:0|2:0,0:0:0:0:
91,75,94323,2,2,P|171:26|319:37,1,240,2|0,0:0|0:0,0:0:0:0:
368,277,94886,2,0,P|358:305|343:331,1,60,4|0,3:0|2:0,0:0:0:0:
277,375,95073,2,2,P|194:329|130:195,1,240,2|0,0:0|0:0,0:0:0:0:
272,173,95636,2,0,P|267:200|267:229,1,45.0000017166138,8|0,0:0|2:0,0:0:0:0:
271,330,96011,2,0,P|276:357|276:386,1,45.0000017166138,8|0,0:0|2:0,0:0:0:0:
272,173,96386,5,0,3:0:0:0:
272,173,96761,5,0,3:0:0:0:
205,133,96948,1,0,3:0:0:0:
131,158,97136,1,0,3:0:0:0:
131,158,97511,5,0,3:0:0:0:
103,230,97698,1,0,3:0:0:0:
131,158,97886,1,0,3:0:0:0:
82,97,98073,1,0,3:0:0:0:
109,23,98261,1,0,3:0:0:0:
185,9,98448,1,0,3:0:0:0:
230,72,98636,1,0,3:0:0:0:
230,72,99011,5,0,3:0:0:0:
211,147,99198,1,0,3:0:0:0:
258,209,99386,1,0,3:0:0:0:
258,209,99761,5,0,3:0:0:0:
335,211,99948,1,0,3:0:0:0:
375,278,100136,1,0,3:0:0:0:
375,278,100511,5,0,3:0:0:0:
337,344,100698,1,0,3:0:0:0:
375,278,100886,1,0,3:0:0:0:
452,274,101073,1,0,3:0:0:0:
491,206,101261,1,0,3:0:0:0:
453,139,101448,1,0,3:0:0:0:
376,146,101636,1,0,3:0:0:0:
376,146,102011,5,0,3:0:0:0:
367,132,102104,1,0,3:0:0:0:
359,119,102198,1,0,3:0:0:0:
351,108,102292,1,0,3:0:0:0:
344,100,102386,6,0,L|283:90,1,35.9999989013672,10|0,3:0|0:0,0:0:0:0:
262,36,102573,2,0,L|204:57,1,35.9999989013672,2|0,0:0|0:0,0:0:0:0:
158,95,102761,1,0,3:0:0:0:
82,38,102948,1,0,3:0:0:0:
76,159,103136,6,0,L|137:149,1,35.9999989013672,10|0,3:0|0:0,0:0:0:0:
158,95,103323,2,0,L|216:116,1,35.9999989013672,2|0,0:0|0:0,0:0:0:0:
262,154,103511,1,0,3:0:0:0:
338,97,103698,1,0,3:0:0:0:
425,145,103886,6,0,L|446:183,1,35.9999989013672,10|0,3:0|0:0,0:0:0:0:
485,238,104073,2,0,L|502:269,1,35.9999989013672,2|0,0:0|0:0,0:0:0:0:
512,81,104261,6,0,L|489:118,1,35.9999989013672,10|0,3:0|0:0,0:0:0:0:
407,242,104448,2,0,L|388:272,1,35.9999989013672,2|0,0:0|0:0,0:0:0:0:
471,357,104636,6,0,L|448:319,1,35.9999989013672,10|0,3:0|0:0,0:0:0:0:
345,179,104823,2,0,L|326:148,1,35.9999989013672,2|0,0:0|0:0,0:0:0:0:
442,176,105011,5,0,3:0:0:0:
388,272,105198,1,0,3:0:0:0:
288,316,105386,6,0,L|227:306,1,35.9999989013672,10|0,3:0|0:0,0:0:0:0:
206,252,105573,2,0,L|148:273,1,35.9999989013672,2|0,0:0|0:0,0:0:0:0:
102,311,105761,1,0,3:0:0:0:
26,254,105948,1,0,3:0:0:0:
20,375,106136,6,0,L|81:365,1,35.9999989013672,10|0,3:0|0:0,0:0:0:0:
102,311,106323,2,0,L|160:332,1,35.9999989013672,2|0,0:0|0:0,0:0:0:0:
206,370,106511,1,0,3:0:0:0:
282,313,106698,1,0,3:0:0:0:
282,313,106792,1,0,3:0:0:0:
282,313,106886,5,0,3:0:0:0:
167,230,107073,1,0,3:0:0:0:
53,313,107261,1,0,3:0:0:0:
142,346,107448,1,0,3:0:0:0:
17,204,107636,1,0,3:0:0:0:
99,172,107823,1,0,3:0:0:0:
253,230,108011,1,0,3:0:0:0:
282,313,108198,1,0,3:0:0:0:
422,363,108386,6,0,L|470:122,1,225,4|0,3:0|2:0,0:0:0:0:
490,220,108761,2,0,L|442:-21,1,225,4|0,3:0|2:0,0:0:0:0:
404,274,109136,2,0,L|427:390,1,90.0000034332277,8|0,0:0|0:0,0:0:0:0:
255,270,109511,1,0,3:0:0:0:
317,128,109698,2,0,L|340:244,2,90.0000034332277,8|0|0,0:0|0:0|0:0,0:0:0:0:
130,36,110261,6,2,L|138:-9,2,35.9999989013672,4|4|8,3:0|3:0|0:0,0:0:0:0:
84,107,110823,1,0,3:0:0:0:
25,50,111011,1,0,3:0:0:0:
25,50,111198,1,0,3:0:0:0:
5,137,111386,6,0,L|246:89,1,225,4|0,3:0|2:0,0:0:0:0:
148,69,111761,2,0,L|389:117,1,225,4|0,3:0|2:0,0:0:0:0:
94,155,112136,2,0,L|-22:132,1,90.0000034332277,8|0,0:0|0:0,0:0:0:0:
84,283,112511,1,0,3:0:0:0:
243,242,112698,2,0,L|127:219,2,90.0000034332277,8|0|0,0:0|0:0|0:0,0:0:0:0:
35,359,113261,6,2,L|0:366,2,35.9999989013672,4|4|8,3:0|3:0|0:0,0:0:0:0:
120,383,113823,1,0,3:0:0:0:
184,318,114011,1,0,3:0:0:0:
199,327,114104,1,0,3:0:0:0:
214,334,114198,1,0,3:0:0:0:
229,341,114292,1,0,3:0:0:0:
240,346,114386,6,0,L|217:231,1,75,4|0,3:0|0:0,0:0:0:0:
271,199,114573,2,0,L|247:78,1,75
146,244,114761,2,0,L|169:129,1,75,4|0,3:0|0:0,0:0:0:0:
256,125,114948,2,0,L|280:4,1,75
320,272,115136,2,0,L|305:345,1,45.0000017166138,8|0,0:0|0:0,0:0:0:0:
240,346,115323,1,0,0:0:0:0:
240,346,115417,1,0,0:0:0:0:
240,346,115511,1,0,0:0:0:0:
94,100,115698,2,2,L|112:7,2,90.0000034332277,8|0|0,0:0|3:0|3:0,0:0:0:0:
79,325,116261,6,0,L|84:353,1,17.9999994506836,4|0,3:0|0:0,0:0:0:0:
149,313,116448,2,0,L|154:341,1,17.9999994506836,4|0,3:0|0:0,0:0:0:0:
234,265,116636,2,0,L|237:247,1,17.9999994506836,8|0,0:0|0:0,0:0:0:0:
304,277,116823,2,0,L|307:259,1,17.9999994506836,0|0,3:0|0:0,0:0:0:0:
362,340,117011,2,0,L|367:368,1,17.9999994506836,4|0,3:0|0:0,0:0:0:0:
432,328,117198,1,0,3:0:0:0:
509,360,117386,6,0,L|394:337,1,75,4|0,3:0|0:0,0:0:0:0:
297,378,117573,2,0,L|176:354,1,75
377,262,117761,2,0,L|262:285,1,75,4|0,3:0|0:0,0:0:0:0:
223,363,117948,2,0,L|102:387,1,75,8|0,0:0|0:0,0:0:0:0:
452,247,118136,2,0,L|525:232,1,45.0000017166138,8|0,0:0|0:0,0:0:0:0:
512,165,118323,1,0,0:0:0:0:
512,165,118417,1,0,0:0:0:0:
512,165,118511,1,0,0:0:0:0:
239,62,118698,1,0,3:0:0:0:
429,67,118886,6,0,L|362:98,1,45.0000017166138,8|0,0:0|0:0,0:0:0:0:
306,123,119073,2,0,L|239:154,1,45.0000017166138,4|0,3:0|0:0,0:0:0:0:
424,187,119261,6,0,L|357:156,1,45.0000017166138,8|0,0:0|0:0,0:0:0:0:
152,59,119448,2,0,L|85:28,1,45.0000017166138,8|0,0:0|0:0,0:0:0:0:
111,40,120386,6,0,P|42:169|210:152,1,360,4|0,1:0|2:0,0:0:0:0:
197,178,120761,2,0,P|320:150|244:313,1,360,4|0,3:0|2:0,0:0:0:0:
287,316,121136,2,2,P|282:344|292:368,1,48,8|0,0:0|0:0,0:0:0:0:
288,362,121698,1,0,3:0:0:0:
288,362,121886,6,0,P|345:346|405:340,1,120,4|0,3:0|0:0,0:0:0:0:
348,137,122261,2,0,P|309:183|280:235,1,120,4|0,3:0|0:0,0:0:0:0:
165,278,122636,2,0,P|159:218|143:160,1,120,8|4,0:0|3:0,0:0:0:0:
237,299,123011,1,0,3:0:0:0:
237,299,123198,1,4,3:0:0:0:
71,142,123386,6,0,P|24:188|-4:249,1,120,4|0,3:0|0:0,0:0:0:0:
116,351,123761,2,0,P|63:323|4:313,1,120,4|0,3:0|0:0,0:0:0:0:
243,50,124136,2,0,P|229:28|209:12,1,48,8|4,0:0|3:0,0:0:0:0:
210,150,124698,6,0,P|266:129|325:126,1,120,4|0,3:0|0:0,0:0:0:0:
141,84,125073,1,0,3:0:0:0:
381,199,125261,2,0,P|435:223|479:263,2,120,4|4|8,3:0|3:0|0:0,3:0:0:0:
479,263,125823,1,0,3:0:0:0:
365,286,126010,1,0,3:0:0:0:
296,199,126198,1,0,3:0:0:0:
383,61,126386,6,0,P|452:190|284:173,1,360,4|0,1:0|2:0,0:0:0:0:
296,199,126761,2,0,P|173:171|249:334,1,360,4|0,3:0|2:0,0:0:0:0:
205,337,127136,2,2,P|210:365|200:389,1,48,8|0,0:0|0:0,0:0:0:0:
203,383,127698,1,0,3:0:0:0:
203,383,127886,6,0,P|260:367|320:361,1,120,4|0,3:0|0:0,0:0:0:0:
263,158,128261,2,0,P|224:204|195:256,1,120,4|0,3:0|0:0,0:0:0:0:
80,299,128636,2,0,P|74:239|58:181,1,120,8|4,0:0|3:0,0:0:0:0:
152,320,129011,1,0,3:0:0:0:
152,320,129198,1,4,3:0:0:0:
352,297,129386,6,0,P|428:313|495:357,1,120,4|0,3:0|0:0,0:0:0:0:
480,143,129761,2,0,P|504:216|499:296,1,120,4|0,3:0|0:0,0:0:0:0:
304,52,130136,2,0,P|305:25|314:2,1,48,8|4,0:0|3:0,0:0:0:0:
228,108,130698,6,0,P|154:129|95:164,1,120,4|0,3:0|0:0,0:0:0:0:
310,134,131073,1,0,3:0:0:0:
63,0,131261,2,0,P|45:75|46:143,2,120,4|4|8,3:0|3:0|0:0,3:0:0:0:
43,117,131823,1,0,3:0:0:0:
145,234,132011,1,0,3:0:0:0:
148,247,132104,1,0,3:0:0:0:
147,259,132198,1,0,3:0:0:0:
139,270,132292,1,0,3:0:0:0:
130,275,132386,6,0,P|142:123|274:198,1,360,4|0,1:0|2:0,0:0:0:0:
273,195,132761,2,0,P|404:270|420:118,1,360,4|0,3:0|2:0,0:0:0:0:
419,118,133136,2,2,P|419:89|435:69,1,48,8|0,0:0|0:0,0:0:0:0:
428,74,133698,1,0,3:0:0:0:
428,74,133886,6,0,P|411:45|405:14,1,60,4|0,3:0|0:0,0:0:0:0:
239,132,134261,2,0,P|204:132|175:122,1,60,4|0,3:0|0:0,0:0:0:0:
153,294,134636,2,0,P|136:323|112:344,1,60,10|0,0:0|0:0,0:0:0:0:
57,293,135011,2,0,P|73:263|97:242,1,60,2|0,0:0|0:0,0:0:0:0:
434,333,135386,6,2,P|312:307|177:89,1,360,4|2,3:0|2:0,1:0:0:0:
232,61,135761,2,2,P|354:86|488:304,1,360,4|2,3:0|2:0,1:0:0:0:
433,333,136136,2,2,P|433:356|441:379,1,48,8|0,0:0|0:0,0:0:0:0:
376,252,136698,2,0,P|336:304|326:367,1,120,4|0,3:0|0:0,0:0:0:0:
452,192,137073,1,4,3:0:0:0:
336,162,137261,2,0,P|275:187|235:236,1,120,4|0,3:0|0:0,0:0:0:0:
411,89,137636,6,0,P|428:60|434:29,1,60,10|0,0:0|0:0,0:0:0:0:
510,184,138011,2,0,P|476:183|446:194,1,60,2|0,0:0|0:0,0:0:0:0:
383,306,138386,6,0,P|371:154|239:229,1,360,4|0,1:0|2:0,0:0:0:0:
240,226,138761,2,0,P|109:301|93:149,1,360,4|0,3:0|2:0,0:0:0:0:
92,149,139136,2,2,P|92:120|76:100,1,48,8|0,0:0|0:0,0:0:0:0:
81,104,139698,1,0,3:0:0:0:
81,104,139886,6,0,P|43:114|4:118,1,60,4|0,3:0|0:0,0:0:0:0:
51,278,140261,2,0,P|76:247|95:213,1,60,4|0,3:0|0:0,0:0:0:0:
211,244,140636,2,0,P|214:283|225:321,1,60,8|4,0:0|3:0,0:0:0:0:
173,153,141011,1,0,3:0:0:0:
173,153,141198,1,4,3:0:0:0:
347,69,141386,6,0,P|364:25|370:1,1,60,4|0,3:0|0:0,0:0:0:0:
227,128,141761,2,0,P|183:146|163:159,1,60,4|0,3:0|0:0,0:0:0:0:
447,196,142136,2,0,P|467:208|485:223,1,48,8|4,0:0|3:0,0:0:0:0:
485,223,142698,5,0,3:0:0:0:
410,298,142886,1,0,3:0:0:0:
310,244,143073,1,0,3:0:0:0:
421,271,143261,1,4,3:0:0:0:
330,367,143448,1,0,3:0:0:0:
202,337,143636,1,8,0:0:0:0:
164,212,143823,1,0,3:0:0:0:
253,116,144011,1,0,3:0:0:0:
253,116,144198,2,0,L|264:151,1,22.5000008583069,0|0,3:0|0:0,0:0:0:0:
253,116,145511,6,0,P|242:82|222:52,1,71.9999978027344,2|2,0:0|0:0,0:0:0:0:
391,81,146261,2,0,P|339:130|300:191,2,143.999995605469,2|2|2,0:0|0:0|0:0,0:0:0:0:
224,191,148136,1,2,0:0:0:0:
147,158,148511,1,2,0:0:0:0:
147,158,150011,5,2,0:0:0:0:
29,221,150386,2,0,P|58:242|81:280,1,71.9999978027344,2|0,0:0|0:0,0:0:0:0:
239,222,151136,2,0,P|203:225|164:247,1,71.9999978027344,2|0,0:0|0:0,0:0:0:0:
284,367,151886,2,0,P|262:338|225:314,1,71.9999978027344,2|0,0:0|0:0,0:0:0:0:
319,163,152636,2,0,P|333:195|334:240,1,71.9999978027344,2|0,0:0|0:0,0:0:0:0:
335,231,155261,5,2,0:0:0:0:
416,188,155636,1,2,0:0:0:0:
448,99,156011,1,2,0:0:0:0:
422,13,156386,5,0,3:0:0:0:
422,13,156761,5,4,3:0:0:0:
448,99,156948,1,0,3:0:0:0:
369,120,157136,1,0,3:0:0:0:
369,120,157511,5,4,3:0:0:0:
343,34,157698,1,0,3:0:0:0:
343,34,158073,5,0,3:0:0:0:
264,55,158261,1,4,3:0:0:0:
290,141,158448,1,0,3:0:0:0:
369,120,158636,1,0,3:0:0:0:
369,120,159010,5,4,3:0:0:0:
343,34,159198,1,0,3:0:0:0:
264,55,159385,1,0,3:0:0:0:
264,55,159761,5,4,3:0:0:0:
290,141,159948,1,0,3:0:0:0:
211,162,160136,1,0,3:0:0:0:
211,162,160511,5,4,3:0:0:0:
185,76,160698,1,0,3:0:0:0:
185,76,161073,5,0,3:0:0:0:
106,97,161261,1,4,3:0:0:0:
132,183,161448,1,0,3:0:0:0:
211,162,161636,1,0,3:0:0:0:
211,162,162011,5,4,3:0:0:0:
185,76,162198,1,0,3:0:0:0:
106,97,162386,1,0,3:0:0:0:
106,97,162761,5,4,3:0:0:0:
80,183,162948,1,0,3:0:0:0:
166,209,163136,1,0,3:0:0:0:
166,209,163511,5,4,3:0:0:0:
192,123,163698,1,0,3:0:0:0:
278,149,163886,1,0,3:0:0:0:
252,235,164073,1,0,3:0:0:0:
166,209,164261,1,4,3:0:0:0:
192,123,164448,1,0,3:0:0:0:
278,149,164636,1,0,3:0:0:0:
278,149,165011,5,4,3:0:0:0:
252,235,165198,1,0,3:0:0:0:
338,261,165386,1,0,3:0:0:0:
338,261,165761,5,4,3:0:0:0:
364,175,165948,1,0,3:0:0:0:
450,201,166136,1,0,3:0:0:0:
450,201,166511,5,4,3:0:0:0:
424,287,166698,1,0,3:0:0:0:
381,274,166792,1,0,3:0:0:0:
338,261,166886,1,0,3:0:0:0:
270,325,167073,1,0,3:0:0:0:
248,318,167167,1,0,3:0:0:0:
227,312,167261,1,0,3:0:0:0:
152,372,167448,1,0,3:0:0:0:
130,365,167636,1,0,3:0:0:0:
130,365,168386,6,0,P|119:312|84:275,1,96,2|2,0:0|0:0,0:0:0:0:
29,102,169136,2,0,P|48:176|166:191,1,192,2|2,0:0|0:0,0:0:0:0:
399,326,170636,2,0,P|440:328|477:380,1,96,2|2,0:0|0:0,0:0:0:0:
474,367,171761,5,2,0:0:0:0:
366,248,172136,2,0,P|359:192|468:140,1,192,2|2,0:0|0:0,0:0:0:0:
399,326,173636,2,0,P|347:333|313:367,1,96,2|2,0:0|0:0,0:0:0:0:
316,361,174386,5,2,0:0:0:0:
234,316,174573,2,2,P|218:271|230:222,1,96
389,217,175136,1,2,0:0:0:0:
391,310,175323,2,2,P|360:346|311:360,1,96
228,225,175886,1,2,0:0:0:0:
307,176,176073,2,2,P|353:184|390:219,1,96
388,216,176636,5,2,0:0:0:0:
98,121,177010,1,2,0:0:0:0:
181,167,177198,2,0,P|200:241|178:312,1,144,2|0,0:0|0:0,0:3:0:0:
182,304,178511,5,2,0:0:0:0:
284,354,178886,1,2,0:0:0:0:
379,291,179261,1,2,0:0:0:0:
372,178,179636,1,2,0:0:0:0:
271,128,180011,1,2,0:0:0:0:
22,253,180386,6,0,L|31:292,1,30,2|0,0:0|0:0,0:0:0:0:
99,312,180573,2,0,L|90:351,1,30,2|0,0:0|0:0,0:0:0:0:
19,358,180761,1,2,0:0:0:0:
19,358,180854,1,0,0:0:0:0:
19,358,180948,1,0,0:0:0:0:
80,188,181136,1,2,0:0:0:0:
80,188,181229,1,0,0:0:0:0:
80,188,181323,1,0,0:0:0:0:
1,0,181511,6,0,L|10:39,1,30,2|0,0:0|0:0,0:0:0:0:
84,59,181698,1,2,0:0:0:0:
84,59,181792,1,0,0:0:0:0:
84,59,181886,2,0,L|75:98,1,30,2|0,0:0|0:0,0:0:0:0:
0,106,182073,5,2,0:0:0:0:
17,183,182261,1,2,0:0:0:0:
94,165,182449,1,2,0:0:0:0:
77,88,182636,1,2,0:0:0:0:
161,74,182823,1,2,0:0:0:0:
178,151,183011,1,2,0:0:0:0:
255,133,183198,1,2,0:0:0:0:
420,90,183386,6,0,L|455:81,1,36,4|0,0:0|2:0,0:0:0:0:
478,69,183761,6,0,L|471:98,1,30,2|0,0:0|0:0,0:0:0:0:
397,131,183948,2,0,L|403:160,1,30,2|0,0:0|0:0,0:0:0:0:
480,178,184136,5,2,0:0:0:0:
463,255,184324,1,2,0:0:0:0:
386,237,184512,1,2,0:0:0:0:
403,160,184699,1,2,0:0:0:0:
319,146,184886,1,2,0:0:0:0:
302,223,185074,1,2,0:0:0:0:
225,205,185261,1,2,0:0:0:0:
242,128,185448,1,2,0:0:0:0:
163,106,185636,6,0,L|124:97,1,30,2|0,0:0|0:0,0:0:0:0:
103,29,185823,2,0,L|64:38,1,30,2|0,0:0|0:0,0:0:0:0:
51,114,186011,1,2,0:0:0:0:
51,114,186104,1,0,0:0:0:0:
51,114,186198,1,0,0:0:0:0:
51,114,186386,6,0,L|72:343,1,225,4|0,3:0|2:0,0:0:0:0:
79,346,186761,2,0,L|303:325,1,225,4|0,3:0|2:0,0:0:0:0:
303,325,187136,5,2,0:0:0:0:
303,325,187229,1,0,0:0:0:0:
303,325,187323,1,0,0:0:0:0:
481,319,187511,1,2,0:0:0:0:
412,155,187699,1,2,0:0:0:0:
412,155,187792,1,0,0:0:0:0:
412,155,187886,2,0,L|403:116,1,30,2|0,0:0|0:0,0:0:0:0:
485,89,188073,2,0,L|491:59,1,30,2|0,0:0|0:0,0:0:0:0:
419,16,188261,1,2,0:0:0:0:
346,82,188448,1,2,0:0:0:0:
478,228,188635,5,4,3:0:0:0:
405,285,188823,1,2,0:0:0:0:
421,372,189011,1,2,0:0:0:0:
512,384,189198,1,2,0:0:0:0:
512,384,189386,6,0,L|491:155,1,225,4|0,3:0|2:0,0:0:0:0:
484,152,189761,2,0,L|259:172,1,225,4|0,3:0|2:0,0:0:0:0:
260,173,190136,5,2,0:0:0:0:
260,173,190229,1,0,0:0:0:0:
260,173,190323,1,2,0:0:0:0:
290,264,190511,1,2,0:0:0:0:
213,282,190698,1,2,0:0:0:0:
196,205,190886,1,2,0:0:0:0:
196,205,190979,1,0,0:0:0:0:
196,205,191073,1,2,0:0:0:0:
112,219,191261,1,2,0:0:0:0:
129,296,191449,1,2,0:0:0:0:
52,314,191636,1,2,0:0:0:0:
52,314,192011,1,2,0:0:0:0:
52,314,192386,6,0,P|142:195|298:262,1,315.000003004074,4|0,1:0|2:0,0:0:0:0:
247,174,192761,2,0,P|359:212|442:55,1,315.000003004074,4|0,3:0|2:0,0:0:0:0:
361,238,193136,2,2,P|360:257|365:281,1,36,8|0,0:0|2:0,0:0:0:0:
420,328,193511,2,2,P|504:217|426:53,1,315.000003004074,6|0,3:0|2:0,1:0:0:0:
397,0,193886,2,0,P|337:1|292:75,1,120,4|0,1:3|0:0,0:0:0:0:
90,209,194261,2,2,P|67:201|47:187,1,48,4|8,3:0|0:0,0:0:0:0:
47,187,194823,1,0,0:0:0:0:
77,66,195011,2,0,P|142:80|175:122,1,120,4|0,3:0|0:0,0:0:0:0:
218,19,195386,6,0,P|208:152|359:201,1,315.000003004074,4|0,1:0|2:0,0:0:0:0:
290,244,195761,2,0,P|406:228|502:379,1,315.000003004074,4|0,3:0|2:0,0:0:0:0:
436,213,196136,2,2,P|440:188|450:163,1,48,8|0,0:0|0:0,0:0:0:0:
454,299,196698,2,0,P|416:351|338:333,1,120,4|0,3:0|0:0,0:0:0:0:
301,295,197073,1,4,3:0:0:0:
230,384,197261,2,0,P|165:377|142:300,1,120,4|0,1:3|0:0,0:0:0:0:
255,141,197636,2,0,P|262:157|266:193,1,48,8|0,0:0|0:0,0:0:0:0:
266,187,198198,1,0,0:0:0:0:
412,46,198386,6,0,P|427:163|253:171,1,315.000003004074,4|0,1:0|2:0,0:0:0:0:
321,241,198761,2,0,P|182:236|144:387,1,315.000003004074,4|0,3:0|2:0,0:0:0:0:
192,203,199136,2,2,P|178:166|173:160,1,48,8|0,0:0|0:0,0:0:0:0:
11,145,199698,2,0,P|30:181|106:189,1,120,4|0,3:0|0:0,0:0:0:0:
172,159,200073,1,4,3:0:0:0:
97,10,200261,2,0,P|75:44|106:114,1,120,4|0,1:3|0:0,0:0:0:0:
247,119,200636,6,0,P|270:80|259:33,1,90.0000034332277,10|0,0:0|0:0,0:0:0:0:
392,164,201011,2,0,P|347:163|314:191,1,90.0000034332277,2|0,0:0|0:0,0:0:0:0:
359,16,201386,2,0,P|381:55|427:69,2,90.0000034332277,4|2|0,3:0|0:0|3:0,0:0:0:0:
247,119,201948,1,0,3:0:0:0:
57,167,202136,5,8,0:0:0:0:
73,147,202323,1,0,3:0:0:0:
115,145,202511,1,0,3:0:0:0:
142,195,202698,1,0,3:0:0:0:
113,270,202886,1,0,3:0:0:0:
141,358,203074,1,0,3:0:0:0:
234,380,203261,1,0,3:0:0:0:
296,326,203449,1,0,3:0:0:0:
314,254,203636,1,0,3:0:0:0:
368,243,203823,1,0,3:0:0:0:
397,280,204011,1,0,3:0:0:0:
391,307,204198,1,0,3:0:0:0:
384,318,204386,6,0,P|246:261|251:108,1,315.000003004074,4|0,1:0|2:0,0:0:0:0:
204,179,204761,2,0,P|198:84|16:78,1,315.000003004074,4|0,3:0|2:0,0:0:0:0:
206,48,205136,2,2,P|225:43|247:32,1,36,8|0,0:0|2:0,0:0:0:0:
312,8,205511,2,2,P|329:163|188:167,1,315.000003004074,6|0,3:0|2:0,1:0:0:0:
126,199,205886,2,0,P|75:248|83:308,1,120,4|0,1:3|0:0,0:0:0:0:
328,369,206261,2,0,P|348:348|349:320,1,48,4|8,3:0|0:0,0:0:0:0:
350,329,206823,1,0,0:0:0:0:
278,207,207011,2,0,P|319:246|397:237,1,120,4|0,3:0|0:0,0:0:0:0:
479,314,207386,6,0,P|459:212|270:216,1,315.000003004074,4|0,1:0|2:0,0:0:0:0:
323,140,207761,2,0,P|199:173|156:17,1,315.000003004074,4|0,3:0|2:0,0:0:0:0:
194,204,208136,2,2,P|190:229|173:251,1,48,8|0,0:0|0:0,0:0:0:0:
0,310,208698,2,0,P|54:275|112:301,1,120,4|0,3:0|0:0,0:0:0:0:
104,384,209073,1,4,3:0:0:0:
177,247,209261,2,0,P|234:277|241:340,1,120,4|0,1:3|0:0,0:0:0:0:
0,211,209636,2,0,P|-1:182|8:163,1,48,8|0,0:0|0:0,0:0:0:0:
6,165,210198,1,0,0:0:0:0:
0,39,210386,6,0,P|130:31|145:186,1,315.000003004074,4|0,1:0|2:0,0:0:0:0:
202,132,210761,2,0,P|178:240|341:311,1,315.000003004074,4|0,3:0|2:0,0:0:0:0:
158,258,211136,2,2,P|130:260|107:273,1,48,8|0,0:0|0:0,0:0:0:0:
130,379,211698,2,0,P|202:356|205:297,1,120,4|0,3:0|0:0,0:0:0:0:
158,258,212073,1,4,3:0:0:0:
287,290,212261,2,0,P|303:216|253:184,1,120,4|0,1:3|0:0,0:0:0:0:
93,146,212636,6,0,P|155:182|211:158,1,120,10|0,0:0|0:0,0:0:0:0:
135,0,213011,2,0,P|81:23|62:78,1,120,2|0,0:0|0:0,0:0:0:0:
240,109,213386,2,0,P|245:50|207:6,2,120,4|2|0,3:0|0:0|3:0,0:0:0:0:
308,238,213948,1,0,3:0:0:0:
453,316,214136,5,8,0:0:0:0:
458,296,214323,1,0,3:0:0:0:
438,265,214511,1,0,3:0:0:0:
384,273,214698,1,0,3:0:0:0:
353,337,214885,1,0,3:0:0:0:
288,384,215073,1,0,3:0:0:0:
200,366,215260,1,0,3:0:0:0:
173,280,215448,1,0,3:0:0:0:
205,202,215636,1,0,3:0:0:0:
178,149,215823,1,0,3:0:0:0:
140,154,216011,1,0,3:0:0:0:
129,172,216198,1,0,3:0:0:0:
128,184,216386,6,0,P|208:291|250:118,1,360,4|0,1:0|2:0,0:0:0:0:
286,145,216761,2,0,P|341:17|431:154,1,360,4|0,3:0|2:0,0:0:0:0:
438,141,217136,2,2,P|439:178|450:195,1,48,8|0,0:0|1:0,1:0:0:0:
443,187,217698,1,0,3:0:0:0:
443,187,217886,6,0,P|381:186|318:230,2,120,0|0|4,3:0|0:0|3:0,0:0:0:0:
502,240,218448,1,0,3:0:0:0:
472,318,218636,2,0,P|419:346|360:344,1,120,10|0,0:0|0:0,0:0:0:0:
232,384,219011,2,0,P|181:352|153:300,1,120,2|0,0:0|0:0,0:0:0:0:
54,217,219386,6,0,P|59:135|226:226,1,360,4|0,1:0|2:0,0:0:0:0:
233,205,219761,2,0,P|272:300|362:155,1,360,4|0,3:0|2:0,0:0:0:0:
373,164,220136,2,2,P|360:135|358:114,1,48,8|0,0:0|0:0,1:0:0:0:
358,119,220698,1,0,3:0:0:0:
358,119,220886,6,0,P|420:98|479:122,2,120,0|0|4,3:0|0:0|3:0,0:0:0:0:
294,180,221448,1,0,3:0:0:0:
332,41,221636,2,0,P|255:5|205:17,1,120,10|0,0:0|0:0,0:0:0:0:
146,94,222011,2,0,P|76:142|61:191,1,120,2|0,0:0|0:0,0:0:0:0:
99,294,222386,6,0,P|110:331|153:363,1,75,4|0,3:0|2:0,0:0:0:0:
216,372,222573,2,2,P|287:337|507:355,1,300,2|0,0:0|0:0,0:0:0:0:
512,157,223136,2,0,P|501:194|458:226,1,75,4|0,3:0|2:0,0:0:0:0:
395,235,223323,2,2,P|324:200|104:218,1,300,2|0,0:0|0:0,0:0:0:0:
87,16,223886,2,0,P|98:53|141:85,1,75,4|0,3:0|2:0,0:0:0:0:
204,94,224073,2,2,P|275:59|495:77,1,300,2|0,0:0|0:0,0:0:0:0:
195,227,224636,6,0,P|214:204|222:176,1,60,4|0,3:0|0:0,0:0:0:0:
109,215,225011,1,0,3:0:0:0:
161,309,225198,1,0,3:0:0:0:
278,332,225386,6,0,P|373:224|210:189,1,360,4|0,1:0|2:0,0:0:0:0:
221,175,225761,2,0,P|96:183|203:58,1,360,4|0,3:0|2:0,0:0:0:0:
179,46,226136,2,2,P|194:55|221:56,1,36,8|0,0:0|2:0,1:0:0:0:
234,43,226511,6,0,P|210:91|241:157,1,120,2|0,0:0|0:0,0:0:0:0:
367,297,226886,2,0,P|420:300|462:360,1,120,2|0,0:0|0:0,0:0:0:0:
365,174,227261,2,0,P|424:120|418:66,1,120,4|0,3:0|0:0,0:0:0:0:
163,250,227636,2,0,P|110:223|55:242,1,120,10|0,0:0|0:0,0:0:0:0:
402,355,228011,1,2,2:0:0:0:
417,358,228104,1,2,2:0:0:0:
434,353,228198,1,2,2:0:0:0:
448,356,228292,1,2,2:0:0:0:
460,348,228386,6,2,P|490:217|316:253,1,360,4|0,1:0|2:0,1:0:0:0:
320,234,228761,2,2,P|206:295|215:127,1,360,4|0,3:0|2:0,1:0:0:0:
204,130,229136,2,2,P|234:115|245:95,1,48,8|0,0:0|0:0,1:0:0:0:
241,103,229698,1,0,3:0:0:0:
241,103,229886,6,2,P|246:54|138:11,2,150,0|0|4,3:0|0:0|3:0,1:0:0:0:
233,198,230448,1,0,3:0:0:0:
326,207,230636,2,2,P|370:228|353:343,1,150,10|0,0:0|0:0,1:0:0:0:
222,384,231011,2,2,P|177:362|194:247,1,150,2|0,3:0|0:0,1:0:0:0:
417,68,231386,6,2,P|468:218|322:202,1,360,4|0,1:0|2:0,1:0:0:0:
325,206,231761,2,2,P|208:117|180:281,1,360,4|0,3:0|2:0,1:0:0:0:
168,271,232136,2,10,P|187:294|192:316,1,48,8|0,0:0|0:0,1:0:0:0:
191,311,232698,1,0,3:0:0:0:
191,311,232886,6,2,P|113:322|59:390,2,150,0|0|4,3:0|0:0|3:0,1:0:0:0:
289,353,233448,1,0,3:0:0:0:
333,260,233636,2,0,P|396:211|482:221,1,150,10|0,0:0|0:0,0:0:0:0:
238,213,234011,2,0,P|164:182|130:102,1,150,2|0,0:0|0:0,0:0:0:0:
243,1,234386,6,0,P|266:53|267:89,1,90.0000034332277,4|0,3:0|0:0,0:0:0:0:
238,213,234761,2,0,P|229:269|237:304,1,90.0000034332277,4|0,3:0|0:0,0:0:0:0:
463,112,235136,2,2,P|485:95|500:72,1,48,8|0,0:0|0:0,0:0:0:0:
363,255,235698,1,0,3:0:0:0:
444,220,235886,2,0,P|499:251|517:283,1,90.0000034332277,0|0,3:0|0:0,0:0:0:0:
227,384,236261,2,0,P|243:342|237:298,1,90.0000034332277,4|0,3:0|0:0,0:0:0:0:
78,209,236636,2,0,P|37:226|9:261,1,90.0000034332277,10|0,0:0|0:0,0:0:0:0:
187,216,237011,1,0,3:0:0:0:
168,101,237198,1,0,3:0:0:0:
15,86,237386,6,0,P|66:76|120:-23,1,150,4|0,3:0|0:0,0:0:0:0:
168,101,237761,2,0,P|248:102|279:172,1,150,4|0,3:0|0:0,0:0:0:0:
512,20,238136,2,0,P|464:85|503:174,1,150,10|0,0:0|0:0,0:0:0:0:
383,88,238511,2,0,P|342:156|266:148,1,150,2|0,0:0|0:0,0:0:0:0:
248,384,238886,2,0,P|192:314|109:316,1,150,2|0,0:0|0:0,0:0:0:0:
136,307,239261,1,4,3:0:0:0:
60,307,239448,1,4,3:0:0:0:
147,321,239636,1,10,0:0:0:0:
244,334,239823,1,10,0:0:0:0:
370,353,240011,1,10,0:0:0:0:
512,368,240198,1,10,0:0:0:0:
512,368,240386,6,0,L|491:317,1,48,0|0,3:0|3:0,0:0:0:0:
419,235,241136,2,0,L|439:285,1,48,0|0,0:0|0:0,0:0:0:0:
512,368,241886,2,0,L|491:317,1,48,0|0,0:0|3:0,0:0:0:0:
419,235,242636,2,0,L|439:285,1,48
512,197,243386,6,0,L|459:157,1,60,0|0,3:0|3:0,0:0:0:0:
334,115,244136,2,0,L|385:153,1,60,0|0,0:0|3:0,0:0:0:0:
512,197,244886,2,0,L|459:157,1,60,0|0,0:0|3:0,0:0:0:0:
334,115,245636,2,0,L|385:153,1,60,0|0,3:0|0:0,0:0:0:0:
411,33,246386,6,0,L|336:23,1,71.9999978027344,0|0,3:0|3:0,0:0:0:0:
188,52,247136,2,0,L|260:60,1,71.9999978027344,0|0,0:0|0:0,0:0:0:0:
411,33,247886,2,0,L|336:23,1,71.9999978027344,0|0,0:0|0:0,0:0:0:0:
188,52,248636,2,0,L|260:60,1,71.9999978027344,0|0,3:0|0:0,0:0:0:0:
512,197,249386,6,0,L|459:157,1,60,0|0,3:0|3:0,0:0:0:0:
334,115,250136,2,0,L|385:153,1,60,0|0,0:0|0:0,0:0:0:0:
512,197,250886,2,0,L|459:157,1,60,0|0,0:0|0:0,0:0:0:0:
334,115,251636,2,0,L|385:153,1,60,0|0,3:0|0:0,0:0:0:0:
256,192,252386,12,0,255386,2:2:0:0:
