osu file format v14

[General]
AudioFilename: audio.mp3
AudioLeadIn: 0
PreviewTime: 58304
Countdown: 0
SampleSet: Normal
StackLeniency: 0.7
Mode: 0
LetterboxInBreaks: 0
WidescreenStoryboard: 0

[Editor]
DistanceSpacing: 1
BeatDivisor: 4
GridSize: 4
TimelineZoom: 1

[Metadata]
Title:Blooming Lily (Short Ver.)
TitleUnicode:Blooming Lily (Short Ver.)
Artist:Sawamura Spencer Eriri (CV.Oonishi Saori)
ArtistUnicode:澤村・スペンサー・英梨々 (CV.大西沙織)
Creator:gundammango
Version:Normal
Source:冴えない彼女の育てかた
Tags:Saenai Saenai Heroine no Sodatekata Insert song Cut Version Saekano Character Song
BeatmapID:1064056
BeatmapSetID:470523

[Difficulty]
HPDrainRate:3
CircleSize:3
OverallDifficulty:4
ApproachRate:5
SliderMultiplier:1.2
SliderTickRate:2

[Events]
//Background and Video events
0,0,"bg.jpg",0,0
//Break Periods
//Storyboard Layer 0 (Background)
//Storyboard Layer 1 (Fail)
//Storyboard Layer 2 (Pass)
//Storyboard Layer 3 (Foreground)
//Storyboard Sound Samples

[TimingPoints]
1474,422.535211267606,4,1,0,55,1,0
58938,-100,4,1,0,65,0,1
96121,-100,4,1,0,55,0,0
99290,-100,4,1,0,5,0,0

[Colours]
Combo1 : 0,64,64
Combo2 : 255,0,255
Combo3 : 244,250,37
Combo4 : 0,191,255

[HitObjects]
116,144,1474,6,2,P|232:104|352:112,1,240
400,220,2741,1,0,0:0:0:0:
300,284,3164,2,0,P|224:300|176:284,1,120
136,180,4009,2,0,P|180:144|254:131,1,120
360,104,4854,6,2,P|408:200|312:284,1,240
276,172,6121,1,0,0:0:0:0:
196,80,6544,6,0,P|276:52|327:63,2,120
276,172,7812,1,0,0:0:0:0:
388,124,8234,5,2,0:0:0:0:
360,232,8657,2,0,P|320:276|240:272,2,120
248,184,9924,5,0,0:0:0:0:
132,156,10347,2,2,P|192:84|236:72,1,120
332,48,11192,1,0,0:0:0:0:
404,144,11614,5,2,0:0:0:0:
320,232,12037,2,0,P|280:264|192:248,1,120
115,192,12882,1,0,0:0:0:0:
115,192,13093,1,0,0:0:0:0:
115,192,13304,2,0,L|183:146,1,60
222,142,13727,2,0,L|303:140,1,60
294,199,14150,2,0,L|413:206,1,120,2|0,0:0|0:0,0:0:0:0:
379,91,14995,5,0,0:0:0:0:
261,68,15417,2,0,P|201:68|153:124,2,120
253,187,16685,1,2,0:0:0:0:
369,214,17107,2,0,P|421:202|445:182,1,60
472,160,17530,1,0,0:0:0:0:
368,99,17952,1,0,0:0:0:0:
263,157,18375,6,2,P|171:189|135:177,1,120
130,128,19009,1,0,0:0:0:0:
207,44,19431,2,0,P|255:40|291:36,1,60
316,76,19854,1,0,0:0:0:0:
344,128,20065,6,0,P|372:172|356:244,1,120,2|0,0:0|0:0,0:0:0:0:
256,296,20910,2,0,P|216:252|208:176,1,120,2|0,0:0|0:0,0:0:0:0:
232,100,21755,5,2,0:0:0:0:
352,120,22178,2,0,P|328:184|328:192,1,60
311,231,22600,1,0,0:0:0:0:
217,306,23023,1,0,0:0:0:0:
97,303,23445,5,2,0:0:0:0:
127,186,23868,2,0,P|163:138|347:118,1,240
381,140,24924,1,0,0:0:0:0:
417,187,25135,5,2,0:0:0:0:
319,257,25558,2,0,L|268:298,1,60
190,206,26192,2,0,P|214:174|242:134,2,60
187,266,26826,6,2,P|219:330|203:378,1,120
98,319,27671,2,0,P|74:267|70:187,1,120,2|0,0:0|0:0,0:0:0:0:
163,132,28516,5,2,0:0:0:0:
281,114,28938,2,0,P|281:182|233:218,2,120
160,115,30206,5,2,0:0:0:0:
40,107,30628,2,0,P|60:51|112:7,1,120
224,17,31474,1,0,0:0:0:0:
333,66,31896,5,2,0:0:0:0:
316,185,32319,1,0,0:0:0:0:
301,243,32530,2,0,L|224:254,1,60
182,258,32952,2,0,P|102:230|86:182,1,120
73,145,33586,6,4,P|129:101|201:105,1,120,4|0,0:0|0:0,0:0:0:0:
292,125,34431,2,0,P|340:121|412:165,1,120,4|0,0:0|0:0,0:0:0:0:
317,237,35276,5,2,0:0:0:0:
196,232,35699,2,0,P|224:180|248:168,1,60
255,130,36121,1,0,0:0:0:0:
370,98,36544,2,0,P|402:146|402:162,1,60
423,202,36966,1,2,0:0:0:0:
368,308,37389,6,2,P|288:303|263:264,1,120
216,168,38234,2,0,P|256:156|292:156,1,60
332,156,38657,6,2,P|420:196|480:324,1,240
420,332,39713,2,0,L|340:332,2,60
422,271,40347,5,0,0:0:0:0:
330,193,40769,1,0,0:0:0:0:
214,161,41192,1,0,0:0:0:0:
108,218,41614,2,0,L|132:274,1,60
169,320,42037,6,2,P|261:348|364:331,1,180
402,330,42882,1,0,0:0:0:0:
388,271,43093,1,0,0:0:0:0:
380,211,43304,2,0,P|420:195|460:175,1,60
488,160,43727,2,0,P|493:100|469:46,1,120,0|0,3:0|3:0,3:0:0:0:
368,108,44572,2,0,P|328:40|328:-12,1,120
208,20,45417,6,0,P|226:75|223:156,1,120
224,196,46051,1,0,0:0:0:0:
332,140,46474,2,0,L|380:188,2,60
308,84,47107,6,0,P|412:84|444:108,3,120,0|0|0|0,3:0|3:0|3:0|3:0,3:0:0:0:
328,164,48797,5,2,0:0:0:0:
208,148,49220,1,0,0:0:0:0:
220,206,49431,2,0,L|148:214,2,60
234,264,50065,2,0,L|254:328,1,60
309,304,50488,5,2,0:0:0:0:
421,263,50910,1,0,0:0:0:0:
358,160,51333,1,0,0:0:0:0:
324,110,51544,2,0,P|276:54|224:22,1,120
177,22,52178,5,2,0:0:0:0:
148,138,52600,1,0,0:0:0:0:
148,138,52812,2,0,L|148:210,1,60
248,263,53445,2,0,L|248:339,2,60
249,202,54079,1,0,0:0:0:0:
308,204,54290,1,0,0:0:0:0:
368,204,54502,2,0,L|368:140,2,60
369,263,55135,1,0,0:0:0:0:
323,302,55347,1,0,0:0:0:0:
272,269,55558,6,2,P|248:205|272:149,1,120
222,115,56192,2,0,P|256:96|284:83,1,60
332,69,56614,1,0,0:0:0:0:
388,90,56826,2,0,L|448:138,1,60
120,192,58938,6,0,P|144:160|180:136,1,60
212,120,59361,1,8,0:0:0:0:
271,110,59572,1,0,0:0:0:0:
329,113,59783,1,0,0:0:0:0:
386,130,59995,2,0,L|406:190,1,60
351,213,60417,2,0,L|375:277,1,60
388,327,60840,1,0,0:0:0:0:
388,327,61051,1,0,0:0:0:0:
268,317,61474,1,0,0:0:0:0:
222,206,61896,1,0,0:0:0:0:
148,110,62319,6,0,L|148:182,1,60
142,289,62952,1,0,0:0:0:0:
202,287,63164,2,0,L|206:207,2,60
261,285,63797,1,0,0:0:0:0:
369,234,64220,6,2,P|429:186|449:142,2,120,2|10|2,0:0|0:0|0:0,0:0:0:0:
318,202,65276,1,8,0:0:0:0:
204,160,65699,6,2,P|180:228|184:284,1,120,2|10,0:0|0:0,0:0:0:0:
196,333,66333,1,0,0:0:0:0:
254,320,66544,1,0,0:0:0:0:
312,305,66755,2,0,L|304:217,2,60,0|8|0,0:0|0:0|0:0,0:0:0:0:
371,293,67389,2,0,P|443:201|439:121,1,180
428,83,68234,2,0,L|363:105,1,60
314,121,68657,5,10,0:0:0:0:
232,33,69079,1,0,0:0:0:0:
112,40,69502,2,0,P|80:56|28:144,1,120,8|0,0:0|0:0,0:0:0:0:
129,193,70347,2,0,L|181:149,1,60,8|0,0:0|0:0,0:0:0:0:
217,112,70769,1,0,0:0:0:0:
325,164,71192,1,8,0:0:0:0:
315,283,71614,1,0,0:0:0:0:
211,221,72037,1,8,0:0:0:0:
315,162,72459,6,2,P|315:98|411:38,1,180
434,154,73516,2,0,L|482:198,1,60,0|8,0:0|0:0,0:0:0:0:
493,252,73938,2,0,P|441:284|313:240,1,180
244,340,74995,1,0,0:0:0:0:
160,252,75417,1,8,0:0:0:0:
87,156,75840,6,0,L|168:131,1,60
200,116,76262,1,0,0:0:0:0:
257,98,76474,1,0,0:0:0:0:
315,85,76685,1,0,0:0:0:0:
374,91,76896,2,0,L|436:132,1,60
409,182,77319,2,0,L|373:258,1,60,0|8,0:0|0:0,0:0:0:0:
357,290,77741,2,0,L|288:258,1,60
204,194,78375,1,0,0:0:0:0:
281,102,78797,1,8,0:0:0:0:
168,68,79220,6,2,P|104:68|64:108,1,120
80,164,79854,2,0,L|120:232,2,60
28,192,80488,1,0,0:0:0:0:
52,308,80910,5,2,0:0:0:0:
172,304,81333,2,0,L|216:260,1,60,8|0,0:0|0:0,0:0:0:0:
272,280,81755,2,0,P|320:232|328:224,2,60,0|0|8,0:0|0:0|0:0,0:0:0:0:
288,160,82600,5,2,0:0:0:0:
172,188,83023,1,8,0:0:0:0:
140,300,83445,1,0,0:0:0:0:
256,264,83868,1,8,0:0:0:0:
336,176,84290,6,2,P|384:240|368:292,2,120
240,104,85558,1,8,0:0:0:0:
124,140,85981,5,6,0:0:0:0:
164,252,86403,1,10,0:0:0:0:
264,188,86826,1,6,0:0:0:0:
300,304,87248,1,10,0:0:0:0:
388,224,87671,5,0,0:0:0:0:
440,116,88093,2,0,P|356:128|304:116,1,120,8|0,0:0|0:0,0:0:0:0:
388,224,88938,1,8,0:0:0:0:
268,208,89361,6,0,L|208:236,1,60,6|0,0:0|0:0,0:0:0:0:
220,172,89783,2,0,L|160:200,1,60,10|0,0:0|0:0,0:0:0:0:
180,140,90206,2,0,L|120:168,1,60,2|0,0:0|0:0,0:0:0:0:
136,108,90628,2,0,L|76:136,1,60,10|0,0:0|0:0,0:0:0:0:
52,184,91051,6,0,P|64:252|112:292,1,120
212,332,91896,2,0,P|260:344|324:304,1,120
396,220,92741,2,0,P|460:236|528:196,1,120
440,120,93586,2,0,B|424:72|388:20|336:4,1,150
256,20,94431,5,2,0:0:0:0:
232,136,94854,2,6,P|296:200|335:203,1,120,14|6,0:0|0:0,0:0:0:0:
440,196,95699,2,2,L|509:168,1,60,10|2,0:0|0:0,0:0:0:0:
256,192,96121,12,0,99502,0:0:0:0:
