osu file format v14

[General]
AudioFilename: audio.mp3
AudioLeadIn: 0
PreviewTime: 58304
Countdown: 0
SampleSet: Normal
StackLeniency: 0.7
Mode: 0
LetterboxInBreaks: 0
WidescreenStoryboard: 0

[Editor]
DistanceSpacing: 1.4
BeatDivisor: 4
GridSize: 4
TimelineZoom: 1

[Metadata]
Title:Blooming Lily (Short Ver.)
TitleUnicode:Blooming Lily (Short Ver.)
Artist:Sawamura Spencer Eriri (CV.Oonishi Saori)
ArtistUnicode:澤村・スペンサー・英梨々 (CV.大西沙織)
Creator:gundammango
Version:Insane
Source:冴えない彼女の育てかた
Tags:Saenai Saenai Heroine no Sodatekata Insert song Cut Version Saekano Character Song
BeatmapID:1005993
BeatmapSetID:470523

[Difficulty]
HPDrainRate:7
CircleSize:4
OverallDifficulty:8
ApproachRate:9
SliderMultiplier:1.8
SliderTickRate:2

[Events]
//Background and Video events
0,0,"bg.jpg",0,0
//Break Periods
//Storyboard Layer 0 (Background)
//Storyboard Layer 1 (Fail)
//Storyboard Layer 2 (Pass)
//Storyboard Layer 3 (Foreground)
//Storyboard Sound Samples

[TimingPoints]
1474,422.535211267606,4,1,1,55,1,0
1474,-100,4,1,1,55,0,0
14995,-100,4,1,1,60,0,0
52178,-100,4,1,1,65,0,0
55558,-100,4,1,1,70,0,0
58938,-100,4,1,1,80,0,1
84290,-100,4,1,1,65,0,0
94431,-100,4,1,1,45,0,0
96121,-100,4,1,1,25,0,0
99290,-100,4,1,1,5,0,0

[Colours]
Combo1 : 0,64,64
Combo2 : 255,0,255
Combo3 : 244,250,37
Combo4 : 0,191,255

[HitObjects]
357,52,1474,5,4,0:0:0:0:
397,227,1896,2,0,P|377:315|353:331,1,90,8|0,0:0|0:0,0:0:0:0:
304,263,2319,1,4,0:0:0:0:
237,95,2741,2,0,B|197:72|197:72|151:71,1,90,8|0,0:0|0:0,0:0:0:0:
62,70,3164,5,4,0:0:0:0:
46,166,3375,1,0,0:0:0:0:
126,278,3586,1,8,0:0:0:0:
142,182,3797,1,0,0:0:0:0:
254,102,4009,1,4,0:0:0:0:
238,198,4220,1,0,0:0:0:0:
318,310,4431,1,8,0:0:0:0:
334,214,4643,1,0,0:0:0:0:
381,137,4854,6,0,P|420:108|501:109,1,90
454,189,5276,2,0,B|449:229|449:229|406:289,1,90,8|0,0:0|0:0,0:0:0:0:
344,219,5699,2,0,B|288:215|288:215|252:191,1,90
226,112,6121,2,0,P|170:164|166:196,1,90,8|0,0:0|0:0,0:0:0:0:
154,263,6544,5,4,0:0:0:0:
243,267,6755,2,0,P|301:269|335:283,1,90,0|8,0:0|0:0,0:0:0:0:
346,191,7178,2,0,P|321:137|336:92,1,90
407,70,7600,1,0,0:0:0:0:
407,70,7812,1,8,0:0:0:0:
407,70,8023,1,0,0:0:0:0:
407,70,8234,6,0,P|439:150|423:182,1,90
348,149,8657,2,0,P|268:197|240:197,1,90,8|0,0:0|0:0,0:0:0:0:
185,210,9079,1,0,0:0:0:0:
154,125,9290,1,0,0:0:0:0:
208,52,9502,1,0,0:0:0:0:
208,52,9713,2,0,L|242:109,1,45
253,129,9924,5,4,0:0:0:0:
134,222,10135,1,0,0:0:0:0:
254,237,10347,1,8,0:0:0:0:
135,330,10558,1,0,0:0:0:0:
47,351,10769,6,0,P|42:270|53:229,1,90,4|0,0:0|0:0,0:0:0:0:
79,179,11192,1,8,0:0:0:0:
135,248,11403,1,2,0:0:0:0:
135,248,11509,1,0,0:0:0:0:
135,248,11614,5,4,0:0:0:0:
218,283,11826,1,0,0:0:0:0:
239,370,12037,2,0,P|303:338|295:234,1,180,8|0,0:0|0:0,0:0:0:0:
239,172,12671,1,0,0:0:0:0:
161,217,12882,2,0,P|145:169|161:121,1,90,8|0,0:0|0:0,0:0:0:0:
231,86,13304,6,0,L|291:74,1,45,2|0,0:0|0:0,0:0:0:0:
320,69,13516,1,0,0:0:0:0:
365,146,13727,1,8,0:0:0:0:
414,220,13938,2,0,P|354:238|300:207,1,90
225,303,14361,1,2,0:0:0:0:
225,303,14466,1,0,0:0:0:0:
225,303,14572,1,0,0:0:0:0:
334,239,14783,1,0,0:0:0:0:
306,115,14995,5,4,0:0:0:0:
184,82,15206,1,0,0:0:0:0:
120,190,15417,2,0,P|132:234|256:266,1,180
341,184,16051,2,0,P|389:168|437:200,1,90,0|8,0:0|0:0,0:0:0:0:
375,299,16474,1,0,0:0:0:0:
249,297,16685,6,0,P|240:230|212:196,1,90,4|0,0:0|0:0,0:0:0:0:
102,213,17107,2,0,P|82:253|81:297,1,90
199,251,17530,2,0,P|271:199|287:99,1,180,4|0,0:0|0:0,0:0:0:0:
170,72,18164,1,0,0:0:0:0:
37,103,18375,6,0,L|40:192,1,90,2|0,0:0|0:0,0:0:0:0:
34,318,18797,2,0,B|68:349|68:349|113:343,1,90
151,223,19220,2,0,P|255:199|339:231,1,180
358,99,19854,1,0,0:0:0:0:
454,179,20065,6,0,P|446:263|418:299,1,90,4|0,0:0|0:0,0:0:0:0:
332,207,20488,2,0,P|268:207|216:231,1,90,8|0,0:0|0:0,0:0:0:0:
196,331,20910,1,0,0:0:0:0:
196,331,21016,1,0,0:0:0:0:
196,331,21121,1,0,0:0:0:0:
103,244,21333,1,0,0:0:0:0:
103,244,21438,1,0,0:0:0:0:
103,244,21544,1,0,0:0:0:0:
189,152,21755,5,2,0:0:0:0:
416,76,22178,1,0,0:0:0:0:
412,96,22389,2,0,P|404:188|460:272,1,180
333,316,23023,2,0,P|298:344|255:355,1,90
246,229,23445,6,0,P|182:221|150:229,1,90,2|0,0:0|0:0,0:0:0:0:
31,235,23868,1,0,0:0:0:0:
35,109,24079,2,0,P|84:105|131:157,1,90
140,154,24396,1,0,0:0:0:0:
164,180,24502,1,0,0:0:0:0:
277,124,24713,1,0,0:0:0:0:
360,218,24924,1,0,0:0:0:0:
234,229,25135,6,0,P|138:193|58:233,1,180,2|0,0:0|0:0,0:0:0:0:
134,329,25769,1,0,0:0:0:0:
261,349,25981,2,0,P|355:329|364:320,1,90,4|0,0:0|0:0,0:0:0:0:
402,289,26403,1,2,0:0:0:0:
417,256,26508,1,0,0:0:0:0:
432,223,26614,1,0,0:0:0:0:
447,190,26720,1,0,0:0:0:0:
462,157,26826,1,4,0:0:0:0:
347,105,27037,1,4,0:0:0:0:
224,75,27248,6,0,P|223:115|248:159,1,90,4|0,0:0|0:0,0:0:0:0:
340,242,27671,1,2,0:0:0:0:
340,242,27776,1,0,0:0:0:0:
340,242,27882,1,0,0:0:0:0:
240,318,28093,2,0,P|181:295|149:262,1,90,4|0,0:0|0:0,0:0:0:0:
140,153,28516,5,2,0:0:0:0:
238,74,28727,1,0,0:0:0:0:
363,68,28938,2,0,P|359:172|307:244,1,180
210,298,29572,1,0,0:0:0:0:
84,303,29783,2,0,P|36:235|41:205,1,90
160,208,30206,6,0,P|192:196|257:197,1,90,2|0,0:0|0:0,0:0:0:0:
382,213,30628,1,0,0:0:0:0:
368,338,30840,2,0,P|324:335|283:306,1,90
298,184,31262,2,0,B|244:200|244:200|195:188,1,90
125,98,31685,1,0,0:0:0:0:
125,98,31790,1,0,0:0:0:0:
125,98,31896,5,2,0:0:0:0:
228,149,32107,2,0,P|287:165|336:213,1,90
395,274,32530,1,0,0:0:0:0:
269,270,32741,1,0,0:0:0:0:
179,358,32952,2,0,P|119:322|131:218,1,180
132,96,33586,5,4,0:0:0:0:
284,72,33797,1,0,0:0:0:0:
216,228,34009,1,4,0:0:0:0:
60,168,34220,1,0,0:0:0:0:
320,168,34431,1,4,0:0:0:0:
320,168,34537,1,0,0:0:0:0:
320,168,34643,1,0,0:0:0:0:
144,236,34854,1,4,0:0:0:0:
231,145,35065,1,0,0:0:0:0:
108,112,35276,5,2,0:0:0:0:
224,232,35488,2,0,P|296:252|320:256,2,90
336,176,36121,2,0,P|360:232|324:340,1,180,2|0,0:0|0:0,0:0:0:0:
240,244,36755,1,0,0:0:0:0:
176,128,36966,5,2,0:0:0:0:
104,232,37178,2,0,P|136:280|168:296,2,90
224,200,37812,2,0,P|272:172|288:120,1,90
348,80,38234,1,0,0:0:0:0:
436,76,38445,1,0,0:0:0:0:
440,156,38657,6,0,P|424:260|268:328,1,270,2|0,0:0|0:0,0:0:0:0:
256,64,39713,1,0,0:0:0:0:
135,101,39924,1,0,0:0:0:0:
222,191,40135,1,0,0:0:0:0:
400,144,40347,6,0,P|406:188|389:236,1,90,2|0,0:0|0:0,0:0:0:0:
322,335,40769,1,0,0:0:0:0:
187,227,40981,1,0,0:0:0:0:
320,168,41192,1,0,0:0:0:0:
200,312,41403,1,0,0:0:0:0:
200,312,41509,1,0,0:0:0:0:
200,312,41614,1,0,0:0:0:0:
322,280,41826,1,0,0:0:0:0:
357,170,42037,6,0,P|281:102|177:102,1,180,2|0,0:0|0:0,0:0:0:0:
81,109,42671,1,0,0:0:0:0:
101,233,42882,1,4,0:0:0:0:
215,286,43093,2,0,B|311:282|311:282|375:222,1,180,8|8,0:0|0:0,0:0:0:0:
298,122,43727,5,4,2:0:0:0:
54,186,44150,1,8,2:0:0:0:
145,272,44361,1,0,0:0:0:0:
145,272,44466,1,0,0:0:0:0:
145,272,44572,2,0,L|223:203,1,90,4|0,2:0|2:0,2:0:0:0:
302,123,44995,1,8,2:0:0:0:
175,76,45417,6,0,P|140:48|95:43,1,90
93,169,45840,2,0,P|63:215|62:253,1,90
189,242,46262,2,0,P|234:272|272:273,1,90,8|0,0:0|0:0,0:0:0:0:
380,216,46685,1,2,0:0:0:0:
388,212,46790,1,0,0:0:0:0:
396,208,46896,1,0,0:0:0:0:
502,141,47107,5,2,3:0:0:0:
249,136,47530,2,0,P|234:180|241:224,1,90,8|0,3:0|3:0,3:0:0:0:
390,73,48375,2,0,P|446:73|486:105,1,90,4|0,0:0|0:0,0:0:0:0:
408,197,48797,6,0,P|376:261|392:309,1,90,2|0,0:0|0:0,0:0:0:0:
377,276,49220,1,0,0:0:0:0:
251,274,49431,1,0,0:0:0:0:
239,148,49643,2,0,P|287:100|335:100,1,90
351,213,50065,2,0,P|386:253|407:293,1,90
196,216,50488,5,2,0:0:0:0:
200,29,50699,1,0,0:0:0:0:
90,180,50910,1,4,0:0:0:0:
267,122,51121,1,0,0:0:0:0:
90,64,51333,1,4,0:0:0:0:
176,155,51544,2,0,P|236:151|260:135,1,90
376,87,51966,1,4,0:0:0:0:
412,208,52178,6,0,P|404:264|376:305,2,90
290,242,52812,2,0,B|237:245|237:245|195:270,1,90
95,325,53234,1,0,0:0:0:0:
70,201,53445,2,0,B|118:187|118:187|151:145,1,90,4|0,0:0|0:0,0:0:0:0:
193,39,53868,2,0,L|245:54,1,45,2|0,0:0|0:0,0:0:0:0:
295,72,54079,1,0,0:0:0:0:
197,151,54290,2,0,P|234:190|293:199,1,90
390,171,54713,2,0,P|398:223|374:263,1,90
273,320,55136,1,2,0:0:0:0:
273,320,55242,1,0,0:0:0:0:
273,320,55347,1,0,0:0:0:0:
273,320,55558,6,0,P|197:273|108:278,1,180,4|0,0:0|0:0,0:0:0:0:
129,153,56192,1,0,0:0:0:0:
254,150,56403,2,0,P|298:145|338:125,1,90,4|0,0:0|0:0,0:0:0:0:
452,70,56826,1,0,0:0:0:0:
428,193,57037,1,0,0:0:0:0:
345,288,57248,6,0,L|243:289,1,90,4|0,0:0|0:0,0:0:0:0:
128,293,57671,1,2,0:0:0:0:
128,293,57776,1,0,0:0:0:0:
128,293,57882,1,0,0:0:0:0:
160,171,58093,6,0,P|187:135|227:113,1,90,4|0,0:0|0:0,0:0:0:0:
276,229,58516,2,0,P|352:225|364:217,1,90,4|0,0:0|0:0,0:0:0:0:
452,132,58938,6,0,P|488:176|488:236,1,90,2|0,0:0|0:0,0:0:0:0:
485,351,59361,1,8,0:0:0:0:
341,354,59572,2,0,P|325:298|337:258,1,90
379,131,59995,1,0,0:0:0:0:
269,37,60206,1,8,0:0:0:0:
146,112,60417,1,0,0:0:0:0:
165,254,60628,6,0,P|229:222|245:174,1,90,2|0,0:0|0:0,0:0:0:0:
333,101,61051,2,0,B|373:71|373:71|448:92,1,90,8|0,0:0|0:0,0:0:0:0:
414,226,61474,1,2,0:0:0:0:
291,301,61685,1,0,0:0:0:0:
154,256,61896,2,0,P|161:309|158:364,1,90,8|0,0:0|0:0,0:0:0:0:
61,240,62319,5,2,0:0:0:0:
78,97,62530,1,0,0:0:0:0:
221,94,62741,2,0,P|277:86|317:106,1,90,8|0,0:0|0:0,0:0:0:0:
258,234,63164,1,2,0:0:0:0:
118,267,63375,1,0,0:0:0:0:
185,140,63586,1,8,0:0:0:0:
227,277,63797,1,0,0:0:0:0:
350,202,64009,6,0,P|398:180|446:195,1,90,2|0,0:0|0:0,0:0:0:0:
399,326,64431,2,0,P|358:344|315:337,1,90,8|0,0:0|0:0,0:0:0:0:
186,271,64854,1,2,0:0:0:0:
130,138,65065,1,0,0:0:0:0:
271,113,65276,1,8,0:0:0:0:
324,247,65488,1,0,0:0:0:0:
186,271,65699,6,0,B|140:268|140:268|103:243,1,90,2|0,0:0|0:0,0:0:0:0:
210,147,66121,2,0,B|258:119|258:119|306:131,1,90,8|0,0:0|0:0,0:0:0:0:
433,155,66544,1,2,0:0:0:0:
391,292,66755,1,0,0:0:0:0:
257,239,66966,2,0,P|237:279|241:323,1,90,8|0,0:0|0:0,0:0:0:0:
351,230,67389,6,0,P|395:242|447:226,1,90,2|0,0:0|0:0,0:0:0:0:
388,95,67812,1,8,0:0:0:0:
244,90,68023,1,2,0:0:0:0:
244,90,68128,1,0,0:0:0:0:
244,90,68234,1,0,0:0:0:0:
124,169,68445,1,0,0:0:0:0:
124,169,68657,2,0,L|160:261,1,90,8|0,0:0|0:0,0:0:0:0:
274,334,69079,6,0,P|338:330|367:309,1,90,2|0,0:0|0:0,0:0:0:0:
284,193,69502,2,0,L|265:145,1,45,8|0,0:0|0:0,0:0:0:0:
251,104,69713,1,0,0:0:0:0:
117,158,69924,2,0,P|97:94|117:58,1,90,2|0,0:0|0:0,0:0:0:0:
240,27,70347,1,8,0:0:0:0:
363,99,70558,1,0,0:0:0:0:
416,232,70769,6,0,P|372:248|320:232,1,90,2|0,0:0|0:0,0:0:0:0:
191,199,71192,1,8,0:0:0:0:
115,76,71403,1,0,0:0:0:0:
115,76,71509,1,0,0:0:0:0:
115,76,71614,1,2,0:0:0:0:
161,212,71826,1,0,0:0:0:0:
285,283,72037,1,0,0:0:0:0:
422,239,72248,1,0,0:0:0:0:
446,97,72459,6,0,L|438:5,1,90,4|0,0:0|0:0,0:0:0:0:
304,62,72882,1,8,0:0:0:0:
171,117,73093,1,0,0:0:0:0:
66,216,73304,2,0,P|122:252|162:256,1,90,2|0,0:0|0:0,0:0:0:0:
278,308,73727,2,0,P|291:264|282:197,1,90,8|0,0:0|0:0,0:0:0:0:
174,131,74150,5,4,0:0:0:0:
88,246,74361,1,0,0:0:0:0:
252,304,74572,1,12,0:0:0:0:
272,136,74783,1,0,0:0:0:0:
272,136,74889,1,0,0:0:0:0:
272,136,74995,1,2,0:0:0:0:
141,277,75206,1,0,0:0:0:0:
65,154,75417,1,8,0:0:0:0:
208,163,75628,1,0,0:0:0:0:
298,50,75840,6,0,P|358:66|394:106,1,90,2|0,0:0|0:0,0:0:0:0:
411,147,76157,1,0,0:0:0:0:
411,147,76262,2,0,L|426:215,1,45,8|0,0:0|0:0,0:0:0:0:
425,263,76474,2,0,P|369:251|345:223,1,90
224,154,76896,1,0,0:0:0:0:
121,53,77107,1,8,0:0:0:0:
96,195,77319,1,0,0:0:0:0:
192,301,77530,5,2,0:0:0:0:
278,185,77741,1,0,0:0:0:0:
242,45,77952,2,0,P|285:36|328:48,1,90,8|0,0:0|0:0,0:0:0:0:
397,78,78269,2,0,L|395:131,1,45
387,267,78586,1,0,0:0:0:0:
255,208,78797,1,8,0:0:0:0:
255,164,78903,1,0,0:0:0:0:
255,120,79009,1,0,0:0:0:0:
128,51,79220,6,0,P|84:51|40:75,1,90,2|0,0:0|0:0,0:0:0:0:
136,182,79643,1,8,0:0:0:0:
72,310,79854,2,0,P|160:330|240:286,1,180
313,167,80488,1,8,0:0:0:0:
197,80,80699,1,0,0:0:0:0:
57,45,80910,6,0,P|57:93|82:128,1,90,2|0,0:0|0:0,0:0:0:0:
219,164,81333,2,0,P|275:164|308:149,1,90,8|0,0:0|0:0,0:0:0:0:
365,110,81650,1,0,0:0:0:0:
366,38,81755,2,0,P|414:54|446:110,1,90,2|0,0:0|0:0,0:0:0:0:
431,227,82178,2,0,L|367:307,1,90,8|0,0:0|0:0,0:0:0:0:
342,157,82600,6,0,L|245:157,1,90
343,45,83023,2,0,L|242:45,1,90,8|0,0:0|0:0,0:0:0:0:
110,66,83445,2,0,L|109:164,1,90
111,300,83868,1,8,0:0:0:0:
254,305,84079,1,0,0:0:0:0:
286,183,84290,5,4,0:0:0:0:
215,78,84502,1,0,0:0:0:0:
135,175,84713,2,0,P|75:183|47:211,1,90,0|8,0:0|0:0,0:0:0:0:
144,288,85135,2,0,P|184:312|232:320,1,90
349,293,85558,1,0,0:0:0:0:
396,176,85769,1,0,0:0:0:0:
268,104,85981,5,4,0:0:0:0:
376,240,86192,1,0,0:0:0:0:
224,280,86403,1,4,0:0:0:0:
368,128,86614,1,0,0:0:0:0:
192,172,86826,1,0,0:0:0:0:
192,172,86931,1,0,0:0:0:0:
192,172,87037,1,4,0:0:0:0:
303,112,87248,1,0,0:0:0:0:
270,233,87459,1,0,0:0:0:0:
198,128,87671,6,0,P|146:160|130:188,1,90
247,233,88093,2,0,P|311:233|343:225,1,90,8|0,0:0|0:0,0:0:0:0:
411,125,88516,2,0,P|459:177|463:233,1,90
399,301,88938,2,0,P|371:277|363:221,1,90,8|0,0:0|0:0,0:0:0:0:
384,102,89361,5,2,0:0:0:0:
258,107,89572,1,0,0:0:0:0:
178,204,89783,2,0,P|234:232|298:216,1,90,10|0,0:0|0:0,0:0:0:0:
376,182,90206,2,0,P|384:138|368:82,1,90,2|0,0:0|0:0,0:0:0:0:
261,150,90628,1,0,0:0:0:0:
225,138,90734,1,0,0:0:0:0:
189,138,90840,1,8,0:0:0:0:
89,215,91051,6,0,L|177:231,1,90,2|0,0:0|0:0,0:0:0:0:
400,204,91474,2,0,L|312:228,1,90,4|0,0:0|0:0,0:0:0:0:
72,308,91896,6,0,L|160:328,1,90,2|0,0:0|0:0,0:0:0:0:
420,292,92319,2,0,L|328:320,1,90,4|0,0:0|0:0,0:0:0:0:
288,292,92741,5,2,0:0:0:0:
289,90,92952,1,0,0:0:0:0:
169,255,93164,1,2,0:0:0:0:
169,255,93269,1,0,0:0:0:0:
169,255,93375,1,0,0:0:0:0:
328,186,93586,1,2,0:0:0:0:
328,186,93692,1,0,0:0:0:0:
328,186,93797,1,0,0:0:0:0:
236,98,94009,1,4,0:0:0:0:
169,255,94220,1,0,0:0:0:0:
136,136,94431,6,0,P|200:80|324:72,1,180
256,176,95065,1,0,0:0:0:0:
348,248,95276,1,0,0:0:0:0:
424,152,95488,1,0,0:0:0:0:
308,40,95699,1,12,0:0:0:0:
152,216,95910,1,4,0:0:0:0:
256,192,96121,12,0,99502,0:0:0:0:
