osu file format v14

[General]
AudioFilename: audio.mp3
AudioLeadIn: 0
PreviewTime: 57829
Countdown: 0
SampleSet: Normal
StackLeniency: 0.7
Mode: 1
LetterboxInBreaks: 0
WidescreenStoryboard: 0

[Editor]
Bookmarks: 1209,14731,28252,41773,58674,72195,85717,97548,111069,124590,143181,170224,182055,195576,202336,222618,229379
DistanceSpacing: 0.8
BeatDivisor: 4
GridSize: 4
TimelineZoom: 1.2

[Metadata]
Title:Blooming Lily
TitleUnicode:Blooming Lily
Artist:Sawamura Spencer Eriri (CV: Oonishi Saori)
ArtistUnicode:澤村・スペンサー・英梨々 (CV:大西沙織)
Creator:Volta
Version:Muzukashii
Source:冴えない彼女の育てかた
Tags:冴えカノ saekano saenai kanojo heroine no sodate kata Nardoxyribonucleic
BeatmapID:1527448
BeatmapSetID:718081

[Difficulty]
HPDrainRate:5.5
CircleSize:5
OverallDifficulty:5
ApproachRate:5
SliderMultiplier:1.4
SliderTickRate:1

[Events]
//Background and Video events
0,0,"waifu.jpg",0,65
//Break Periods
//Storyboard Layer 0 (Background)
//Storyboard Layer 1 (Fail)
//Storyboard Layer 2 (Pass)
//Storyboard Layer 3 (Foreground)
//Storyboard Sound Samples

[TimingPoints]
1209.98872129817,422.535211267606,4,1,0,80,1,0
58674,-100,4,1,0,80,0,1
84026,-100,4,1,0,80,0,0
143181,-100,4,1,0,80,0,1
168533,-100,4,1,0,80,0,0
202336,-100,4,1,0,80,0,1
222618,-100,4,1,0,80,0,0
241209,-100,4,1,0,60,0,0
242055,-100,4,1,0,50,0,0
242900,-100,4,1,0,40,0,0
243745,-100,4,1,0,30,0,0
244590,-100,4,1,0,20,0,0

[HitObjects]
160,288,1209,5,4,0:0:0:0:
352,96,1632,1,8,0:0:0:0:
160,96,2055,1,0,0:0:0:0:
160,96,2266,1,0,0:0:0:0:
352,96,2477,1,8,0:0:0:0:
160,96,2900,1,0,0:0:0:0:
160,96,3322,1,0,0:0:0:0:
160,96,3533,1,8,0:0:0:0:
352,96,3745,1,0,0:0:0:0:
160,96,3956,1,0,0:0:0:0:
352,96,4167,1,8,0:0:0:0:
160,96,4590,1,0,0:0:0:0:
352,96,5012,1,8,0:0:0:0:
160,96,5435,1,0,0:0:0:0:
160,96,5646,1,0,0:0:0:0:
352,96,5857,1,8,0:0:0:0:
160,96,6280,1,0,0:0:0:0:
352,96,6702,1,8,0:0:0:0:
160,96,6914,1,0,0:0:0:0:
352,288,7125,1,12,0:0:0:0:
352,288,7548,1,12,0:0:0:0:
160,288,7970,1,4,0:0:0:0:
352,96,8393,1,8,0:0:0:0:
160,96,8816,1,0,0:0:0:0:
160,96,9027,1,0,0:0:0:0:
352,96,9238,1,8,0:0:0:0:
160,96,9660,1,0,0:0:0:0:
352,96,10083,1,0,0:0:0:0:
160,96,10294,5,8,0:0:0:0:
160,96,10505,1,0,0:0:0:0:
160,96,10717,1,0,0:0:0:0:
352,96,10928,1,8,0:0:0:0:
160,288,11350,5,4,0:0:0:0:
352,96,11773,1,8,0:0:0:0:
160,96,12195,1,0,0:0:0:0:
352,96,12407,1,8,0:0:0:0:
352,96,12618,1,8,0:0:0:0:
160,288,12829,5,4,0:0:0:0:
160,96,13252,1,0,0:0:0:0:
352,96,13463,1,8,0:0:0:0:
160,96,13674,1,0,0:0:0:0:
160,96,13886,1,0,0:0:0:0:
160,96,14097,5,8,0:0:0:0:
352,96,14202,1,8,0:0:0:0:
352,96,14308,1,8,0:0:0:0:
352,96,14519,1,8,0:0:0:0:
160,96,14731,5,4,0:0:0:0:
128,164,15364,1,0,0:0:0:0:
160,96,15787,1,0,0:0:0:0:
352,96,15998,1,8,0:0:0:0:
160,96,16421,1,0,0:0:0:0:
352,96,16843,1,8,0:0:0:0:
352,96,17055,1,8,0:0:0:0:
160,96,17477,1,0,0:0:0:0:
352,96,17688,1,8,0:0:0:0:
160,96,18111,1,0,0:0:0:0:
352,96,18533,1,8,0:0:0:0:
160,96,18745,1,0,0:0:0:0:
160,96,19167,1,0,0:0:0:0:
352,96,19379,1,8,0:0:0:0:
160,96,19801,1,0,0:0:0:0:
160,96,20435,1,0,0:0:0:0:
160,96,20857,1,0,0:0:0:0:
352,96,21069,1,8,0:0:0:0:
352,96,21491,1,0,0:0:0:0:
160,96,21914,1,8,0:0:0:0:
352,96,22125,1,8,0:0:0:0:
160,96,22548,1,0,0:0:0:0:
352,96,22759,1,8,0:0:0:0:
160,96,23181,1,0,0:0:0:0:
352,96,23604,1,8,0:0:0:0:
160,96,23815,1,0,0:0:0:0:
352,96,24449,1,8,0:0:0:0:
160,96,24660,1,0,0:0:0:0:
352,96,24871,1,8,0:0:0:0:
188,160,25294,1,0,0:0:0:0:
352,96,25505,5,8,0:0:0:0:
352,96,25928,1,8,0:0:0:0:
352,96,26139,1,0,0:0:0:0:
160,96,26350,1,0,0:0:0:0:
352,96,26562,5,8,0:0:0:0:
160,96,26984,1,0,0:0:0:0:
352,96,27195,1,8,0:0:0:0:
352,96,27407,1,8,0:0:0:0:
92,152,27618,1,0,0:0:0:0:
352,96,27829,1,8,0:0:0:0:
160,288,28252,1,4,0:0:0:0:
160,96,28886,1,0,0:0:0:0:
160,96,29308,1,0,0:0:0:0:
352,96,29519,1,8,0:0:0:0:
160,96,29942,1,0,0:0:0:0:
352,96,30364,1,8,0:0:0:0:
352,96,30576,1,8,0:0:0:0:
160,96,30998,1,0,0:0:0:0:
352,96,31209,1,8,0:0:0:0:
352,96,31632,1,0,0:0:0:0:
352,96,32054,1,8,0:0:0:0:
352,96,32266,1,8,0:0:0:0:
160,96,32688,1,0,0:0:0:0:
352,96,32900,1,8,0:0:0:0:
160,96,33322,1,0,0:0:0:0:
160,96,33956,1,0,0:0:0:0:
160,96,34378,1,0,0:0:0:0:
352,96,34590,1,8,0:0:0:0:
352,96,35012,1,8,0:0:0:0:
160,96,35435,1,0,0:0:0:0:
352,96,35646,1,8,0:0:0:0:
160,96,36069,1,8,0:0:0:0:
352,96,36280,1,8,0:0:0:0:
160,96,36702,1,0,0:0:0:0:
352,96,37125,1,8,0:0:0:0:
160,96,37336,1,0,0:0:0:0:
352,96,37970,1,8,0:0:0:0:
160,96,38181,1,0,0:0:0:0:
352,96,38393,1,8,0:0:0:0:
160,96,38815,1,0,0:0:0:0:
352,96,39026,1,8,0:0:0:0:
160,96,39449,1,0,0:0:0:0:
352,96,39660,1,8,0:0:0:0:
352,96,39871,1,8,0:0:0:0:
160,96,40083,1,0,0:0:0:0:
352,96,40505,1,8,0:0:0:0:
160,96,40928,1,0,0:0:0:0:
160,96,41139,1,0,0:0:0:0:
352,96,41350,1,8,0:0:0:0:
352,96,41562,1,8,0:0:0:0:
160,288,41773,1,4,0:0:0:0:
160,288,42407,1,4,0:0:0:0:
160,96,42829,1,0,0:0:0:0:
352,96,43040,1,8,0:0:0:0:
352,288,43252,1,12,0:0:0:0:
352,96,43886,1,8,0:0:0:0:
160,96,44308,1,0,0:0:0:0:
160,96,44519,1,0,0:0:0:0:
352,96,44731,1,8,0:0:0:0:
160,288,45153,1,4,0:0:0:0:
352,96,45576,1,8,0:0:0:0:
188,144,45998,1,0,0:0:0:0:
160,96,46209,1,0,0:0:0:0:
352,96,46421,1,8,0:0:0:0:
352,288,46632,1,12,0:0:0:0:
352,96,47266,1,8,0:0:0:0:
352,288,47477,1,12,0:0:0:0:
352,96,48111,1,8,0:0:0:0:
160,96,48322,1,8,0:0:0:0:
160,288,48533,1,4,0:0:0:0:
352,96,48956,1,8,0:0:0:0:
160,96,49379,1,0,0:0:0:0:
352,96,49590,1,0,0:0:0:0:
352,96,49801,1,8,0:0:0:0:
352,96,50012,1,8,0:0:0:0:
160,288,50224,1,4,0:0:0:0:
352,96,50646,1,8,0:0:0:0:
160,96,51069,1,0,0:0:0:0:
160,96,51280,1,0,0:0:0:0:
352,96,51491,1,8,0:0:0:0:
160,96,51702,1,0,0:0:0:0:
352,288,51914,1,12,0:0:0:0:
352,96,52336,1,8,0:0:0:0:
160,96,52548,1,0,0:0:0:0:
160,96,52759,1,0,0:0:0:0:
352,96,53181,1,8,0:0:0:0:
160,288,53393,1,4,0:0:0:0:
160,96,53815,1,0,0:0:0:0:
352,96,54026,1,8,0:0:0:0:
352,96,54238,1,8,0:0:0:0:
160,96,54449,1,0,0:0:0:0:
160,96,54660,1,0,0:0:0:0:
352,96,54871,1,8,0:0:0:0:
160,96,55083,1,0,0:0:0:0:
352,288,55294,1,12,0:0:0:0:
352,96,55928,1,8,0:0:0:0:
160,96,56139,1,0,0:0:0:0:
160,96,56562,1,0,0:0:0:0:
352,96,56773,1,8,0:0:0:0:
92,180,56984,1,0,0:0:0:0:
352,96,57195,5,8,0:0:0:0:
352,96,57407,1,8,0:0:0:0:
352,96,57829,1,8,0:0:0:0:
160,96,58040,5,0,0:0:0:0:
352,96,58252,1,0,0:0:0:0:
160,96,58357,1,0,0:0:0:0:
160,96,58463,1,0,0:0:0:0:
352,288,58674,1,12,0:0:0:0:
136,136,59097,1,8,0:0:0:0:
352,96,59308,1,0,0:0:0:0:
160,96,59519,1,8,0:0:0:0:
160,96,59731,1,0,0:0:0:0:
160,96,59836,1,0,0:0:0:0:
352,96,59942,1,0,0:0:0:0:
352,96,60153,1,8,0:0:0:0:
352,96,60576,1,8,0:0:0:0:
160,96,60787,1,8,0:0:0:0:
160,96,60998,1,0,0:0:0:0:
352,96,61209,1,8,0:0:0:0:
352,96,61632,1,8,0:0:0:0:
160,96,62055,1,0,0:0:0:0:
352,96,62477,1,8,0:0:0:0:
352,96,62688,1,8,0:0:0:0:
160,96,62900,1,0,0:0:0:0:
352,96,63111,1,8,0:0:0:0:
352,96,63217,1,8,0:0:0:0:
160,96,63322,1,8,0:0:0:0:
352,96,63533,1,0,0:0:0:0:
352,96,63956,1,0,0:0:0:0:
160,96,64167,1,8,0:0:0:0:
160,96,64379,1,0,0:0:0:0:
352,96,64590,1,8,0:0:0:0:
352,96,65012,1,8,0:0:0:0:
160,288,65435,1,4,0:0:0:0:
352,96,65857,1,8,0:0:0:0:
352,96,66069,1,8,0:0:0:0:
160,96,66280,1,0,0:0:0:0:
160,96,66491,1,0,0:0:0:0:
352,96,66597,1,0,0:0:0:0:
160,96,66702,1,0,0:0:0:0:
352,96,66914,1,8,0:0:0:0:
160,288,67125,1,4,0:0:0:0:
352,96,67548,1,8,0:0:0:0:
160,96,67759,1,0,0:0:0:0:
368,96,67864,1,0,0:0:0:0:
352,96,67970,1,0,0:0:0:0:
160,96,68181,1,8,0:0:0:0:
352,96,68393,1,0,0:0:0:0:
352,288,68815,1,12,0:0:0:0:
160,96,69449,1,8,0:0:0:0:
160,96,69660,1,0,0:0:0:0:
160,96,69871,1,0,0:0:0:0:
352,96,70083,1,8,0:0:0:0:
160,288,70294,1,4,0:0:0:0:
160,96,70717,1,0,0:0:0:0:
352,96,70928,1,8,0:0:0:0:
352,96,71139,1,8,0:0:0:0:
160,96,71350,1,0,0:0:0:0:
160,96,71562,1,8,0:0:0:0:
160,96,71667,1,8,0:0:0:0:
352,96,71773,1,8,0:0:0:0:
352,96,71984,1,8,0:0:0:0:
160,96,72195,1,4,0:0:0:0:
352,96,72618,1,8,0:0:0:0:
352,96,72829,1,8,0:0:0:0:
160,96,73040,1,0,0:0:0:0:
160,96,73252,1,8,0:0:0:0:
160,96,73357,1,8,0:0:0:0:
352,96,73463,1,8,0:0:0:0:
352,96,73674,1,0,0:0:0:0:
352,96,74097,1,8,0:0:0:0:
160,96,74308,1,0,0:0:0:0:
160,96,74519,1,0,0:0:0:0:
352,96,74730,1,8,0:0:0:0:
352,96,75153,1,8,0:0:0:0:
352,288,75576,1,4,0:0:0:0:
352,96,75998,1,8,0:0:0:0:
352,96,76209,1,0,0:0:0:0:
160,96,76421,1,8,0:0:0:0:
352,96,76632,1,8,0:0:0:0:
160,96,76738,1,8,0:0:0:0:
352,96,76843,1,8,0:0:0:0:
160,96,77054,1,0,0:0:0:0:
352,96,77266,1,12,0:0:0:0:
160,96,77688,1,8,0:0:0:0:
160,96,77900,1,0,0:0:0:0:
352,96,78111,1,8,0:0:0:0:
352,288,78533,1,12,0:0:0:0:
160,288,78956,1,4,0:0:0:0:
88,144,79167,1,8,0:0:0:0:
88,144,79379,1,0,0:0:0:0:
160,96,79590,1,0,0:0:0:0:
160,96,79695,1,0,0:0:0:0:
160,96,79801,1,0,0:0:0:0:
160,96,80012,1,8,0:0:0:0:
352,96,80224,1,8,0:0:0:0:
160,96,80435,1,0,0:0:0:0:
352,288,80646,1,12,0:0:0:0:
352,96,81280,1,0,0:0:0:0:
352,96,81491,1,0,0:0:0:0:
160,96,81702,1,8,0:0:0:0:
352,96,81914,1,0,0:0:0:0:
160,96,82019,1,0,0:0:0:0:
176,148,82125,1,0,0:0:0:0:
352,288,82336,1,12,0:0:0:0:
160,96,82548,1,0,0:0:0:0:
352,96,82759,1,8,0:0:0:0:
160,288,82970,1,4,0:0:0:0:
160,96,83393,1,0,0:0:0:0:
352,96,83604,1,8,0:0:0:0:
228,120,83815,1,0,0:0:0:0:
352,288,84026,1,12,0:0:0:0:
296,128,84871,1,0,0:0:0:0:
352,96,85294,1,8,0:0:0:0:
76,144,85717,1,0,0:0:0:0:
160,96,86139,1,0,0:0:0:0:
160,96,86350,1,8,0:0:0:0:
352,96,86562,1,0,0:0:0:0:
160,96,86773,1,0,0:0:0:0:
352,96,86984,1,8,0:0:0:0:
160,96,87407,1,0,0:0:0:0:
352,96,87829,1,8,0:0:0:0:
160,96,88252,1,0,0:0:0:0:
160,96,88463,1,0,0:0:0:0:
352,96,88674,1,8,0:0:0:0:
160,96,89097,1,0,0:0:0:0:
352,96,89519,1,8,0:0:0:0:
160,96,89731,1,0,0:0:0:0:
352,288,89942,1,12,0:0:0:0:
352,288,90365,1,12,0:0:0:0:
160,288,90787,1,4,0:0:0:0:
352,96,91210,1,8,0:0:0:0:
160,96,91633,1,0,0:0:0:0:
160,96,91844,1,0,0:0:0:0:
352,96,92055,1,8,0:0:0:0:
160,96,92477,1,0,0:0:0:0:
352,96,92900,1,0,0:0:0:0:
160,96,93111,5,8,0:0:0:0:
160,96,93322,1,0,0:0:0:0:
160,96,93534,1,0,0:0:0:0:
352,96,93745,1,8,0:0:0:0:
160,288,94167,5,4,0:0:0:0:
352,96,94590,1,8,0:0:0:0:
160,96,95012,5,0,0:0:0:0:
352,96,95224,1,8,0:0:0:0:
352,96,95435,1,8,0:0:0:0:
160,288,95646,5,4,0:0:0:0:
160,96,96069,5,0,0:0:0:0:
352,96,96280,1,8,0:0:0:0:
160,96,96491,1,0,0:0:0:0:
160,96,96703,1,0,0:0:0:0:
160,96,96914,5,8,0:0:0:0:
352,96,97019,1,8,0:0:0:0:
352,96,97125,1,8,0:0:0:0:
352,96,97336,1,8,0:0:0:0:
160,96,97548,5,4,0:0:0:0:
160,96,98393,1,0,0:0:0:0:
160,96,98815,1,0,0:0:0:0:
352,96,99238,1,8,0:0:0:0:
160,96,99660,1,0,0:0:0:0:
352,96,99871,1,8,0:0:0:0:
160,96,100083,1,0,0:0:0:0:
160,96,100505,5,0,0:0:0:0:
352,96,100928,1,8,0:0:0:0:
160,96,101350,1,8,0:0:0:0:
352,96,101562,1,8,0:0:0:0:
160,96,101773,1,0,0:0:0:0:
352,96,102195,1,0,0:0:0:0:
160,96,102618,1,8,0:0:0:0:
160,96,103463,1,8,0:0:0:0:
160,96,103886,1,8,0:0:0:0:
352,96,104308,1,0,0:0:0:0:
112,128,104731,1,0,0:0:0:0:
112,128,104942,1,8,0:0:0:0:
160,96,105153,1,0,0:0:0:0:
160,96,105576,1,0,0:0:0:0:
352,96,105998,5,8,0:0:0:0:
160,96,106421,1,8,0:0:0:0:
352,96,106632,1,8,0:0:0:0:
160,96,106843,1,0,0:0:0:0:
160,96,107266,1,0,0:0:0:0:
352,96,107688,1,8,0:0:0:0:
352,96,108533,1,8,0:0:0:0:
352,96,108956,1,0,0:0:0:0:
160,96,109167,1,8,0:0:0:0:
160,96,109379,1,0,0:0:0:0:
160,96,109801,1,0,0:0:0:0:
352,96,110012,1,8,0:0:0:0:
352,96,110224,1,8,0:0:0:0:
160,96,110435,1,0,0:0:0:0:
352,96,110646,1,8,0:0:0:0:
160,288,111069,1,4,0:0:0:0:
352,96,111491,1,8,0:0:0:0:
160,96,111914,1,0,0:0:0:0:
160,96,112125,1,0,0:0:0:0:
352,96,112336,1,8,0:0:0:0:
160,96,112759,1,0,0:0:0:0:
352,96,113181,1,8,0:0:0:0:
352,96,113393,1,8,0:0:0:0:
160,96,113604,1,0,0:0:0:0:
352,96,114026,1,8,0:0:0:0:
160,96,114238,1,0,0:0:0:0:
352,96,114449,1,8,0:0:0:0:
352,96,114871,1,8,0:0:0:0:
352,96,115083,1,8,0:0:0:0:
160,96,115294,1,0,0:0:0:0:
160,96,115505,1,0,0:0:0:0:
352,96,115717,1,8,0:0:0:0:
160,96,116139,1,0,0:0:0:0:
352,96,116562,1,8,0:0:0:0:
160,96,116984,1,0,0:0:0:0:
160,96,117195,1,0,0:0:0:0:
352,96,117407,1,8,0:0:0:0:
352,96,117829,1,8,0:0:0:0:
160,96,118252,1,8,0:0:0:0:
160,96,118674,1,0,0:0:0:0:
352,96,118886,1,0,0:0:0:0:
352,96,119097,1,8,0:0:0:0:
160,96,119519,1,0,0:0:0:0:
352,96,119942,1,8,0:0:0:0:
160,96,120153,1,8,0:0:0:0:
160,96,120364,1,0,0:0:0:0:
352,96,120787,1,8,0:0:0:0:
160,96,120998,1,0,0:0:0:0:
352,96,121210,1,8,0:0:0:0:
352,96,121632,1,0,0:0:0:0:
352,96,122055,1,8,0:0:0:0:
160,96,122266,1,0,0:0:0:0:
352,96,122477,1,8,0:0:0:0:
352,96,122688,1,8,0:0:0:0:
160,96,122900,1,0,0:0:0:0:
352,96,123322,1,8,0:0:0:0:
160,96,123745,1,0,0:0:0:0:
160,96,123956,1,0,0:0:0:0:
352,96,124167,1,8,0:0:0:0:
352,96,124379,1,8,0:0:0:0:
160,288,124590,1,4,0:0:0:0:
160,288,125224,1,4,0:0:0:0:
160,96,125646,1,0,0:0:0:0:
352,96,125857,1,8,0:0:0:0:
352,288,126069,1,12,0:0:0:0:
352,96,126703,1,8,0:0:0:0:
160,96,127125,1,0,0:0:0:0:
160,96,127336,1,0,0:0:0:0:
352,96,127548,1,8,0:0:0:0:
160,288,127970,1,4,0:0:0:0:
352,96,128393,1,8,0:0:0:0:
216,100,128815,1,0,0:0:0:0:
160,96,129026,1,0,0:0:0:0:
352,96,129238,1,8,0:0:0:0:
352,288,129449,1,12,0:0:0:0:
352,96,130083,1,8,0:0:0:0:
352,288,130294,1,12,0:0:0:0:
352,96,130928,1,8,0:0:0:0:
160,96,131139,1,8,0:0:0:0:
160,288,131350,1,4,0:0:0:0:
352,96,131773,1,8,0:0:0:0:
160,96,132196,1,0,0:0:0:0:
352,96,132407,1,0,0:0:0:0:
352,96,132618,1,8,0:0:0:0:
352,96,132829,1,8,0:0:0:0:
160,288,133041,1,4,0:0:0:0:
352,96,133463,1,8,0:0:0:0:
160,96,133886,1,0,0:0:0:0:
160,96,134097,1,0,0:0:0:0:
352,96,134308,1,8,0:0:0:0:
160,96,134519,1,0,0:0:0:0:
352,288,134731,1,12,0:0:0:0:
352,96,135153,1,8,0:0:0:0:
160,96,135365,1,0,0:0:0:0:
160,96,135576,1,0,0:0:0:0:
352,96,135998,1,8,0:0:0:0:
160,288,136210,1,4,0:0:0:0:
160,96,136632,1,0,0:0:0:0:
352,96,136843,1,8,0:0:0:0:
352,96,137055,1,8,0:0:0:0:
160,96,137266,1,0,0:0:0:0:
160,96,137477,1,0,0:0:0:0:
352,96,137688,1,8,0:0:0:0:
160,96,137900,1,0,0:0:0:0:
352,288,138111,1,12,0:0:0:0:
352,96,138745,5,8,0:0:0:0:
160,96,138956,1,0,0:0:0:0:
160,96,139379,1,0,0:0:0:0:
352,96,139590,1,8,0:0:0:0:
160,96,139801,5,0,0:0:0:0:
352,96,140012,1,8,0:0:0:0:
352,96,140224,1,8,0:0:0:0:
352,96,140646,1,8,0:0:0:0:
352,96,140857,1,8,0:0:0:0:
160,96,141069,1,0,0:0:0:0:
352,288,141280,1,12,0:0:0:0:
352,96,141702,1,8,0:0:0:0:
352,96,141914,1,8,0:0:0:0:
352,96,142336,1,8,0:0:0:0:
160,96,142548,1,0,0:0:0:0:
352,96,142759,1,8,0:0:0:0:
352,96,142864,1,8,0:0:0:0:
352,96,142970,1,8,0:0:0:0:
160,288,143181,1,4,0:0:0:0:
352,96,143604,1,8,0:0:0:0:
352,96,143815,1,8,0:0:0:0:
160,96,144026,1,0,0:0:0:0:
160,96,144238,1,0,0:0:0:0:
160,96,144343,1,0,0:0:0:0:
160,96,144449,1,0,0:0:0:0:
352,96,144660,1,8,0:0:0:0:
352,96,145083,1,8,0:0:0:0:
160,96,145294,1,0,0:0:0:0:
160,96,145505,1,0,0:0:0:0:
352,96,145716,1,8,0:0:0:0:
352,96,146139,1,8,0:0:0:0:
160,96,146562,1,0,0:0:0:0:
352,96,146984,1,8,0:0:0:0:
352,96,147195,1,0,0:0:0:0:
160,96,147407,1,8,0:0:0:0:
352,96,147618,1,8,0:0:0:0:
352,96,147724,1,8,0:0:0:0:
160,96,147829,1,8,0:0:0:0:
352,96,148040,1,0,0:0:0:0:
352,96,148463,1,0,0:0:0:0:
160,96,148674,1,8,0:0:0:0:
160,96,148886,1,0,0:0:0:0:
352,96,149097,1,8,0:0:0:0:
352,96,149519,1,8,0:0:0:0:
160,288,149942,1,4,0:0:0:0:
352,96,150364,1,8,0:0:0:0:
352,96,150576,1,8,0:0:0:0:
352,96,150787,1,0,0:0:0:0:
160,96,150998,1,8,0:0:0:0:
160,96,151104,1,8,0:0:0:0:
352,96,151209,1,8,0:0:0:0:
160,96,151421,1,0,0:0:0:0:
352,288,151632,1,12,0:0:0:0:
352,96,152055,1,8,0:0:0:0:
160,96,152266,1,0,0:0:0:0:
352,96,152371,1,0,0:0:0:0:
160,96,152477,1,0,0:0:0:0:
352,96,152688,1,8,0:0:0:0:
160,96,152900,1,0,0:0:0:0:
160,288,153322,1,4,0:0:0:0:
352,96,153956,1,8,0:0:0:0:
160,96,154167,1,0,0:0:0:0:
232,144,154379,1,0,0:0:0:0:
352,96,154590,1,8,0:0:0:0:
352,288,154801,1,12,0:0:0:0:
160,96,155224,1,0,0:0:0:0:
352,96,155435,1,8,0:0:0:0:
352,96,155646,1,8,0:0:0:0:
160,96,155857,1,0,0:0:0:0:
352,96,156069,1,8,0:0:0:0:
352,96,156174,1,8,0:0:0:0:
352,96,156280,1,8,0:0:0:0:
160,96,156491,1,0,0:0:0:0:
352,96,156702,1,12,0:0:0:0:
352,96,157125,1,8,0:0:0:0:
352,96,157336,1,0,0:0:0:0:
160,96,157547,1,8,0:0:0:0:
160,96,157759,1,0,0:0:0:0:
160,96,157864,1,0,0:0:0:0:
352,96,157970,1,0,0:0:0:0:
352,96,158181,1,8,0:0:0:0:
352,96,158604,1,8,0:0:0:0:
160,96,158815,1,8,0:0:0:0:
160,96,159026,1,0,0:0:0:0:
352,96,159237,1,8,0:0:0:0:
352,96,159660,1,8,0:0:0:0:
352,288,160083,1,4,0:0:0:0:
352,96,160505,1,8,0:0:0:0:
352,96,160716,1,0,0:0:0:0:
160,96,160928,1,8,0:0:0:0:
352,96,161139,1,8,0:0:0:0:
160,96,161245,1,8,0:0:0:0:
352,96,161350,1,8,0:0:0:0:
160,96,161561,1,0,0:0:0:0:
352,288,161773,1,12,0:0:0:0:
160,96,162195,1,0,0:0:0:0:
160,96,162407,1,0,0:0:0:0:
352,96,162618,1,8,0:0:0:0:
352,288,163040,1,12,0:0:0:0:
160,288,163463,1,4,0:0:0:0:
128,148,163674,1,0,0:0:0:0:
352,96,163886,1,8,0:0:0:0:
160,96,164097,1,0,0:0:0:0:
144,128,164202,1,0,0:0:0:0:
160,96,164308,1,0,0:0:0:0:
160,96,164519,1,8,0:0:0:0:
352,96,164731,1,8,0:0:0:0:
160,96,164942,1,0,0:0:0:0:
352,288,165153,1,12,0:0:0:0:
352,96,165787,1,0,0:0:0:0:
352,96,165998,1,0,0:0:0:0:
160,96,166209,1,8,0:0:0:0:
352,96,166421,1,0,0:0:0:0:
160,96,166526,1,0,0:0:0:0:
144,128,166632,1,0,0:0:0:0:
352,288,166843,1,12,0:0:0:0:
160,96,167055,1,0,0:0:0:0:
352,96,167266,1,8,0:0:0:0:
160,288,167477,1,4,0:0:0:0:
160,96,167900,1,0,0:0:0:0:
352,96,168111,1,8,0:0:0:0:
228,120,168322,5,0,0:0:0:0:
352,288,168533,1,8,0:0:0:0:
160,96,169379,1,0,0:0:0:0:
352,96,169801,1,0,0:0:0:0:
352,96,170012,1,0,0:0:0:0:
160,96,170224,1,8,0:0:0:0:
352,96,170646,1,8,0:0:0:0:
160,96,170857,1,0,0:0:0:0:
160,96,171280,1,0,0:0:0:0:
352,96,171491,1,8,0:0:0:0:
160,96,171702,1,0,0:0:0:0:
352,96,172125,1,0,0:0:0:0:
352,96,172336,1,8,0:0:0:0:
352,96,172548,1,8,0:0:0:0:
160,96,172759,1,0,0:0:0:0:
160,96,172970,1,0,0:0:0:0:
352,96,173181,1,8,0:0:0:0:
160,96,173604,1,0,0:0:0:0:
352,96,174026,1,8,0:0:0:0:
160,96,174238,1,0,0:0:0:0:
160,96,174660,1,0,0:0:0:0:
352,96,174871,1,8,0:0:0:0:
160,96,175083,1,0,0:0:0:0:
352,288,175294,1,12,0:0:0:0:
352,96,175717,1,0,0:0:0:0:
352,96,176139,1,8,0:0:0:0:
160,96,176350,1,0,0:0:0:0:
352,96,176562,1,8,0:0:0:0:
160,96,176773,1,0,0:0:0:0:
160,96,177195,1,0,0:0:0:0:
352,96,177407,1,8,0:0:0:0:
160,96,177618,1,8,0:0:0:0:
160,96,178040,1,0,0:0:0:0:
352,96,178252,1,8,0:0:0:0:
160,288,178674,1,4,0:0:0:0:
352,96,179097,1,8,0:0:0:0:
160,96,179519,1,0,0:0:0:0:
160,96,179731,1,0,0:0:0:0:
352,96,179942,1,8,0:0:0:0:
352,96,180153,1,8,0:0:0:0:
160,96,180576,1,0,0:0:0:0:
352,96,180787,1,8,0:0:0:0:
352,96,180998,1,0,0:0:0:0:
160,96,181421,1,8,0:0:0:0:
352,96,181526,1,8,0:0:0:0:
352,96,181632,1,8,0:0:0:0:
352,96,181843,1,8,0:0:0:0:
160,96,182055,1,4,0:0:0:0:
352,96,182688,1,0,0:0:0:0:
352,96,182900,1,8,0:0:0:0:
160,96,183111,1,0,0:0:0:0:
352,96,183322,1,8,0:0:0:0:
352,96,183533,1,8,0:0:0:0:
160,96,183745,1,0,0:0:0:0:
160,96,184167,1,8,0:0:0:0:
352,96,184590,1,0,0:0:0:0:
160,96,184801,1,0,0:0:0:0:
352,96,185012,1,8,0:0:0:0:
160,96,185224,1,0,0:0:0:0:
160,96,185646,1,0,0:0:0:0:
352,96,185857,1,8,0:0:0:0:
352,96,186280,1,8,0:0:0:0:
160,96,186491,1,0,0:0:0:0:
352,96,186702,1,8,0:0:0:0:
352,96,186914,1,8,0:0:0:0:
160,96,187336,1,0,0:0:0:0:
352,96,187548,1,8,0:0:0:0:
200,120,187653,1,8,0:0:0:0:
352,96,187759,1,8,0:0:0:0:
160,96,187970,1,0,0:0:0:0:
352,96,188393,1,8,0:0:0:0:
160,96,188604,1,0,0:0:0:0:
352,288,188815,1,12,0:0:0:0:
352,96,189238,1,8,0:0:0:0:
352,96,189449,1,8,0:0:0:0:
160,96,189871,1,0,0:0:0:0:
352,96,190083,1,8,0:0:0:0:
160,96,190294,1,0,0:0:0:0:
352,96,190505,1,0,0:0:0:0:
160,96,190928,1,8,0:0:0:0:
160,96,191350,1,0,0:0:0:0:
160,96,191562,1,0,0:0:0:0:
352,96,191773,1,8,0:0:0:0:
160,96,191984,1,0,0:0:0:0:
352,96,192195,5,8,0:0:0:0:
352,96,192618,1,8,0:0:0:0:
160,96,193040,1,0,0:0:0:0:
160,96,193252,1,0,0:0:0:0:
352,96,193463,1,8,0:0:0:0:
160,288,193674,5,4,0:0:0:0:
160,96,194097,1,0,0:0:0:0:
352,96,194308,1,8,0:0:0:0:
160,96,194519,1,0,0:0:0:0:
160,96,194731,1,0,0:0:0:0:
160,96,194942,1,8,0:0:0:0:
352,96,195048,1,8,0:0:0:0:
352,96,195153,1,8,0:0:0:0:
352,96,195364,1,8,0:0:0:0:
160,288,195576,5,4,0:0:0:0:
352,288,197055,1,12,0:0:0:0:
352,288,197477,1,12,0:0:0:0:
160,288,198956,1,4,0:0:0:0:
160,288,199801,1,4,0:0:0:0:
352,288,200435,1,12,0:0:0:0:
352,288,200857,1,12,0:0:0:0:
60,148,201069,1,0,0:0:0:0:
352,96,201280,1,8,0:0:0:0:
352,96,201386,1,8,0:0:0:0:
160,96,201491,1,8,0:0:0:0:
160,96,201702,1,0,0:0:0:0:
352,96,201914,1,8,0:0:0:0:
164,128,202125,1,0,0:0:0:0:
352,288,202336,1,12,0:0:0:0:
352,96,202758,1,8,0:0:0:0:
352,96,202970,1,8,0:0:0:0:
160,96,203181,1,0,0:0:0:0:
160,96,203392,1,8,0:0:0:0:
352,96,203498,1,8,0:0:0:0:
160,96,203603,1,8,0:0:0:0:
352,96,203815,1,0,0:0:0:0:
160,288,204026,1,12,0:0:0:0:
352,96,204449,1,8,0:0:0:0:
160,96,204660,1,0,0:0:0:0:
352,96,204766,1,0,0:0:0:0:
352,96,204871,1,0,0:0:0:0:
160,96,205083,1,8,0:0:0:0:
352,96,205294,1,0,0:0:0:0:
352,288,205716,1,12,0:0:0:0:
160,96,206350,1,0,0:0:0:0:
160,96,206561,1,8,0:0:0:0:
160,96,206772,1,8,0:0:0:0:
352,96,206984,1,0,0:0:0:0:
160,288,207195,1,12,0:0:0:0:
160,96,207618,1,0,0:0:0:0:
352,96,207829,1,8,0:0:0:0:
352,96,208040,1,8,0:0:0:0:
160,96,208251,1,0,0:0:0:0:
160,96,208463,1,8,0:0:0:0:
352,96,208569,1,8,0:0:0:0:
352,96,208674,1,8,0:0:0:0:
160,96,208886,1,0,0:0:0:0:
160,96,209097,1,4,0:0:0:0:
352,96,209519,1,8,0:0:0:0:
352,96,209730,1,0,0:0:0:0:
160,96,209942,1,8,0:0:0:0:
160,96,210153,1,0,0:0:0:0:
160,96,210258,1,0,0:0:0:0:
352,96,210364,1,0,0:0:0:0:
352,96,210575,1,8,0:0:0:0:
352,96,210998,1,8,0:0:0:0:
160,96,211209,1,0,0:0:0:0:
160,96,211420,1,0,0:0:0:0:
352,96,211631,1,8,0:0:0:0:
352,96,212054,1,8,0:0:0:0:
352,288,212477,1,4,0:0:0:0:
352,96,212899,1,8,0:0:0:0:
352,96,213110,1,8,0:0:0:0:
160,96,213322,1,0,0:0:0:0:
352,96,213533,1,8,0:0:0:0:
160,96,213639,1,8,0:0:0:0:
352,96,213744,1,8,0:0:0:0:
160,96,213955,1,0,0:0:0:0:
352,288,214167,1,12,0:0:0:0:
352,96,214589,1,8,0:0:0:0:
352,96,214801,1,8,0:0:0:0:
160,96,215012,1,0,0:0:0:0:
352,288,215434,1,12,0:0:0:0:
160,288,215857,1,4,0:0:0:0:
160,152,216069,1,0,0:0:0:0:
352,96,216280,1,8,0:0:0:0:
160,96,216491,1,0,0:0:0:0:
168,144,216597,1,0,0:0:0:0:
160,96,216702,1,0,0:0:0:0:
160,96,216913,1,8,0:0:0:0:
352,96,217125,1,8,0:0:0:0:
160,96,217336,1,0,0:0:0:0:
352,288,217547,1,12,0:0:0:0:
352,96,218181,1,0,0:0:0:0:
352,96,218392,1,8,0:0:0:0:
160,96,218603,1,0,0:0:0:0:
352,96,218815,1,0,0:0:0:0:
160,96,218921,1,0,0:0:0:0:
280,156,219026,1,0,0:0:0:0:
352,288,219237,1,12,0:0:0:0:
160,96,219449,1,0,0:0:0:0:
352,96,219660,1,8,0:0:0:0:
160,288,219871,1,4,0:0:0:0:
160,96,220294,5,0,0:0:0:0:
352,96,220505,1,8,0:0:0:0:
228,120,220716,5,12,0:0:0:0:
160,96,221139,5,0,0:0:0:0:
352,96,221350,1,8,0:0:0:0:
160,96,221773,1,0,0:0:0:0:
160,96,221984,1,0,0:0:0:0:
352,96,222195,1,8,0:0:0:0:
160,96,222407,1,0,0:0:0:0:
160,288,222618,1,4,0:0:0:0:
352,288,224308,1,12,0:0:0:0:
352,288,225998,1,12,0:0:0:0:
352,96,226843,1,8,0:0:0:0:
160,288,227477,1,4,0:0:0:0:
256,192,227688,12,8,228956,0:0:0:0:
160,288,229379,5,4,0:0:0:0:
352,96,229802,1,8,0:0:0:0:
160,96,230225,1,0,0:0:0:0:
160,96,230436,1,0,0:0:0:0:
352,96,230647,1,8,0:0:0:0:
160,96,231070,1,0,0:0:0:0:
160,96,231492,1,0,0:0:0:0:
160,96,231703,1,8,0:0:0:0:
352,96,231915,1,0,0:0:0:0:
160,96,232126,1,0,0:0:0:0:
352,96,232337,1,8,0:0:0:0:
160,96,232760,1,0,0:0:0:0:
352,96,233182,1,8,0:0:0:0:
160,96,233605,1,0,0:0:0:0:
160,96,233816,1,0,0:0:0:0:
352,96,234027,1,8,0:0:0:0:
160,96,234450,1,0,0:0:0:0:
352,96,234872,1,8,0:0:0:0:
160,96,235084,1,0,0:0:0:0:
352,288,235295,1,12,0:0:0:0:
352,288,235718,5,12,0:0:0:0:
160,288,236140,1,4,0:0:0:0:
352,96,236562,5,8,0:0:0:0:
160,96,236984,1,0,0:0:0:0:
160,96,237195,1,0,0:0:0:0:
352,96,237407,1,8,0:0:0:0:
160,96,237829,5,0,0:0:0:0:
352,96,238252,1,8,0:0:0:0:
160,96,238674,5,0,0:0:0:0:
160,96,238886,5,8,0:0:0:0:
352,96,238991,5,8,0:0:0:0:
352,96,239097,5,8,0:0:0:0:
160,96,239308,1,0,0:0:0:0:
352,288,239519,5,12,0:0:0:0:
352,288,240364,1,12,0:0:0:0:
352,288,240787,1,12,0:0:0:0:
160,288,240998,1,4,0:0:0:0:
256,192,241209,12,0,244590,0:0:0:0:
