osu file format v14

[General]
AudioFilename: audio.mp3
AudioLeadIn: 0
PreviewTime: 83282
Countdown: 0
SampleSet: Soft
StackLeniency: 0.5
Mode: 0
LetterboxInBreaks: 0
WidescreenStoryboard: 1

[Editor]
Bookmarks: 26587,59130,67265,83536,148621,199469
DistanceSpacing: 1.1
BeatDivisor: 8
GridSize: 4
TimelineZoom: 1.6

[Metadata]
Title:Teikoku Shoujo
TitleUnicode:帝国少女
Artist:Sawako
ArtistUnicode:碎花
Creator:banter
Version:Hard
Source:
Tags:Imperial Girl R Sound Design japanese pop j-pop jpop night street river bridge BudgetMonstrata d7me shin-chan Budget_Monstrata Budget Monstrata cover hatsune miku 初音ミク 砕花
BeatmapID:2881459
BeatmapSetID:1395034

[Difficulty]
HPDrainRate:4
CircleSize:3.5
OverallDifficulty:6.5
ApproachRate:8
SliderMultiplier:1.7
SliderTickRate:1

[Events]
//Background and Video events
0,0,"Zd9yZpi.jpg",0,0
//Break Periods
2,165092,178380
//Storyboard Layer 0 (Background)
//Storyboard Layer 1 (Fail)
//Storyboard Layer 2 (Pass)
//Storyboard Layer 3 (Foreground)
//Storyboard Layer 4 (Overlay)
//Storyboard Sound Samples

[TimingPoints]
2181,508.474576271186,4,2,1,30,1,0
2181,-125,4,2,1,30,0,0
6439,-125,4,2,1,30,0,0
6503,-125,4,2,1,30,0,0
7456,-125,4,2,1,30,0,0
7519,-125,4,2,1,30,0,0
8282,-125,4,2,1,40,0,0
8727,-125,4,2,1,40,0,0
8791,-125,4,2,1,40,0,0
9236,-125,4,2,1,40,0,0
9299,-125,4,2,1,50,0,0
10316,-100,4,2,1,60,0,0
10507,-100,4,2,1,60,0,0
10570,-100,4,2,1,60,0,0
10761,-100,4,2,1,60,0,0
10825,-100,4,2,1,60,0,0
14575,-100,4,2,1,60,0,0
14638,-100,4,2,1,60,0,0
16418,-100,4,2,1,60,0,0
16926,-100,4,2,1,60,0,0
17435,-100,4,2,1,60,0,0
18452,-100,4,2,1,60,0,0
18642,-100,4,2,1,60,0,0
18706,-100,4,2,1,60,0,0
18897,-100,4,2,1,60,0,0
18960,-100,4,2,1,60,0,0
22710,-100,4,2,1,60,0,0
22773,-100,4,2,1,60,0,0
22964,-100,4,2,1,60,0,0
23028,-100,4,2,1,60,0,0
24553,-100,4,2,1,60,0,0
25061,-100,4,2,1,60,0,0
25570,-100,4,2,1,60,0,0
26587,-90.9090909090909,4,2,1,50,0,0
26778,-90.9090909090909,4,2,1,50,0,0
26842,-90.9090909090909,4,2,1,50,0,0
30846,-90.9090909090909,4,2,1,50,0,0
30909,-90.9090909090909,4,2,1,50,0,0
32880,-90.9090909090909,4,2,1,50,0,0
32943,-90.9090909090909,4,2,1,50,0,0
33388,-90.9090909090909,4,2,1,50,0,0
33452,-90.9090909090909,4,2,1,50,0,0
34723,-90.9090909090909,4,2,1,50,0,0
34914,-90.9090909090909,4,2,1,50,0,0
34977,-90.9090909090909,4,2,1,50,0,0
38981,-90.9090909090909,4,2,1,50,0,0
39045,-90.9090909090909,4,2,1,50,0,0
40825,-90.9090909090909,4,2,1,50,0,0
41333,-90.9090909090909,4,2,1,50,0,0
41842,-90.9090909090909,4,2,1,50,0,0
42858,-90.9090909090909,4,2,1,60,0,0
43049,-90.9090909090909,4,2,1,60,0,0
43113,-90.9090909090909,4,2,1,60,0,0
45210,-90.9090909090909,4,2,1,60,0,0
45274,-90.9090909090909,4,2,1,60,0,0
45592,-90.9090909090909,4,2,1,60,0,0
45655,-90.9090909090909,4,2,1,60,0,0
46545,-90.9090909090909,4,2,1,60,0,0
46608,-90.9090909090909,4,2,1,60,0,0
46863,-90.9090909090909,4,2,1,60,0,0
46926,-90.9090909090909,4,2,1,60,0,0
48642,-90.9090909090909,4,2,1,60,0,0
48706,-90.9090909090909,4,2,1,60,0,0
48960,-90.9090909090909,4,2,1,60,0,0
49469,-90.9090909090909,4,2,1,60,0,0
49723,-90.9090909090909,4,2,1,60,0,0
49977,-90.9090909090909,4,2,1,60,0,0
50486,-90.9090909090909,4,2,1,60,0,0
50994,-90.9090909090909,4,2,1,50,0,0
51185,-90.9090909090909,4,2,1,50,0,0
51248,-90.9090909090909,4,2,1,50,0,0
55253,-90.9090909090909,4,2,1,50,0,0
55316,-90.9090909090909,4,2,1,50,0,0
57286,-90.9090909090909,4,2,1,50,0,0
57349,-90.9090909090909,4,2,1,50,0,0
57795,-90.9090909090909,4,2,1,50,0,0
57858,-90.9090909090909,4,2,1,50,0,0
59130,-90.9090909090909,4,2,1,55,0,0
59320,-90.9090909090909,4,2,1,55,0,0
59384,-90.9090909090909,4,2,1,55,0,0
63388,-90.9090909090909,4,2,1,55,0,0
63452,-90.9090909090909,4,2,1,55,0,0
65231,-90.9090909090909,4,2,1,55,0,0
65740,-90.9090909090909,4,2,1,55,0,0
66248,-90.9090909090909,4,2,1,55,0,0
67265,-90.9090909090909,4,2,1,60,0,0
67964,-90.9090909090909,4,2,1,60,0,0
68028,-90.9090909090909,4,2,1,60,0,0
72032,-90.9090909090909,4,2,1,60,0,0
72096,-90.9090909090909,4,2,1,60,0,0
73875,-90.9090909090909,4,2,1,60,0,0
74384,-90.9090909090909,4,2,1,60,0,0
74892,-90.9090909090909,4,2,1,60,0,0
75401,-90.9090909090909,4,2,1,60,0,0
75592,-90.9090909090909,4,2,1,60,0,0
75655,-90.9090909090909,4,2,1,60,0,0
76100,-90.9090909090909,4,2,1,60,0,0
76164,-90.9090909090909,4,2,1,60,0,0
81503,-83.3333333333333,4,2,1,65,0,0
83536,-83.3333333333333,4,2,1,75,0,1
83727,-83.3333333333333,4,2,1,75,0,1
83791,-83.3333333333333,4,2,1,75,0,1
84871,-83.3333333333333,4,2,1,75,0,1
84935,-83.3333333333333,4,2,1,75,0,1
87795,-83.3333333333333,4,2,1,75,0,1
87858,-83.3333333333333,4,2,1,75,0,1
93897,-83.3333333333333,4,2,1,75,0,1
93960,-83.3333333333333,4,2,1,75,0,1
95740,-83.3333333333333,4,2,1,75,0,1
97774,-83.3333333333333,4,2,1,65,0,1
98282,-83.3333333333333,4,2,1,60,0,1
98791,-100,4,2,1,50,0,0
99808,-100,4,2,1,60,0,0
99998,-100,4,2,1,60,0,0
100062,-100,4,2,1,60,0,0
100253,-100,4,2,1,60,0,0
100316,-100,4,2,1,60,0,0
104066,-100,4,2,1,60,0,0
104130,-100,4,2,1,60,0,0
105909,-100,4,2,1,60,0,0
106417,-100,4,2,1,60,0,0
106926,-100,4,2,1,60,0,0
107943,-100,4,2,1,60,0,0
108134,-100,4,2,1,60,0,0
108197,-100,4,2,1,60,0,0
108388,-100,4,2,1,60,0,0
108452,-100,4,2,1,60,0,0
112202,-100,4,2,1,60,0,0
112265,-100,4,2,1,60,0,0
112456,-100,4,2,1,60,0,0
112519,-100,4,2,1,60,0,0
114045,-100,4,2,1,60,0,0
114553,-100,4,2,1,60,0,0
115062,-100,4,2,1,60,0,0
116079,-111.111111111111,4,2,1,45,0,0
122180,-100,4,2,1,45,0,0
122688,-100,4,2,1,45,0,0
123197,-100,4,2,1,45,0,0
124214,-90.9090909090909,4,2,1,50,0,0
124405,-90.9090909090909,4,2,1,50,0,0
124469,-90.9090909090909,4,2,1,50,0,0
128473,-90.9090909090909,4,2,1,50,0,0
128536,-90.9090909090909,4,2,1,50,0,0
130316,-90.9090909090909,4,2,1,50,0,0
130824,-90.9090909090909,4,2,1,50,0,0
131333,-90.9090909090909,4,2,1,50,0,0
132350,-90.9090909090909,4,2,1,60,0,0
133049,-90.9090909090909,4,2,1,60,0,0
133113,-90.9090909090909,4,2,1,60,0,0
137117,-90.9090909090909,4,2,1,60,0,0
137180,-90.9090909090909,4,2,1,60,0,0
138960,-90.9090909090909,4,2,1,60,0,0
139469,-90.9090909090909,4,2,1,60,0,0
139977,-90.9090909090909,4,2,1,60,0,0
140486,-90.9090909090909,4,2,1,60,0,0
141185,-90.9090909090909,4,2,1,60,0,0
141248,-90.9090909090909,4,2,1,60,0,0
142710,-90.9090909090909,4,2,1,60,0,0
142774,-90.9090909090909,4,2,1,60,0,0
146587,-66.6666666666667,4,2,1,65,0,0
148621,-83.3333333333333,4,2,1,75,0,1
152880,-83.3333333333333,4,2,1,75,0,1
152943,-83.3333333333333,4,2,1,75,0,1
156947,-83.3333333333333,4,2,1,75,0,1
157011,-83.3333333333333,4,2,1,75,0,1
157456,-83.3333333333333,4,2,1,75,0,1
157519,-83.3333333333333,4,2,1,75,0,1
160125,-83.3333333333333,4,2,1,75,0,1
160189,-83.3333333333333,4,2,1,75,0,1
160825,-83.3333333333333,4,2,1,75,0,1
161778,-83.3333333333333,4,2,1,75,0,1
161842,-83.3333333333333,4,2,1,75,0,1
162858,-83.3333333333333,4,2,1,65,0,1
163366,-83.3333333333333,4,2,1,60,0,1
163875,-83.3333333333333,4,2,1,60,0,1
164892,-100,4,2,1,60,0,0
179130,-90.9090909090909,4,2,1,60,0,0
181164,-90.9090909090909,4,2,1,60,0,0
183642,-90.9090909090909,4,2,1,60,0,0
183706,-90.9090909090909,4,2,1,60,0,0
186693,-90.9090909090909,4,2,1,60,0,0
186757,-90.9090909090909,4,2,1,60,0,0
187964,-90.9090909090909,4,2,1,60,0,0
188028,-90.9090909090909,4,2,1,60,0,0
188473,-90.9090909090909,4,2,1,60,0,0
188536,-90.9090909090909,4,2,1,60,0,0
189744,-90.9090909090909,4,2,1,60,0,0
189808,-90.9090909090909,4,2,1,60,0,0
189998,-90.9090909090909,4,2,1,60,0,0
190062,-90.9090909090909,4,2,1,60,0,0
191778,-90.9090909090909,4,2,1,60,0,0
191842,-90.9090909090909,4,2,1,60,0,0
192795,-90.9090909090909,4,2,1,60,0,0
192858,-90.9090909090909,4,2,1,60,0,0
193812,-90.9090909090909,4,2,1,60,0,0
193875,-90.9090909090909,4,2,1,60,0,0
196100,-90.9090909090909,4,2,1,60,0,0
196164,-90.9090909090909,4,2,1,60,0,0
197435,-66.6666666666667,4,2,1,50,0,0
199469,-83.3333333333333,4,2,1,75,0,1
199659,-83.3333333333333,4,2,1,75,0,1
199723,-83.3333333333333,4,2,1,75,0,1
200803,-83.3333333333333,4,2,1,75,0,1
200867,-83.3333333333333,4,2,1,75,0,1
203727,-83.3333333333333,4,2,1,75,0,1
203791,-83.3333333333333,4,2,1,75,0,1
209829,-83.3333333333333,4,2,1,75,0,1
209892,-83.3333333333333,4,2,1,75,0,1
211672,-83.3333333333333,4,2,1,60,0,0
212625,-83.3333333333333,4,2,1,60,0,0
212689,-83.3333333333333,4,2,1,60,0,0
213706,-83.3333333333333,4,2,1,60,0,0
214214,-83.3333333333333,4,2,1,65,0,0
214723,-83.3333333333333,4,2,1,70,0,0
215231,-83.3333333333333,4,2,1,65,0,0
215740,-83.3333333333333,4,2,1,80,0,1
219998,-83.3333333333333,4,2,1,80,0,1
220062,-83.3333333333333,4,2,1,80,0,1
227943,-83.3333333333333,4,2,1,65,0,1
228897,-83.3333333333333,4,2,1,65,0,1
228960,-83.3333333333333,4,2,1,65,0,1
229977,-83.3333333333333,4,2,1,55,0,1
230486,-83.3333333333333,4,2,1,55,0,1
230994,-100,4,2,1,45,0,0
233409,-100,4,2,1,50,0,0
233536,-90.9090909090909,4,2,1,50,0,0
234045,-90.9090909090909,4,2,1,60,0,0
238303,-90.9090909090909,4,2,1,60,0,0
238367,-90.9090909090909,4,2,1,60,0,0
239320,-90.9090909090909,4,2,1,60,0,0
239384,-90.9090909090909,4,2,1,60,0,0
240147,-90.9090909090909,4,2,1,60,0,0
240655,-90.9090909090909,4,2,1,60,0,0
241164,-90.9090909090909,4,2,1,60,0,0
241672,-90.9090909090909,4,2,1,60,0,0
242180,-90.9090909090909,4,2,1,60,0,0
248282,-90.9090909090909,4,2,1,60,0,0
248791,-90.9090909090909,4,2,1,60,0,0
249299,-90.9090909090909,4,2,1,50,0,0
250316,-125,4,2,1,40,0,0
252604,-125,4,2,1,35,0,0
252986,-90.9090909090909,4,2,1,35,0,0
253367,-90.9090909090909,4,2,1,35,0,0

[Colours]
Combo1 : 105,169,248
Combo2 : 165,159,232
Combo3 : 239,186,171

[HitObjects]
175,91,2181,6,0,L|171:140,1,34,2|2,0:0|0:0,0:0:0:0:
153,164,2435,2,0,L|157:213,1,34,2|2,0:0|0:0,0:0:0:0:
167,240,2689,1,2,0:0:0:0:
293,135,3197,2,0,P|308:128|325:125,1,34,2|2,0:0|0:0,0:0:0:0:
352,90,3452,2,0,P|368:92|384:99,1,34,2|2,0:0|0:0,0:0:0:0:
415,137,3706,1,2,0:0:0:0:
415,137,3833,1,2,0:0:0:0:
476,268,4214,6,0,L|415:258,1,34,2|2,0:0|0:0,0:0:0:0:
408,234,4469,2,0,L|347:244,1,34,2|2,0:0|0:0,0:0:0:0:
341,268,4723,1,2,0:0:0:0:
341,268,4850,1,2,0:0:0:0:
225,331,5231,2,0,L|218:382,2,34,2|2|2,0:0|0:0|0:0,0:0:0:0:
199,294,5613,1,2,0:0:0:0:
199,294,5740,2,0,L|194:260,1,34,2|2,0:0|0:0,0:0:0:0:
215,221,5994,1,2,0:0:0:0:
198,117,6248,6,0,P|167:105|119:109,1,68,2|2,0:0|0:0,0:0:0:0:
96,128,6630,1,2,0:0:0:0:
96,128,6757,2,0,P|65:140|17:136,1,68,2|2,0:0|0:0,0:0:0:0:
6,244,7265,2,0,P|37:232|85:236,1,68,2|2,0:0|0:0,0:0:0:0:
108,255,7647,1,2,0:0:0:0:
108,255,7774,2,0,P|139:267|187:263,1,68,2|2,0:0|0:0,0:0:0:0:
270,216,8282,6,0,L|262:311,1,68,2|0,0:0|0:0,0:0:0:0:
350,254,8791,2,0,L|342:349,1,68,2|0,0:0|0:0,0:0:0:0:
430,369,9299,1,2,0:0:0:0:
430,369,9426,1,8,0:0:0:0:
430,369,9553,2,0,L|436:316,1,34,0|0,1:0|0:0,0:0:0:0:
469,307,9808,2,0,L|463:254,1,34,8|0,0:0|1:0,0:0:0:0:
448,232,10062,1,8,0:0:0:0:
448,232,10189,1,8,0:0:0:0:
448,232,10316,6,0,L|347:253,2,85,6|2|8,1:0|1:0|0:0,0:0:0:0:
480,192,10952,2,0,P|496:148|488:96,1,85,2|8,0:0|0:0,0:0:0:0:
465,82,11333,1,0,1:0:0:0:
465,82,11460,1,8,0:0:0:0:
465,82,11587,1,0,1:0:0:0:
355,43,11842,1,8,0:0:0:0:
284,139,12096,1,2,1:0:0:0:
284,139,12223,1,2,0:0:0:0:
284,139,12350,6,0,B|247:163|247:163|184:154,1,85,2|2,1:0|0:0,0:0:0:0:
151,71,12858,2,0,B|114:47|114:47|73:52,1,85,10|2,0:0|0:0,0:0:0:0:
45,97,13240,1,8,0:3:0:0:
45,97,13367,1,2,1:0:0:0:
45,97,13494,2,0,L|50:154,1,42.5,8|2,0:3|1:0,0:0:0:0:
50,241,13875,1,10,0:0:0:0:
140,193,14130,1,2,1:0:0:0:
211,265,14384,6,0,L|198:357,2,85,2|2|8,1:0|1:0|0:0,0:0:0:0:
242,225,15019,2,0,P|283:209|332:213,1,85,2|10,0:0|0:3,0:0:0:0:
370,251,15401,1,0,1:0:0:0:
370,251,15528,1,8,0:3:0:0:
370,251,15655,1,0,1:0:0:0:
476,235,15909,1,8,0:0:0:0:
489,122,16164,1,2,1:0:0:0:
489,122,16291,1,2,0:0:0:0:
489,122,16418,6,0,P|432:96|387:111,1,85,2|2,1:0|0:0,0:0:0:0:
365,7,16926,2,0,P|313:43|304:89,1,85,10|2,0:0|0:0,0:0:0:0:
203,56,17435,2,0,P|208:118|244:149,1,85,2|8,1:0|0:0,0:0:0:0:
197,233,17943,1,10,0:0:0:0:
228,254,18070,1,10,0:0:0:0:
265,262,18197,1,10,0:0:0:0:
303,256,18325,1,10,0:0:0:0:
334,234,18452,6,0,L|343:141,2,85,6|2|8,1:0|1:0|0:0,0:0:0:0:
364,275,19087,2,0,P|411:296|458:290,1,85,2|10,0:0|0:0,0:0:0:0:
485,263,19469,1,0,1:0:0:0:
485,263,19596,1,8,0:0:0:0:
485,263,19723,1,0,1:0:0:0:
512,153,19977,1,8,0:0:0:0:
398,118,20231,1,2,1:0:0:0:
398,118,20358,1,2,0:0:0:0:
398,118,20486,6,0,L|299:130,1,85,2|2,1:0|0:0,0:0:0:0:
202,91,20994,1,8,0:0:0:0:
202,91,21121,2,0,P|185:133|190:190,1,85,2|10,0:0|0:3,0:0:0:0:
214,214,21503,1,2,1:0:0:0:
214,214,21630,1,8,0:3:0:0:
214,214,21757,1,2,1:0:0:0:
317,222,22011,1,8,0:0:0:0:
368,330,22265,1,2,1:0:0:0:
368,330,22392,1,2,0:0:0:0:
368,330,22519,6,0,L|470:318,2,85,2|2|8,1:0|1:0|0:0,0:0:0:0:
328,363,23155,2,0,L|243:353,1,85,2|10,0:0|0:0,0:0:0:0:
202,345,23536,1,0,1:0:0:0:
202,345,23664,1,8,0:0:0:0:
202,345,23791,1,0,1:0:0:0:
177,234,24045,1,8,0:0:0:0:
74,166,24299,1,2,1:0:0:0:
74,166,24426,1,2,0:0:0:0:
74,166,24553,6,0,L|87:63,1,85,2|2,1:0|0:0,0:0:0:0:
114,41,24935,1,2,1:0:0:0:
114,41,25062,2,0,B|154:56|154:56|208:39,1,85,10|2,0:0|1:0,0:0:0:0:
293,5,25570,5,2,1:0:0:0:
293,5,25697,1,10,0:0:0:0:
293,5,25825,1,2,1:0:0:0:
357,93,26079,2,0,L|404:104,1,42.5,10|2,0:0|1:0,0:0:0:0:
450,124,26333,1,8,0:0:0:0:
479,116,26460,1,8,0:0:0:0:
511,104,26587,6,0,P|521:151|500:215,1,93.5000028533936,6|2,1:0|1:0,0:0:0:0:
447,322,27096,2,0,P|419:320|391:308,1,46.7500014266968,10|2,0:0|0:0,0:0:0:0:
358,285,27350,2,0,P|330:287|302:299,1,46.7500014266968,2|8,0:0|0:3,0:0:0:0:
277,330,27604,2,0,P|268:357|270:381,2,46.7500014266968,2|8|2,1:0|0:3|1:0,0:0:0:0:
161,381,28113,1,8,0:0:0:0:
99,286,28367,2,0,L|95:231,1,46.7500014266968,2|2,1:0|0:0,0:0:0:0:
95,187,28621,6,0,P|142:167|203:180,1,93.5000028533936,2|2,1:0|0:0,0:0:0:0:
230,202,29003,1,2,1:0:0:0:
230,202,29130,2,0,P|277:222|338:209,1,93.5000028533936,10|2,0:0|0:0,0:0:0:0:
360,189,29511,1,10,0:3:0:0:
360,189,29638,2,0,L|364:130,1,46.7500014266968,2|8,1:0|0:3,0:0:0:0:
368,91,29892,1,2,1:0:0:0:
290,23,30147,1,10,0:0:0:0:
205,86,30401,2,0,P|177:84|149:72,1,46.7500014266968,2|0,1:0|0:0,0:0:0:0:
116,50,30655,6,0,L|127:155,1,93.5000028533936,2|2,1:0|1:0,0:0:0:0:
218,208,31164,2,0,L|207:313,1,93.5000028533936,10|2,0:0|0:0,0:0:0:0:
206,355,31545,1,2,0:0:0:0:
206,355,31672,2,0,L|259:342,1,46.7500014266968,0|10,1:0|0:3,0:0:0:0:
293,335,31926,1,2,0:0:0:0:
398,292,32180,2,0,P|408:265|406:238,1,46.7500014266968,10|2,0:0|0:0,0:0:0:0:
444,211,32435,2,0,P|439:182|423:160,1,46.7500014266968,2|2,1:0|0:0,0:0:0:0:
390,135,32689,6,0,L|496:149,2,93.5000028533936,2|2|10,1:0|0:0|0:0,0:0:0:0:
312,66,33452,2,0,L|252:76,1,46.7500014266968,2|2,0:0|0:0,0:0:0:0:
218,93,33706,1,0,1:0:0:0:
182,189,33960,2,0,L|122:179,1,46.7500014266968,10|2,0:0|0:0,0:0:0:0:
81,190,34214,2,0,P|64:212|61:248,1,46.7500014266968,10|2,0:0|0:0,0:0:0:0:
55,276,34469,1,10,0:0:0:0:
69,311,34596,1,10,0:0:0:0:
97,336,34723,6,0,L|201:321,1,93.5000028533936,2|2,1:0|1:0,0:0:0:0:
270,260,35231,2,0,P|303:266|331:284,1,46.7500014266968,10|2,0:0|0:0,0:0:0:0:
362,251,35486,2,0,P|387:272|402:302,1,46.7500014266968,2|8,0:0|0:3,0:0:0:0:
399,334,35740,2,0,L|387:386,2,46.7500014266968,2|8|2,1:0|0:3|1:0,0:0:0:0:
500,277,36248,1,8,0:0:0:0:
443,171,36503,2,0,L|436:122,1,46.7500014266968,2|2,1:0|0:0,0:0:0:0:
421,75,36757,6,0,P|373:57|315:67,1,93.5000028533936,2|2,1:0|0:0,0:0:0:0:
292,34,37138,1,2,0:0:0:0:
292,34,37265,2,0,P|245:55|211:103,1,93.5000028533936,10|2,0:0|0:0,0:0:0:0:
176,114,37647,1,2,0:0:0:0:
176,114,37774,2,0,L|182:173,1,46.7500014266968,2|8,1:0|0:3,0:0:0:0:
210,202,38028,2,0,L|269:208,1,46.7500014266968,2|2,1:0|0:0,0:0:0:0:
292,170,38282,1,10,0:0:0:0:
361,245,38536,2,0,L|353:301,1,46.7500014266968,2|2,0:0|0:0,0:0:0:0:
339,340,38791,6,0,B|293:353|293:353|235:320,1,93.5000028533936,2|2,1:0|1:0,0:0:0:0:
218,300,39172,1,2,0:0:0:0:
218,300,39299,2,0,B|172:287|172:287|114:320,1,93.5000028533936,10|2,0:0|0:0,0:0:0:0:
88,336,39680,1,8,0:0:0:0:
88,336,39808,2,0,L|80:277,1,46.7500014266968,0|8,1:0|0:0,0:0:0:0:
57,244,40062,1,2,1:0:0:0:
61,216,40189,1,2,0:0:0:0:
67,188,40316,2,0,P|119:186|159:208,1,93.5000028533936,10|2,0:0|1:0,0:0:0:0:
266,148,40825,6,0,L|278:235,2,70.1250021400452,2|2|2,1:0|0:0|0:0,0:0:0:0:
282,99,41333,2,0,L|351:45,2,70.1250021400452,10|2|2,0:0|0:0|0:0,0:0:0:0:
232,110,41842,2,0,L|150:76,2,70.1250021400452,2|2|2,0:0|0:0|0:0,0:0:0:0:
266,148,42350,2,0,L|338:130,1,46.7500014266968,10|0,0:0|1:0,0:0:0:0:
361,127,42604,1,10,0:0:0:0:
389,134,42731,1,8,0:0:0:0:
416,139,42858,5,6,1:0:0:0:
406,251,43113,2,0,P|452:272|508:267,2,93.5000028533936,2|10|2,1:0|0:0|0:0,0:0:0:0:
360,242,43748,1,8,0:0:0:0:
360,242,43875,2,0,P|349:267|347:297,1,46.7500014266968,2|10,1:0|0:0,0:0:0:0:
360,335,44130,1,2,0:0:0:0:
257,264,44384,1,10,0:0:0:0:
164,314,44638,1,2,1:0:0:0:
67,226,44892,6,0,B|53:119,1,93.5000028533936,2|0,1:0|0:0,0:0:0:0:
68,83,45274,1,2,0:0:0:0:
68,83,45401,2,0,P|87:72|112:68,1,46.7500014266968,8|0,0:0|0:0,0:0:0:0:
146,30,45655,2,0,P|168:30|191:39,1,46.7500014266968,2|8,0:0|0:3,0:0:0:0:
221,80,45909,2,0,L|214:133,2,46.7500014266968,2|8|0,1:0|0:3|1:0,0:0:0:0:
320,45,46418,2,0,L|334:154,1,93.5000028533936,8|2,0:0|1:0,0:0:0:0:
292,241,46926,5,2,1:0:0:0:
199,299,47180,2,0,P|151:298|106:317,2,93.5000028533936,2|10|2,1:0|0:0|0:0,0:0:0:0:
242,336,47816,1,8,0:0:0:0:
242,336,47943,2,0,P|275:350|322:345,1,46.7500014266968,2|8,1:0|0:0,0:0:0:0:
330,326,48197,1,0,1:0:0:0:
407,218,48452,1,8,0:0:0:0:
505,243,48706,1,2,1:0:0:0:
479,123,48960,6,0,P|440:107|384:112,1,93.5000028533936,2|2,1:0|0:0,0:0:0:0:
350,143,49342,1,2,1:0:0:0:
350,143,49469,2,0,L|358:211,1,46.7500014266968,10|0,0:0|0:0,0:0:0:0:
391,225,49723,2,0,L|383:293,1,46.7500014266968,2|2,0:0|0:0,0:0:0:0:
368,319,49977,2,0,B|322:332|322:332|264:299,1,93.5000028533936,2|8,1:0|0:3,0:0:0:0:
253,274,50358,1,10,0:3:0:0:
253,274,50486,1,10,0:0:0:0:
155,239,50740,1,10,0:0:0:0:
155,239,50867,1,8,0:3:0:0:
155,239,50994,6,0,L|146:341,1,93.5000028533936,6|2,1:0|1:0,0:0:0:0:
48,363,51503,2,0,P|38:337|41:300,1,46.7500014266968,10|2,0:0|0:0,0:0:0:0:
0,281,51757,2,0,P|4:253|25:222,1,46.7500014266968,2|8,0:0|0:3,0:0:0:0:
53,206,52011,2,0,L|46:146,2,46.7500014266968,2|8|2,1:0|0:3|1:0,0:0:0:0:
159,254,52519,1,8,0:0:0:0:
243,156,52774,2,0,L|307:146,1,46.7500014266968,2|2,1:0|0:0,0:0:0:0:
340,142,53028,6,0,P|360:189|347:250,1,93.5000028533936,2|2,1:0|0:0,0:0:0:0:
322,269,53409,1,2,0:0:0:0:
322,269,53536,2,0,P|302:316|315:377,1,93.5000028533936,10|0,0:0|0:0,0:0:0:0:
356,383,53918,1,10,0:3:0:0:
356,383,54045,2,0,L|415:379,1,46.7500014266968,2|8,1:0|0:3,0:0:0:0:
453,384,54299,1,2,1:0:0:0:
512,296,54553,2,0,L|465:293,1,46.7500014266968,10|0,0:0|0:0,0:0:0:0:
414,300,54808,1,0,1:0:0:0:
322,244,55062,6,0,B|296:206|296:206|306:138,2,93.5000028533936,2|2|10,1:0|1:0|0:0,0:0:0:0:
406,187,55825,2,0,L|413:126,1,46.7500014266968,2|8,0:0|0:3,0:0:0:0:
453,111,56079,2,0,L|446:50,2,46.7500014266968,0|10|0,1:0|0:3|1:0,0:0:0:0:
329,30,56587,2,0,L|271:37,1,46.7500014266968,10|2,0:0|0:0,0:0:0:0:
252,77,56842,2,0,L|194:70,1,46.7500014266968,2|2,1:0|0:0,0:0:0:0:
154,70,57096,6,0,P|133:119|142:170,1,93.5000028533936,2|2,1:0|0:0,0:0:0:0:
213,226,57604,2,0,L|268:219,1,46.7500014266968,10|0,0:0|0:0,0:0:0:0:
313,215,57858,1,2,0:0:0:0:
313,215,57986,2,0,P|325:241|324:273,1,46.7500014266968,2|0,0:0|1:0,0:0:0:0:
371,293,58240,2,0,P|368:321|351:348,2,46.7500014266968,2|10|10,0:0|0:0|0:3,0:0:0:0:
417,270,58621,2,0,L|442:217,1,46.7500014266968,10|2,0:0|0:0,0:0:0:0:
453,191,58875,1,10,0:0:0:0:
438,151,59003,1,10,0:0:0:0:
409,124,59130,6,0,L|307:138,1,93.5000028533936,6|2,1:0|1:0,0:0:0:0:
196,165,59638,2,0,L|204:111,1,46.7500014266968,10|2,0:0|0:0,0:0:0:0:
239,83,59892,2,0,L|231:29,1,46.7500014266968,2|0,0:0|0:0,0:0:0:0:
190,6,60147,2,0,L|136:-2,2,46.7500014266968,2|8|2,1:0|0:3|1:0,0:0:0:0:
115,94,60655,1,8,0:0:0:0:
11,50,60909,2,0,P|1:71|1:101,1,46.7500014266968,2|2,1:0|0:0,0:0:0:0:
25,138,61164,6,0,P|45:179|47:226,1,93.5000028533936,2|2,1:0|0:0,0:0:0:0:
30,277,61545,1,2,0:0:0:0:
30,277,61672,2,0,P|71:256|118:254,1,93.5000028533936,10|0,0:0|0:0,0:0:0:0:
171,272,62053,1,10,0:3:0:0:
171,272,62180,2,0,L|179:327,1,46.7500014266968,2|8,1:0|0:3,0:0:0:0:
189,368,62435,1,2,1:0:0:0:
304,323,62689,2,0,P|332:326|359:341,1,46.7500014266968,10|2,0:0|0:0,0:0:0:0:
391,362,62943,2,0,P|419:359|446:344,1,46.7500014266968,2|10,1:0|0:3,0:0:0:0:
486,341,63197,6,0,L|492:229,2,93.5000028533936,2|2|10,1:0|1:0|0:0,0:0:0:0:
404,270,63960,2,0,L|396:208,1,46.7500014266968,2|8,0:0|0:3,0:0:0:0:
364,200,64214,1,0,1:0:0:0:
364,200,64342,1,8,0:3:0:0:
364,200,64469,2,0,L|372:138,1,46.7500014266968,2|2,1:0|0:0,0:0:0:0:
345,108,64723,2,0,P|315:93|252:105,1,93.5000028533936,10|2,0:0|1:0,0:0:0:0:
222,138,65104,1,2,0:0:0:0:
222,138,65231,6,0,P|199:183|199:214,2,70.1250021400452,2|2|2,1:0|0:0|1:0,0:0:0:0:
257,101,65740,2,0,P|229:58|202:43,2,70.1250021400452,10|2|2,0:0|0:0|0:0,0:0:0:0:
274,149,66248,2,0,P|324:146|351:130,2,70.1250021400452,2|2|2,0:0|0:0|0:0,0:0:0:0:
222,138,66757,2,0,P|198:130|167:131,1,46.7500014266968,10|0,0:0|1:0,0:0:0:0:
133,154,67011,1,8,0:0:0:0:
133,154,67138,1,8,0:0:0:0:
133,154,67265,6,0,L|122:258,1,93.5000028533936,6|2,1:0|0:0,0:0:0:0:
116,360,67774,2,0,P|160:343|217:349,1,93.5000028533936,10|2,0:0|0:0,0:0:0:0:
251,321,68155,2,0,P|295:338|352:332,1,93.5000028533936,2|2,0:0|0:0,0:0:0:0:
386,312,68536,1,2,0:0:0:0:
462,232,68791,2,0,B|484:191|484:191|472:129,1,93.5000028533936,10|2,0:0|0:0,0:0:0:0:
407,64,69299,6,0,L|467:48,2,46.7500014266968,2|2|2,1:0|0:0|1:0,0:0:0:0:
369,98,69680,1,2,0:0:0:0:
369,98,69808,2,0,L|309:82,1,46.7500014266968,10|2,0:0|0:0,0:0:0:0:
289,55,70062,1,2,0:0:0:0:
289,55,70189,2,0,P|230:56|181:89,1,93.5000028533936,2|2,0:0|0:0,0:0:0:0:
148,72,70570,2,0,L|158:137,1,46.7500014266968,2|2,0:0|0:0,0:0:0:0:
166,168,70825,1,10,0:0:0:0:
300,310,71333,6,0,B|259:334|259:334|204:322,1,93.5000028533936,2|2,1:0|0:0,0:0:0:0:
115,383,71842,2,0,L|104:275,1,93.5000028533936,10|2,0:0|0:0,0:0:0:0:
57,272,72223,2,0,L|68:164,1,93.5000028533936,2|0,0:0|0:0,0:0:0:0:
72,128,72604,1,2,0:0:0:0:
169,181,72858,2,0,P|200:182|229:169,1,46.7500014266968,10|2,0:0|0:0,0:0:0:0:
252,213,73113,2,0,P|279:198|297:172,1,46.7500014266968,2|2,0:0|0:0,0:0:0:0:
340,183,73367,6,0,L|348:62,1,93.5000028533936,2|0,1:0|1:0,0:0:0:0:
383,260,73875,2,0,L|483:327,1,93.5000028533936,10|0,0:0|1:0,0:0:0:0:
294,258,74384,2,0,L|185:311,1,93.5000028533936,2|0,1:0|1:0,0:0:0:0:
118,346,74892,1,10,0:0:0:0:
47,271,75147,1,2,1:0:0:0:
148,188,75401,6,0,P|167:137|157:77,1,93.5000028533936,2|2,1:0|1:0,0:0:0:0:
216,17,75909,2,0,P|250:58|307:80,1,93.5000028533936,10|2,0:0|0:0,0:0:0:0:
297,126,76291,2,0,P|350:116|397:78,1,93.5000028533936,2|2,0:0|1:0,0:0:0:0:
414,55,76672,1,2,0:0:0:0:
485,147,76926,2,0,B|496:193|496:193|464:249,1,93.5000028533936,10|2,0:0|0:0,0:0:0:0:
463,348,77435,6,0,L|359:331,1,93.5000028533936,2|2,1:0|1:0,0:0:0:0:
341,297,77816,1,2,0:0:0:0:
341,297,77943,2,0,L|274:308,1,46.7500014266968,10|2,0:0|0:0,0:0:0:0:
247,309,78197,1,2,0:0:0:0:
247,309,78325,2,0,P|225:269|228:210,1,93.5000028533936,2|2,0:0|0:0,0:0:0:0:
257,182,78706,2,0,P|266:152|263:124,1,46.7500014266968,2|2,0:0|0:0,0:0:0:0:
238,92,78960,1,8,0:0:0:0:
150,145,79214,1,2,0:0:0:0:
66,72,79469,6,0,B|39:111|39:111|47:164,1,93.5000028533936,2|2,1:0|0:0,0:0:0:0:
37,212,79850,1,2,0:0:0:0:
37,212,79977,1,10,0:0:0:0:
37,212,80104,2,0,L|131:199,1,93.5000028533936,2|2,0:0|0:0,0:0:0:0:
180,208,80486,2,0,P|191:228|195:251,1,46.7500014266968,2|2,0:0|0:0,0:0:0:0:
166,293,80740,2,0,P|158:314|157:338,1,46.7500014266968,2|2,0:0|0:0,0:0:0:0:
196,371,80994,2,0,P|269:370|290:357,1,93.5000028533936,10|2,0:0|0:0,0:0:0:0:
307,314,81375,1,2,0:0:0:0:
307,314,81503,5,10,0:0:0:0:
360,329,81630,1,2,1:0:0:0:
385,219,81884,5,10,0:0:0:0:
416,173,82011,1,2,1:0:0:0:
318,115,82265,5,10,0:0:0:0:
283,71,82392,1,2,1:0:0:0:
198,146,82647,5,10,0:0:0:0:
145,166,82774,1,2,1:0:0:0:
192,326,83028,5,6,0:0:0:0:
31,192,83536,6,0,P|14:139|42:69,1,101.999996887207,6|2,1:0|1:0,0:0:0:0:
153,2,84045,2,0,L|213:12,1,50.9999984436036,10|2,0:0|0:0,0:0:0:0:
245,80,84299,2,0,L|305:70,1,50.9999984436036,2|2,0:0|0:0,0:0:0:0:
377,52,84553,1,2,1:0:0:0:
377,52,84680,2,0,L|366:163,1,101.999996887207,2|2,0:0|0:0,0:0:0:0:
291,187,85062,2,0,L|302:298,1,101.999996887207,8|2,0:0|0:0,0:0:0:0:
372,338,85443,1,10,0:0:0:0:
372,338,85570,6,0,P|402:352|436:353,2,50.9999984436036,2|2|2,1:0|0:0|1:0,0:0:0:0:
301,288,85952,1,2,0:0:0:0:
301,288,86079,2,0,P|275:292|253:304,1,50.9999984436036,10|2,0:0|0:0,0:0:0:0:
179,338,86333,2,0,P|153:333|131:321,1,50.9999984436036,2|2,0:0|0:0,0:0:0:0:
49,324,86587,1,2,1:0:0:0:
49,324,86714,2,0,L|40:202,1,101.999996887207,2|2,0:0|0:0,0:0:0:0:
59,142,87096,2,0,B|101:112|101:112|173:126,1,101.999996887207,8|2,0:0|0:0,0:0:0:0:
223,169,87477,1,10,0:0:0:0:
223,169,87604,6,0,B|265:199|265:199|314:189,2,101.999996887207,2|2|10,1:0|1:0|0:0,0:0:0:0:
151,204,88240,1,2,0:0:0:0:
151,204,88367,1,2,0:0:0:0:
32,91,88621,2,0,P|10:141|20:203,1,101.999996887207,2|2,1:0|0:0,0:0:0:0:
72,245,89003,1,2,0:0:0:0:
72,245,89130,2,0,L|79:304,1,50.9999984436036,10|2,0:0|0:0,0:0:0:0:
159,303,89384,2,0,L|152:362,1,50.9999984436036,2|10,0:0|0:0,0:0:0:0:
243,315,89638,6,0,P|242:281|229:253,2,50.9999984436036,2|2|2,1:0|0:0|1:0,0:0:0:0:
317,361,90019,1,2,0:0:0:0:
317,361,90147,2,0,P|362:382|413:379,1,101.999996887207,10|2,0:0|0:0,0:0:0:0:
460,313,90528,1,0,0:0:0:0:
460,313,90655,2,0,P|471:284|466:248,1,50.9999984436036,10|2,0:0|0:0,0:0:0:0:
422,198,90909,2,0,P|411:169|416:133,1,50.9999984436036,2|2,0:0|0:0,0:0:0:0:
473,96,91164,2,0,B|423:105|423:105|381:75,1,101.999996887207,10|2,0:0|0:0,0:0:0:0:
313,30,91545,1,8,0:0:0:0:
313,30,91672,6,0,L|196:20,1,101.999996887207,6|2,1:0|1:0,0:0:0:0:
168,101,92053,1,2,0:0:0:0:
168,102,92180,2,0,L|269:110,1,101.999996887207,10|2,0:0|0:0,0:0:0:0:
302,193,92562,1,2,0:0:0:0:
302,193,92689,2,0,P|330:177|349:152,2,50.9999984436036,2|0|2,1:0|0:0|0:0,0:0:0:0:
272,269,93070,2,0,P|217:245|167:247,1,101.999996887207,2|2,0:0|0:0,0:0:0:0:
101,279,93452,2,0,L|95:344,1,50.9999984436036,2|10,0:0|0:0,0:0:0:0:
16,370,93706,6,0,L|6:268,1,101.999996887207,2|2,1:0|1:0,0:0:0:0:
24,192,94087,1,2,0:0:0:0:
24,192,94214,2,0,P|52:178|89:178,1,50.9999984436036,10|2,0:0|0:0,0:0:0:0:
147,207,94469,1,2,0:0:0:0:
275,106,94723,1,2,0:0:0:0:
275,106,94850,2,0,P|251:161|253:211,1,101.999996887207,2|2,0:0|0:0,0:0:0:0:
319,251,95231,2,0,P|343:306|341:356,1,101.999996887207,8|2,0:0|0:0,0:0:0:0:
266,376,95613,1,10,0:0:0:0:
266,376,95740,6,0,L|165:355,2,101.999996887207,2|2|10,1:0|1:0|0:0,0:0:0:0:
426,342,96503,1,2,0:0:0:0:
298,240,96757,1,2,1:0:0:0:
390,156,97011,2,0,L|395:100,1,50.9999984436036,2|0,0:0|1:0,0:0:0:0:
379,56,97265,2,0,P|318:32|268:39,1,101.999996887207,10|2,0:0|0:0,0:0:0:0:
238,60,97647,1,8,0:0:0:0:
238,60,97774,6,0,L|247:169,2,101.999996887207,2|2|10,1:0|1:0|0:0,0:0:0:0:
151,147,98536,1,2,0:0:0:0:
75,78,98791,1,2,1:0:0:0:
15,156,99045,2,0,L|11:205,1,42.5,2|2,0:0|0:0,0:0:0:0:
12,240,99299,2,0,B|51:259|51:259|104:244,1,85,10|2,0:0|0:0,0:0:0:0:
131,233,99680,1,8,0:0:0:0:
131,233,99808,6,0,L|121:327,2,85,6|2|8,1:0|1:0|0:0,0:0:0:0:
172,204,100443,2,0,P|216:188|268:196,1,85,2|8,0:0|0:0,0:0:0:0:
304,225,100825,1,0,1:0:0:0:
304,225,100952,1,8,0:0:0:0:
304,225,101079,1,0,1:0:0:0:
383,289,101333,1,8,0:0:0:0:
456,194,101587,1,2,1:0:0:0:
456,194,101714,1,10,0:3:0:0:
456,194,101842,6,0,B|469:93,1,85,2|2,1:0|0:0,0:0:0:0:
360,42,102350,2,0,B|370:126,1,85,10|2,0:0|0:0,0:0:0:0:
342,169,102731,1,8,0:3:0:0:
342,169,102858,1,2,1:0:0:0:
342,169,102986,2,0,L|285:164,1,42.5,8|2,0:3|1:0,0:0:0:0:
218,103,103367,1,10,0:0:0:0:
141,171,103621,1,2,1:0:0:0:
26,93,103875,6,0,P|10:53|18:2,2,85,2|2|8,1:0|1:0|0:0,0:0:0:0:
61,130,104511,2,0,P|64:171|48:210,1,85,2|10,0:0|0:3,0:0:0:0:
16,249,104892,1,0,1:0:0:0:
16,249,105019,1,8,0:3:0:0:
16,249,105147,1,0,1:0:0:0:
86,322,105401,1,8,0:0:0:0:
181,241,105655,1,2,1:0:0:0:
181,241,105782,1,2,0:0:0:0:
180,241,105909,6,0,B|216:215|216:215|262:219,1,85,2|2,1:0|0:0,0:0:0:0:
271,118,106418,2,0,B|314:125|314:125|343:161,1,85,10|2,0:0|0:0,0:0:0:0:
423,96,106926,2,0,B|448:132|448:132|444:178,1,85,2|8,1:0|0:0,0:0:0:0:
486,265,107435,1,10,0:0:0:0:
455,286,107562,1,10,0:0:0:0:
418,294,107689,1,10,0:0:0:0:
380,288,107816,1,10,0:0:0:0:
349,266,107943,6,0,L|340:173,2,85,6|2|8,1:0|1:0|0:0,0:0:0:0:
320,308,108579,2,0,P|273:329|226:323,1,85,2|10,0:0|0:0,0:0:0:0:
207,303,108960,1,0,1:0:0:0:
207,303,109087,1,8,0:0:0:0:
207,303,109214,1,0,1:0:0:0:
248,209,109469,1,8,0:0:0:0:
153,118,109723,1,2,1:0:0:0:
153,118,109850,1,8,0:3:0:0:
153,118,109977,6,0,L|54:130,1,85,2|2,1:0|0:0,0:0:0:0:
0,11,110486,1,8,0:0:0:0:
0,11,110613,2,0,L|99:23,1,85,2|10,0:0|0:3,0:0:0:0:
142,36,110994,1,2,1:0:0:0:
142,36,111121,1,8,0:3:0:0:
142,36,111248,1,2,1:0:0:0:
90,135,111503,1,8,0:0:0:0:
214,212,111757,1,2,1:0:0:0:
214,212,111884,1,2,0:0:0:0:
214,212,112011,6,0,P|233:171|226:110,2,85,2|2|8,1:0|1:0|0:0,0:0:0:0:
183,253,112647,2,0,L|87:241,1,85,2|10,0:0|0:0,0:0:0:0:
57,238,113028,1,0,1:0:0:0:
57,238,113155,1,8,0:0:0:0:
57,238,113282,1,0,1:0:0:0:
102,328,113536,1,8,0:0:0:0:
215,294,113791,1,2,1:0:0:0:
215,294,113918,1,2,0:0:0:0:
215,294,114045,6,0,P|256:282|319:294,1,85,2|2,1:0|0:0,0:0:0:0:
343,318,114426,1,2,1:0:0:0:
343,318,114553,2,0,P|384:330|447:318,1,85,10|2,0:0|1:0,0:0:0:0:
492,250,115062,5,2,1:0:0:0:
492,250,115189,1,10,0:0:0:0:
492,250,115316,1,2,1:0:0:0:
441,161,115570,2,0,P|418:151|394:150,1,42.5,10|2,0:0|1:0,0:0:0:0:
354,172,115825,1,8,0:0:0:0:
325,180,115952,1,8,0:0:0:0:
293,192,116079,6,0,L|186:172,1,76.4999976654053,2|2,1:0|0:0,0:0:0:0:
286,284,117096,2,0,L|179:264,1,76.4999976654053,2|2,1:0|0:0,0:0:0:0:
32,154,118113,6,0,P|36:196|47:236,1,76.4999976654053,2|2,1:0|0:0,0:0:0:0:
117,136,119130,2,0,P|121:178|132:218,1,76.4999976654053,2|2,1:0|1:0,0:0:0:0:
225,232,119638,2,0,L|231:184,1,38.2499988327027,10|2,0:0|1:0,0:0:0:0:
267,168,119892,2,0,L|261:120,1,38.2499988327027,8|2,0:0|1:0,0:0:0:0:
247,86,120147,6,0,B|214:65|214:65|160:68,1,76.4999976654053,2|2,1:0|0:0,0:0:0:0:
337,118,121164,2,0,B|370:97|370:97|424:100,1,76.4999976654053,2|2,1:0|0:0,0:0:0:0:
475,160,121672,1,10,0:0:0:0:
425,342,122180,6,0,L|318:322,1,85,2|0,1:0|1:0,0:0:0:0:
289,248,122689,2,0,L|182:268,1,85,10|0,0:0|1:0,0:0:0:0:
165,347,123197,1,2,1:0:0:0:
98,281,123452,2,0,L|47:268,1,42.5,8|10,0:0|0:0,0:0:0:0:
24,237,123706,2,0,L|11:186,1,42.5,10|10,0:0|0:0,0:0:0:0:
24,150,123960,1,10,0:0:0:0:
16,103,124087,1,10,0:0:0:0:
11,51,124214,6,0,L|116:70,1,93.5000028533936,6|2,1:0|1:0,0:0:0:0:
194,158,124723,2,0,P|227:152|255:134,1,46.7500014266968,10|2,0:0|0:0,0:0:0:0:
268,104,124977,2,0,P|301:110|329:128,1,46.7500014266968,2|8,0:0|0:3,0:0:0:0:
349,151,125231,2,0,L|340:212,2,46.7500014266968,2|8|2,1:0|0:3|1:0,0:0:0:0:
470,192,125740,1,8,0:0:0:0:
484,203,125867,1,2,0:0:0:0:
499,214,125994,2,0,L|492:263,1,46.7500014266968,2|2,1:0|0:0,0:0:0:0:
477,310,126248,6,0,P|429:328|371:318,1,93.5000028533936,2|0,1:0|0:0,0:0:0:0:
348,299,126630,1,2,0:0:0:0:
348,299,126757,2,0,P|300:281|242:291,1,93.5000028533936,10|2,0:0|0:0,0:0:0:0:
213,305,127138,1,10,0:3:0:0:
213,305,127265,2,0,L|207:246,1,46.7500014266968,2|8,1:0|0:3,0:0:0:0:
199,207,127519,1,0,1:0:0:0:
264,126,127774,2,0,L|270:67,1,46.7500014266968,10|2,0:0|1:0,0:0:0:0:
224,53,128028,2,0,L|168:61,1,46.7500014266968,2|2,1:0|0:0,0:0:0:0:
130,80,128282,6,0,P|110:120|115:170,1,93.5000028533936,2|2,1:0|1:0,0:0:0:0:
75,200,128664,1,2,0:0:0:0:
75,200,128791,2,0,P|89:242|128:274,1,93.5000028533936,10|2,0:0|0:0,0:0:0:0:
148,324,129172,1,8,0:3:0:0:
148,324,129299,2,0,L|207:316,1,46.7500014266968,0|10,1:0|0:3,0:0:0:0:
235,286,129553,1,2,1:0:0:0:
263,291,129680,1,2,0:0:0:0:
292,293,129808,2,0,P|306:270|310:240,1,46.7500014266968,10|2,0:0|0:0,0:0:0:0:
292,203,130062,1,2,1:0:0:0:
399,267,130316,6,0,P|447:290|479:287,2,70.1250021400452,2|2|2,1:0|0:0|1:0,0:0:0:0:
378,219,130825,2,0,P|379:184|365:152,2,70.1250021400452,8|2|2,0:0|0:0|0:0,0:0:0:0:
347,259,131333,2,0,P|316:276|295:303,2,70.1250021400452,2|2|2,0:0|0:0|0:0,0:0:0:0:
399,267,131842,2,0,L|458:273,1,46.7500014266968,10|0,0:0|1:0,0:0:0:0:
483,237,132096,1,8,0:0:0:0:
497,210,132223,1,8,0:0:0:0:
511,183,132350,6,0,L|502:83,1,93.5000028533936,6|2,1:0|0:0,0:0:0:0:
394,125,132858,2,0,B|354:148|354:148|304:139,1,93.5000028533936,10|2,0:0|0:0,0:0:0:0:
266,109,133240,2,0,B|226:85|226:85|176:94,1,93.5000028533936,2|0,0:0|0:0,0:0:0:0:
131,111,133621,1,2,0:0:0:0:
63,188,133875,2,0,L|74:280,1,93.5000028533936,10|2,0:0|0:0,0:0:0:0:
119,373,134384,6,0,P|97:381|74:384,2,46.7500014266968,2|2|2,1:0|0:0|1:0,0:0:0:0:
166,349,134765,1,0,0:0:0:0:
166,349,134892,2,0,P|189:351|210:360,1,46.7500014266968,10|2,0:0|0:0,0:0:0:0:
262,383,135147,1,2,0:0:0:0:
262,383,135274,2,0,P|321:382|370:349,1,93.5000028533936,2|2,0:0|0:0,0:0:0:0:
401,359,135655,2,0,L|411:294,1,46.7500014266968,2|2,0:0|0:0,0:0:0:0:
419,263,135909,1,10,0:0:0:0:
216,223,136418,6,0,P|200:182|204:127,1,93.5000028533936,2|2,1:0|0:0,0:0:0:0:
265,52,136926,2,0,P|306:68|361:64,1,93.5000028533936,10|2,0:0|0:0,0:0:0:0:
388,26,137308,2,0,P|429:10|484:14,1,93.5000028533936,2|0,0:0|0:0,0:0:0:0:
507,54,137689,1,2,0:0:0:0:
511,156,137943,2,0,L|450:147,1,46.7500014266968,10|2,0:0|0:0,0:0:0:0:
417,128,138197,2,0,L|356:137,1,46.7500014266968,2|2,0:0|0:0,0:0:0:0:
329,165,138452,6,0,B|306:205|306:205|321:286,1,93.5000028533936,2|0,1:0|1:0,0:0:0:0:
249,330,138960,2,0,B|225:290|225:290|148:262,1,93.5000028533936,10|0,0:0|1:0,0:0:0:0:
146,178,139469,2,0,B|192:177|192:177|254:124,1,93.5000028533936,2|0,1:0|1:0,0:0:0:0:
284,60,139977,1,10,0:0:0:0:
192,13,140231,1,2,1:0:0:0:
69,59,140486,6,0,L|60:170,1,93.5000028533936,2|2,1:0|1:0,0:0:0:0:
0,260,140994,2,0,P|45:267|85:291,1,93.5000028533936,10|2,0:0|0:0,0:0:0:0:
103,339,141375,2,0,P|142:314|188:307,1,93.5000028533936,2|0,0:0|0:0,0:0:0:0:
236,327,141757,1,2,0:0:0:0:
328,283,142011,2,0,P|348:240|339:183,1,93.5000028533936,10|2,0:0|0:0,0:0:0:0:
300,83,142519,6,0,L|196:100,1,93.5000028533936,2|2,1:0|1:0,0:0:0:0:
176,140,142901,1,0,0:0:0:0:
176,140,143028,2,0,L|109:129,1,46.7500014266968,10|2,0:0|0:0,0:0:0:0:
84,122,143282,1,2,0:0:0:0:
84,122,143409,2,0,P|62:162|65:221,1,93.5000028533936,2|0,0:0|0:0,0:0:0:0:
77,258,143791,2,0,P|107:267|135:264,1,46.7500014266968,2|0,0:0|0:0,0:0:0:0:
167,239,144045,1,10,0:0:0:0:
252,296,144299,1,2,0:0:0:0:
339,215,144553,6,0,L|330:150,2,46.7500014266968,2|2|2,1:0|0:0|0:0,0:0:0:0:
367,264,144935,1,0,0:0:0:0:
367,264,145062,2,0,L|443:276,1,46.7500014266968,10|2,0:0|0:0,0:0:0:0:
450,235,145316,2,0,L|526:223,1,46.7500014266968,2|0,0:0|0:0,0:0:0:0:
508,177,145570,2,0,P|519:134|509:79,1,93.5000028533936,2|2,0:0|0:0,0:0:0:0:
421,36,146079,2,0,L|316:22,1,93.5000028533936,10|2,0:0|0:0,0:0:0:0:
282,39,146460,1,2,0:0:0:0:
282,39,146587,5,10,0:0:0:0:
267,92,146714,1,2,1:0:0:0:
130,125,146969,5,10,0:0:0:0:
145,178,147096,1,2,1:0:0:0:
282,211,147350,5,10,0:0:0:0:
267,264,147477,1,2,1:0:0:0:
130,297,147731,5,10,0:0:0:0:
145,350,147858,1,2,1:0:0:0:
291,384,148113,5,6,0:0:0:0:
462,208,148621,6,0,L|473:131,1,50.9999984436036,6|2,1:0|0:0,0:0:0:0:
480,76,148875,2,0,P|451:77|411:98,1,50.9999984436036,2|2,1:0|0:0,0:0:0:0:
386,153,149130,2,0,P|357:152|317:131,1,50.9999984436036,10|2,0:0|0:0,0:0:0:0:
273,92,149384,2,0,L|262:15,1,50.9999984436036,2|2,1:0|0:0,0:0:0:0:
186,21,149638,1,2,0:0:0:0:
186,21,149765,2,0,P|132:18|76:43,1,101.999996887207,2|0,0:0|0:0,0:0:0:0:
2,13,150147,2,0,L|11:125,1,101.999996887207,10|2,0:0|0:0,0:0:0:0:
72,184,150528,1,10,0:0:0:0:
72,184,150655,6,0,L|63:243,2,50.9999984436036,2|2|2,1:0|0:0|1:0,0:0:0:0:
137,135,151036,1,2,0:0:0:0:
137,135,151164,2,0,P|161:127|186:126,1,50.9999984436036,10|0,0:0|0:0,0:0:0:0:
264,148,151418,2,0,P|282:164|295:186,1,50.9999984436036,2|0,0:0|0:0,0:0:0:0:
381,185,151672,1,2,0:0:0:0:
381,185,151799,2,0,L|372:297,1,101.999996887207,2|0,0:0|0:0,0:0:0:0:
386,366,152180,2,0,P|440:370|496:344,1,101.999996887207,10|2,0:0|0:0,0:0:0:0:
471,274,152562,1,8,0:0:0:0:
471,274,152689,6,0,P|417:270|360:295,2,101.999996887207,2|2|10,1:0|1:0|0:0,0:0:0:0:
488,193,153325,1,2,0:0:0:0:
488,193,153452,1,2,0:0:0:0:
441,34,153706,2,0,B|396:60|396:60|332:53,1,101.999996887207,2|2,1:0|0:0,0:0:0:0:
279,101,154087,1,2,0:0:0:0:
279,101,154214,2,0,L|212:88,1,50.9999984436036,10|2,0:0|0:0,0:0:0:0:
173,30,154469,2,0,L|106:43,1,50.9999984436036,2|10,0:0|0:0,0:0:0:0:
58,89,154723,6,0,P|48:117|49:152,1,50.9999984436036,2|2,1:0|0:0,0:0:0:0:
105,194,154977,2,0,P|115:222|114:257,1,50.9999984436036,2|2,1:0|0:0,0:0:0:0:
96,322,155231,2,0,P|41:326|-2:306,1,101.999996887207,10|2,0:0|0:0,0:0:0:0:
34,232,155613,1,2,0:0:0:0:
34,232,155740,2,0,L|153:251,1,101.999996887207,8|2,0:0|0:0,0:0:0:0:
182,320,156121,1,2,0:0:0:0:
182,320,156248,2,0,L|241:310,1,50.9999984436036,10|0,0:0|0:0,0:0:0:0:
311,331,156503,1,2,0:0:0:0:
339,309,156630,1,10,0:0:0:0:
366,287,156757,6,0,L|384:169,1,101.999996887207,6|2,1:0|1:0,0:0:0:0:
434,118,157138,1,2,0:0:0:0:
434,118,157265,2,0,L|316:100,1,101.999996887207,10|2,0:0|0:0,0:0:0:0:
255,75,157647,1,2,0:0:0:0:
255,75,157774,2,0,P|248:99|249:124,2,50.9999984436036,2|2|2,0:0|0:0|0:0,0:0:0:0:
198,16,158155,1,2,0:0:0:0:
198,16,158282,2,0,P|142:17|77:50,1,101.999996887207,8|2,0:0|0:0,0:0:0:0:
46,96,158664,1,8,0:0:0:0:
46,96,158791,6,0,L|40:160,1,50.9999984436036,2|2,1:0|0:0,0:0:0:0:
110,188,159045,2,0,L|116:252,1,50.9999984436036,2|2,1:0|0:0,0:0:0:0:
45,281,159299,2,0,L|35:382,1,101.999996887207,10|2,0:0|0:0,0:0:0:0:
119,372,159680,1,2,0:0:0:0:
149,355,159808,1,2,0:0:0:0:
184,358,159935,2,0,P|211:372|235:374,1,50.9999984436036,2|0,0:0|0:0,0:0:0:0:
308,347,160189,2,0,L|318:287,1,50.9999984436036,2|8,0:0|0:0,0:0:0:0:
394,273,160443,2,0,L|384:213,1,50.9999984436036,2|0,0:0|0:0,0:0:0:0:
395,142,160697,1,10,0:0:0:0:
395,142,160825,6,0,B|344:131|344:131|274:172,2,101.999996887207,2|2|10,1:0|1:0|0:0,0:0:0:0:
318,285,161587,2,0,L|242:273,1,50.9999984436036,2|0,0:0|1:0,0:0:0:0:
217,267,161842,1,2,0:0:0:0:
86,185,162096,2,0,L|162:173,1,50.9999984436036,2|0,0:0|1:0,0:0:0:0:
185,165,162350,2,0,P|208:120|200:55,1,101.999996887207,10|2,0:0|0:0,0:0:0:0:
182,30,162731,1,8,0:0:0:0:
182,30,162858,6,0,L|291:21,2,101.999996887207,2|2|10,1:0|1:0|0:0,0:0:0:0:
107,99,163620,1,2,0:0:0:0:
158,187,163875,1,2,0:0:0:0:
251,146,164129,2,0,P|276:137|307:139,1,50.9999984436036,2|2,0:0|1:0,0:0:0:0:
345,161,164384,2,0,P|363:206|355:266,1,101.999996887207,10|2,0:0|1:0,0:0:0:0:
323,294,164764,1,0,1:0:0:0:
323,294,164892,5,2,0:0:0:0:
321,161,179130,6,0,B|338:130|338:130|328:77,2,70.1250021400452,2|2|2,1:0|0:0|1:0,0:0:0:0:
304,209,179638,2,0,B|322:239|322:239|373:257,2,70.1250021400452,10|2|2,0:0|0:0|0:0,0:0:0:0:
270,169,180147,2,0,B|234:169|234:169|193:204,2,70.1250021400452,2|2|2,0:0|0:0|0:0,0:0:0:0:
321,161,180655,2,0,L|385:172,1,46.7500014266968,10|0,0:0|1:0,0:0:0:0:
418,167,180909,1,8,0:0:0:0:
429,194,181036,1,8,0:0:0:0:
440,221,181164,6,0,L|431:327,2,93.5000028533936,6|0|8,1:0|1:0|0:0,0:0:0:0:
501,139,181926,2,0,L|494:83,1,46.7500014266968,0|8,1:0|0:0,0:0:0:0:
445,81,182180,2,0,L|452:25,1,46.7500014266968,2|8,1:0|0:0,0:0:0:0:
491,2,182435,1,2,1:0:0:0:
366,50,182689,1,10,0:0:0:0:
268,17,182943,2,0,P|243:8|206:8,1,46.7500014266968,2|0,1:0|0:0,0:0:0:0:
176,27,183197,5,0,1:0:0:0:
115,128,183452,2,0,L|124:227,1,93.5000028533936,2|10,0:0|0:0,0:0:0:0:
118,323,183960,2,0,P|149:313|169:313,1,46.7500014266968,2|10,0:0|0:3,0:0:0:0:
204,281,184214,2,0,P|235:287|253:297,1,46.7500014266968,2|8,1:0|0:3,0:0:0:0:
280,333,184469,1,2,1:0:0:0:
386,369,184723,2,0,P|434:386|483:380,1,93.5000028533936,10|0,0:0|1:0,0:0:0:0:
505,273,185231,6,0,L|512:179,2,93.5000028533936,2|2|10,1:0|1:2|0:0,0:0:0:0:
411,215,185994,2,0,L|403:149,1,46.7500014266968,2|8,0:0|0:0,0:0:0:0:
365,136,186248,2,0,L|299:128,1,46.7500014266968,2|8,1:0|0:0,0:0:0:0:
270,149,186503,1,0,1:0:0:0:
216,245,186757,2,0,B|175:270|175:270|124:259,1,93.5000028533936,10|2,0:0|1:0,0:0:0:0:
72,164,187265,6,0,L|65:64,1,93.5000028533936,0|2,1:0|0:0,0:0:0:0:
144,31,187647,1,0,1:0:0:0:
144,31,187774,2,0,L|150:124,1,93.5000028533936,8|2,0:0|0:0,0:0:0:0:
235,151,188155,1,8,0:0:0:0:
235,151,188282,2,0,L|228:57,1,93.5000028533936,0|10,1:0|0:0,0:0:0:0:
322,14,188791,1,10,0:0:0:0:
360,0,188918,1,8,0:0:0:0:
401,7,189045,1,10,0:0:0:0:
438,27,189172,1,8,0:0:0:0:
458,64,189299,5,0,1:0:0:0:
380,177,189553,2,0,P|364:125|369:76,2,93.5000028533936,2|10|2,1:0|0:0|0:0,0:0:0:0:
425,211,190189,1,8,0:0:0:0:
425,211,190316,2,0,P|434:242|431:272,1,46.7500014266968,2|8,1:0|0:0,0:0:0:0:
411,302,190570,1,2,1:0:0:0:
307,338,190825,2,0,L|206:316,1,93.5000028533936,10|2,0:0|1:0,0:0:0:0:
124,224,191333,5,0,1:0:0:0:
189,144,191587,2,0,P|198:116|196:83,1,46.7500014266968,2|0,1:0|0:0,0:0:0:0:
172,54,191842,2,0,L|76:42,1,93.5000028533936,10|2,0:0|0:0,0:0:0:0:
44,80,192223,1,8,0:3:0:0:
44,80,192350,2,0,P|45:103|53:125,1,46.7500014266968,2|8,1:0|0:3,0:0:0:0:
101,143,192604,1,2,1:0:0:0:
218,161,192858,2,0,L|314:149,1,93.5000028533936,10|2,0:0|1:0,0:0:0:0:
391,84,193367,5,0,1:0:0:0:
472,180,193621,1,2,1:0:0:0:
403,308,193875,2,0,P|345:307|297:276,1,93.5000028533936,10|0,0:0|1:0,0:0:0:0:
278,262,194257,1,8,0:3:0:0:
278,262,194384,2,0,P|247:263|209:278,1,46.7500014266968,2|8,1:0|0:3,0:0:0:0:
192,299,194638,1,2,1:0:0:0:
100,253,194892,1,10,0:0:0:0:
89,151,195147,1,2,1:0:0:0:
184,70,195401,6,0,B|204:113|204:113|194:164,1,93.5000028533936,0|2,1:0|0:0,0:0:0:0:
213,211,195782,1,0,1:0:0:0:
213,211,195909,2,0,B|240:172|240:172|289:155,1,93.5000028533936,8|2,0:0|1:0,0:0:0:0:
408,164,196418,2,0,L|455:181,1,46.7500014266968,0|8,1:0|0:0,0:0:0:0:
483,220,196672,1,2,1:0:0:0:
446,315,196926,1,10,0:0:0:0:
345,295,197180,1,8,0:0:0:0:
317,287,197307,1,8,0:0:0:0:
289,279,197435,5,0,1:0:0:0:
206,22,199469,6,0,L|319:35,1,101.999996887207,6|2,1:0|1:0,0:0:0:0:
435,134,199977,2,0,P|420:162|419:201,1,50.9999984436036,10|2,0:0|0:0,0:0:0:0:
335,176,200231,2,0,P|336:207|354:242,1,50.9999984436036,2|2,0:0|0:0,0:0:0:0:
405,287,200486,1,2,1:0:0:0:
405,287,200613,2,0,P|342:267|288:279,1,101.999996887207,2|2,0:0|0:0,0:0:0:0:
250,329,200994,2,0,P|187:349|133:337,1,101.999996887207,8|2,0:0|0:0,0:0:0:0:
86,296,201375,1,10,0:0:0:0:
86,296,201503,6,0,L|34:304,2,50.9999984436036,2|2|2,1:0|0:0|1:0,0:0:0:0:
147,242,201884,1,2,0:0:0:0:
147,242,202011,2,0,L|199:250,1,50.9999984436036,10|2,0:0|0:0,0:0:0:0:
259,196,202265,2,0,L|251:144,1,50.9999984436036,2|2,0:0|0:0,0:0:0:0:
296,78,202519,1,2,1:0:0:0:
296,78,202647,2,0,B|343:55|343:55|410:70,1,101.999996887207,2|2,0:0|0:0,0:0:0:0:
444,127,203028,2,0,L|437:234,1,101.999996887207,8|2,0:0|0:0,0:0:0:0:
357,272,203409,1,10,0:0:0:0:
357,272,203536,6,0,L|350:170,2,101.999996887207,2|2|10,1:0|1:0|0:0,0:0:0:0:
306,337,204172,1,2,0:0:0:0:
306,337,204299,1,2,0:0:0:0:
220,198,204553,2,0,P|170:176|108:186,1,101.999996887207,2|2,1:0|0:0,0:0:0:0:
51,118,204935,1,2,0:0:0:0:
51,118,205062,2,0,P|75:112|97:99,1,50.9999984436036,10|2,0:0|0:0,0:0:0:0:
152,39,205316,2,0,P|176:44|198:57,1,50.9999984436036,2|2,0:0|0:0,0:0:0:0:
280,60,205570,6,0,L|272:127,2,50.9999984436036,2|2|2,1:0|0:0|1:0,0:0:0:0:
356,27,205951,1,2,0:0:0:0:
356,27,206079,2,0,P|401:6|452:9,1,101.999996887207,10|2,0:0|0:0,0:0:0:0:
501,80,206460,1,0,0:0:0:0:
501,80,206587,2,0,P|512:109|507:145,1,50.9999984436036,10|2,0:0|0:0,0:0:0:0:
443,173,206841,2,0,P|432:144|437:108,1,50.9999984436036,2|2,0:0|0:0,0:0:0:0:
350,117,207096,2,0,B|308:147|308:147|258:138,1,101.999996887207,10|2,0:0|0:0,0:0:0:0:
175,164,207477,1,8,0:0:0:0:
175,164,207604,6,0,P|132:140|73:140,1,101.999996887207,6|2,1:0|1:0,0:0:0:0:
20,194,207986,1,2,0:0:0:0:
20,194,208113,2,0,P|20:243|50:294,1,101.999996887207,10|2,0:0|0:0,0:0:0:0:
123,324,208494,1,2,0:0:0:0:
123,324,208621,2,0,L|131:379,2,50.9999984436036,2|0|2,1:0|0:0|0:0,0:0:0:0:
178,263,209003,2,0,L|291:237,1,101.999996887207,2|2,0:0|0:0,0:0:0:0:
346,197,209384,2,0,P|359:222|356:263,1,50.9999984436036,2|10,0:0|0:0,0:0:0:0:
421,298,209638,6,0,P|378:324|327:320,1,101.999996887207,2|2,1:0|1:0,0:0:0:0:
253,348,210019,1,2,0:0:0:0:
253,348,210146,2,0,L|242:283,1,50.9999984436036,10|2,0:0|0:0,0:0:0:0:
179,247,210401,1,2,0:0:0:0:
241,95,210655,1,2,1:0:0:0:
241,95,210782,2,0,B|284:122|284:122|333:111,1,101.999996887207,2|2,0:0|0:0,0:0:0:0:
396,58,211164,2,0,B|439:30|439:30|488:41,1,101.999996887207,8|2,0:0|0:0,0:0:0:0:
507,125,211545,1,10,0:0:0:0:
507,125,211672,6,0,L|486:226,2,101.999996887207,2|2|10,1:0|1:0|0:0,0:0:0:0:
355,186,212435,1,2,0:0:0:0:
296,33,212689,1,2,1:0:0:0:
209,129,212943,2,0,L|213:183,1,50.9999984436036,2|0,0:0|1:0,0:0:0:0:
191,226,213197,2,0,P|136:251|82:238,1,101.999996887207,10|2,0:0|0:0,0:0:0:0:
56,222,213579,1,8,0:0:0:0:
56,222,213706,6,0,B|32:267|32:267|53:344,1,101.999996887207,2|2,1:0|1:0,0:0:0:0:
120,359,214087,1,0,0:0:0:0:
120,359,214214,2,0,L|228:352,1,101.999996887207,10|2,0:0|0:0,0:0:0:0:
271,288,214596,1,0,1:0:0:0:
271,288,214723,2,0,L|379:295,2,101.999996887207,2|2|10,1:0|0:0|0:0,0:0:0:0:
171,158,215486,2,0,P|160:121|168:82,1,50.9999984436036,2|8,0:0|0:0,0:0:0:0:
213,34,215740,6,0,P|262:15|336:28,1,101.999996887207,6|2,1:0|1:0,0:0:0:0:
366,105,216121,1,2,0:0:0:0:
366,105,216248,2,0,P|415:124|489:111,1,101.999996887207,10|2,0:0|0:0,0:0:0:0:
482,216,216630,1,2,0:0:0:0:
482,216,216757,2,0,L|468:275,1,50.9999984436036,2|0,1:0|0:0,0:0:0:0:
385,292,217011,1,2,0:0:0:0:
385,292,217138,2,0,L|399:351,1,50.9999984436036,2|8,0:0|0:0,0:0:0:0:
307,360,217392,1,2,0:0:0:0:
307,360,217519,2,0,P|271:367|238:358,1,50.9999984436036,2|10,0:0|0:0,0:0:0:0:
179,300,217774,6,0,L|170:189,1,101.999996887207,2|2,1:0|1:0,0:0:0:0:
253,145,218155,1,2,0:0:0:0:
253,145,218282,2,0,L|261:246,1,101.999996887207,10|2,0:0|0:0,0:0:0:0:
344,285,218664,2,0,P|380:292|413:283,1,50.9999984436036,2|2,0:0|1:0,0:0:0:0:
466,233,218918,2,0,P|404:209|365:212,1,101.999996887207,2|2,0:0|0:0,0:0:0:0:
349,123,219299,2,0,P|287:147|248:144,1,101.999996887207,8|2,0:0|0:0,0:0:0:0:
177,101,219680,1,10,0:0:0:0:
177,101,219808,6,0,L|169:-4,2,101.999996887207,2|2|10,1:0|1:0|0:0,0:0:0:0:
109,162,220443,1,2,0:0:0:0:
109,162,220570,2,0,L|101:216,1,50.9999984436036,2|0,0:0|0:0,0:0:0:0:
29,269,220825,2,0,P|72:302|120:305,1,101.999996887207,2|2,1:0|0:0,0:0:0:0:
188,245,221206,1,2,0:0:0:0:
188,245,221333,2,0,P|231:212|279:209,1,101.999996887207,10|2,0:0|0:0,0:0:0:0:
359,248,221714,1,10,0:0:0:0:
359,248,221842,6,0,L|354:319,2,50.9999984436036,2|2|2,1:0|0:0|1:0,0:0:0:0:
433,193,222223,1,2,0:0:0:0:
433,193,222350,2,0,L|429:142,1,50.9999984436036,10|2,0:0|0:0,0:0:0:0:
474,61,222604,2,0,P|448:50|405:51,1,50.9999984436036,2|2,0:0|0:0,0:0:0:0:
350,101,222858,2,0,P|324:112|281:111,1,50.9999984436036,10|2,0:0|0:0,0:0:0:0:
214,82,223113,2,0,L|210:132,1,50.9999984436036,2|2,0:0|0:0,0:0:0:0:
119,125,223367,2,0,L|126:226,1,101.999996887207,10|2,0:0|0:0,0:0:0:0:
152,319,223748,1,8,0:0:0:0:
152,319,223875,6,0,P|126:335|97:338,2,50.9999984436036,6|2|2,1:0|0:0|1:0,0:0:0:0:
223,260,224257,1,2,0:0:0:0:
223,260,224384,2,0,P|247:265|268:279,1,50.9999984436036,10|2,0:0|0:0,0:0:0:0:
351,238,224638,2,0,L|359:305,1,50.9999984436036,2|2,0:0|0:0,0:0:0:0:
434,347,224892,1,2,1:0:0:0:
434,347,225019,2,0,L|446:245,1,101.999996887207,2|2,0:0|0:0,0:0:0:0:
506,175,225401,2,0,B|461:149|461:149|405:160,1,101.999996887207,8|2,0:0|0:0,0:0:0:0:
351,227,225782,1,10,0:0:0:0:
351,227,225909,6,0,L|293:218,1,50.9999984436036,2|2,1:0|0:0,0:0:0:0:
272,131,226164,2,0,L|214:140,1,50.9999984436036,2|2,1:0|0:0,0:0:0:0:
142,93,226418,2,0,P|131:122|132:148,1,50.9999984436036,10|2,0:0|0:0,0:0:0:0:
39,147,226672,2,0,P|43:177|57:199,1,50.9999984436036,2|2,0:0|0:0,0:0:0:0:
143,232,226926,1,2,1:0:0:0:
143,232,227053,2,0,P|161:282|155:346,1,101.999996887207,2|2,0:0|0:0,0:0:0:0:
83,383,227435,2,0,P|65:333|71:269,1,101.999996887207,8|2,0:0|0:0,0:0:0:0:
53,194,227816,1,8,0:0:0:0:
53,194,227943,6,0,B|102:206|102:206|165:174,2,101.999996887207,2|0|8,1:0|1:0|0:0,0:0:0:0:
199,82,228706,1,2,0:0:0:0:
263,253,228960,1,2,1:0:0:0:
362,187,229214,2,0,L|415:181,1,50.9999984436036,2|0,0:0|1:0,0:0:0:0:
462,167,229469,2,0,P|481:124|470:61,1,101.999996887207,10|2,0:0|0:0,0:0:0:0:
434,38,229850,1,8,0:0:0:0:
434,38,229977,6,0,L|315:24,2,101.999996887207,2|2|10,1:0|1:0|0:0,0:0:0:0:
373,143,230740,1,2,0:0:0:0:
261,72,230994,1,2,1:0:0:0:
179,132,231248,2,0,L|184:189,1,42.5,2|2,0:0|0:0,0:0:0:0:
190,225,231503,1,2,0:0:0:0:
90,204,231757,1,2,0:0:0:0:
393,300,233409,5,0,1:0:0:0:
383,317,233536,1,8,0:0:0:0:
373,334,233664,2,0,P|327:313|262:319,1,93.5000028533936,0|8,1:0|0:0,0:0:0:0:
204,352,234045,6,0,L|194:248,1,93.5000028533936,6|2,1:0|1:0,0:0:0:0:
65,198,234553,1,8,0:0:0:0:
65,198,234680,2,0,L|75:94,1,93.5000028533936,2|0,0:0|1:0,0:0:0:0:
126,37,235062,2,0,P|155:51|185:53,1,46.7500014266968,2|0,1:0|0:0,0:0:0:0:
193,133,235316,2,0,P|215:127|236:116,1,46.7500014266968,2|0,1:0|1:0,0:0:0:0:
297,58,235570,1,10,0:0:0:0:
297,58,235697,2,0,P|366:38|416:54,1,93.5000028533936,2|8,0:0|0:0,0:0:0:0:
447,99,236079,5,2,1:0:0:0:
414,245,236333,1,2,1:0:0:0:
280,186,236587,2,0,L|273:245,1,46.7500014266968,8|0,0:0|0:0,0:0:0:0:
265,316,236842,1,2,0:0:0:0:
159,212,237096,2,0,L|150:105,2,93.5000028533936,2|2|10,1:0|1:2|0:0,0:0:0:0:
99,306,237858,2,0,P|76:315|45:312,1,46.7500014266968,2|8,0:0|0:0,0:0:0:0:
15,239,238113,6,0,P|4:189|22:134,1,93.5000028533936,2|2,1:0|1:0,0:0:0:0:
67,84,238494,1,2,0:0:0:0:
67,84,238621,2,0,L|131:96,1,46.7500014266968,10|0,0:0|0:0,0:0:0:0:
177,38,238875,2,0,L|222:29,1,46.7500014266968,2|0,0:0|1:0,0:0:0:0:
305,11,239130,2,0,L|296:116,1,93.5000028533936,2|2,1:0|1:0,0:0:0:0:
319,190,239511,1,0,1:0:0:0:
319,190,239638,2,0,P|348:204|378:206,1,46.7500014266968,10|0,0:0|0:0,0:0:0:0:
411,273,239892,2,0,P|382:287|352:289,1,46.7500014266968,2|8,0:0|0:0,0:0:0:0:
274,274,240147,6,0,P|222:255|168:262,1,93.5000028533936,2|0,1:0|1:0,0:0:0:0:
91,178,240655,2,0,P|137:178|180:161,1,93.5000028533936,10|0,0:0|0:0,0:0:0:0:
289,73,241164,2,0,L|276:187,1,93.5000028533936,10|0,0:0|0:0,0:0:0:0:
392,219,241672,2,0,L|381:126,1,93.5000028533936,10|0,0:0|0:0,0:0:0:0:
442,67,242053,1,10,0:0:0:0:
442,67,242180,6,0,B|474:100|474:100|470:167,1,93.5000028533936,6|2,1:0|1:0,0:0:0:0:
433,302,242689,1,8,0:0:0:0:
433,302,242816,2,0,P|384:310|336:288,1,93.5000028533936,2|0,0:0|1:0,0:0:0:0:
291,228,243197,1,2,1:0:0:0:
230,91,243452,1,2,0:0:0:0:
107,152,243706,1,8,0:0:0:0:
107,152,243833,2,0,L|116:258,1,93.5000028533936,2|8,0:0|0:0,0:0:0:0:
60,308,244214,6,0,P|100:285|146:286,1,93.5000028533936,2|2,1:0|1:0,0:0:0:0:
260,356,244723,1,8,0:0:0:0:
260,356,244850,2,0,P|300:378|346:377,1,93.5000028533936,2|0,0:0|1:0,0:0:0:0:
406,317,245231,2,0,L|415:253,1,46.7500014266968,2|0,1:0|0:0,0:0:0:0:
482,222,245486,2,0,L|473:158,1,46.7500014266968,2|0,1:0|1:0,0:0:0:0:
454,94,245740,1,8,0:0:0:0:
454,94,245867,2,0,B|413:70|413:70|357:83,1,93.5000028533936,2|8,0:0|0:0,0:0:0:0:
315,160,246248,6,0,B|274:184|274:184|218:171,1,93.5000028533936,2|2,1:0|1:0,0:0:0:0:
78,246,246757,1,8,0:0:0:0:
78,246,246884,2,0,L|68:152,1,93.5000028533936,2|0,0:0|1:0,0:0:0:0:
20,83,247265,2,0,P|42:71|73:69,1,46.7500014266968,2|0,1:0|0:0,0:0:0:0:
127,13,247519,2,0,P|149:16|170:27,1,46.7500014266968,2|0,1:0|1:0,0:0:0:0:
198,106,247774,2,0,P|241:125|287:122,1,93.5000028533936,8|0,0:0|0:0,0:0:0:0:
372,79,248155,1,8,0:0:0:0:
372,79,248282,6,0,L|365:178,1,93.5000028533936,2|0,1:0|1:0,0:0:0:0:
464,223,248791,2,0,L|457:129,1,93.5000028533936,10|0,0:0|1:0,0:0:0:0:
294,236,249299,2,0,P|334:262|397:257,2,93.5000028533936,2|2|10,1:0|1:0|0:0,0:0:0:0:
200,295,250062,2,0,P|172:286|133:288,1,46.7500014266968,2|10,0:0|0:0,0:0:0:0:
73,304,250316,5,2,1:0:0:0:
171,380,250570,1,2,0:0:0:0:
287,142,251333,1,2,0:0:0:0:
205,200,251587,1,2,0:0:0:0:
50,140,252604,6,0,P|24:72|38:30,2,102,2|2|2,0:0|0:0|0:0,0:0:0:0:
