osu file format v14

[General]
AudioFilename: Konna Sekai Shiritakunakatta.mp3
AudioLeadIn: 1500
PreviewTime: 55233
Countdown: 0
SampleSet: Soft
StackLeniency: 0.2
Mode: 0
LetterboxInBreaks: 0
WidescreenStoryboard: 1

[Editor]
Bookmarks: 347,10915,22165,33074,43813,55403,56255,67164,83527
DistanceSpacing: 1.8
BeatDivisor: 16
GridSize: 16
TimelineZoom: 3.799999

[Metadata]
Title:Konna Sekai, Shiritakunakatta. (Anime Ver.)
TitleUnicode:こんな世界、知りたくなかった。 (Anime Ver.)
Artist:Sawai Miku
ArtistUnicode:沢井美空
Creator:Xilver
Version:Insane
Source:アカメが斬る!
Tags:Akame ga Kill! tv size ending takahiro tetsuya square enix white fox gangan comic joker black red eye girl anigi king blood ice zan slash sword cut head kill death die night raid
BeatmapID:1367854
BeatmapSetID:645510

[Difficulty]
HPDrainRate:6
CircleSize:3.8
OverallDifficulty:9
ApproachRate:9.1
SliderMultiplier:2
SliderTickRate:1

[Events]
//Background and Video events
0,0,"bg.jpg",0,0
//Break Periods
//Storyboard Layer 0 (Background)
//Storyboard Layer 1 (Fail)
//Storyboard Layer 2 (Pass)
//Storyboard Layer 3 (Foreground)
//Storyboard Sound Samples

[TimingPoints]
347,681.818181818182,4,2,1,65,1,0
2818,-200,4,2,1,65,0,0
7165,-83.3333333333333,4,2,1,65,0,0
10403,-50,4,2,1,65,0,0
10574,-50,4,2,1,5,0,0
11256,-50,4,2,1,30,0,0
16710,-100,4,2,1,30,0,0
18074,-83.3333333333333,4,2,1,30,0,0
31327,-200,4,2,1,30,0,0
33074,-66.6666666666667,4,2,1,65,0,0
34437,-58.8235294117647,4,2,1,65,0,0
35801,-66.6666666666667,4,2,1,65,0,0
36653,-100,4,2,1,65,0,0
37165,-58.8235294117647,4,2,1,65,0,0
37165,-58.8235294117647,4,2,1,65,0,0
38187,-50,4,2,1,65,0,0
38528,-45.4545454545455,4,2,1,65,0,0
39210,-66.6666666666667,4,2,1,65,0,0
40574,-58.8235294117647,4,2,1,65,0,0
41256,-83.3333333333333,4,2,1,65,0,0
43642,-100,4,2,1,65,0,0
43983,-66.6666666666667,4,2,1,65,0,0
44835,-100,4,2,1,65,0,0
45347,-66.6666666666667,4,2,1,65,0,0
49097,-100,4,2,1,65,0,0
49437,-66.6666666666667,4,2,1,65,0,0
51483,-58.8235294117647,4,2,1,65,0,0
52165,-83.3333333333333,4,2,1,65,0,0
52847,-83.3333333333333,4,2,4,65,0,0
53528,-25,4,2,1,65,0,0
53869,-10,4,2,1,65,0,0
53954,-10,4,2,1,5,0,0
54892,-200,4,2,4,65,0,0
55318,-200,4,2,4,5,0,0
55403,-200,4,2,4,65,0,0
56255,681.818181818182,4,2,4,65,1,0
56255,-33.3333333333333,4,2,4,65,0,1
61368,-25,4,2,4,65,0,1
67164,-25,4,2,4,65,0,1
68527,-33.3333333333333,4,2,4,65,0,1
69209,-25,4,2,4,65,0,1
69550,-33.3333333333333,4,2,4,65,0,1
72277,-25,4,2,4,65,0,1
72618,-50,4,2,4,65,0,1
73982,-33.3333333333333,4,2,4,65,0,1
75345,-28.5714285714286,4,2,4,65,0,1
76027,-20,4,2,4,65,0,1
77391,-25,4,2,4,65,0,1
78073,-33.3333333333333,4,2,4,65,0,1
80800,-25,4,2,4,65,0,1
82164,-100,4,2,4,65,0,0
83527,-40,4,2,4,65,0,1
86255,-200,4,2,1,65,0,0

[Colours]
Combo1 : 132,0,0
Combo2 : 140,140,140
Combo3 : 0,57,115
Combo4 : 140,0,140

[HitObjects]
45,185,347,5,2,0:0:0:0:
164,84,517,1,0,0:0:0:0:
164,139,858,1,0,0:0:0:0:
137,185,1540,1,0,0:0:0:0:
172,229,1710,5,0,0:0:0:0:
45,131,1880,1,0,0:0:0:0:
45,185,2222,1,0,0:0:0:0:
72,232,2392,5,0,0:0:0:0:
198,134,2562,1,0,0:0:0:0:
180,275,2903,6,0,L|176:258,2,12.5,0|0|2,0:0|0:0|0:0,0:0:0:0:
269,275,3244,1,0,0:0:0:0:
338,321,3585,1,0,0:0:0:0:
447,232,4267,1,0,0:0:0:0:
451,175,4437,6,0,L|455:192,8,12.5
277,155,5460,5,0,0:0:0:0:
330,96,5574,1,0,0:0:0:0:
405,71,5687,1,0,0:0:0:0:
238,57,5801,5,6,0:0:0:0:
151,89,6312,1,0,0:0:0:0:
59,73,6824,1,0,0:0:0:0:
152,323,7165,6,0,P|257:205|468:185,1,359.999989013672,4|0,0:0|0:0,0:0:0:0:
446,54,8528,2,0,P|323:107|455:131,1,359.999989013672
437,268,9892,1,0,0:0:0:0:
359,271,10403,6,0,L|458:282,1,100
214,351,11256,5,2,0:0:0:0:
250,266,11597,1,0,0:0:0:0:
194,192,11937,1,0,0:0:0:0:
230,106,12278,1,0,0:0:0:0:
230,331,12619,5,2,0:0:0:0:
201,263,12960,1,0,0:0:0:0:
246,203,13300,1,0,0:0:0:0:
217,135,13641,1,0,0:0:0:0:
464,36,13983,5,2,0:0:0:0:
430,142,14324,1,0,0:0:0:0:
347,216,14665,1,0,0:0:0:0:
238,238,15006,1,0,0:0:0:0:
483,111,15347,5,2,0:0:0:0:
417,171,15688,1,0,0:0:0:0:
330,189,16029,1,0,0:0:0:0:
240,168,16710,6,0,L|392:143,1,150,2|0,0:0|0:0,0:0:0:0:
444,233,17392,2,0,P|407:207|438:175,1,100
391,314,18074,6,0,P|448:307|488:241,1,119.999996337891,6|0,0:0|0:0,0:0:0:0:
192,305,18756,1,0,0:0:0:0:
322,331,18926,2,0,P|379:338|419:404,1,119.999996337891
366,384,19437,6,0,P|368:322|382:264,2,119.999996337891,2|0|0,0:0|0:0|0:0,0:0:0:0:
413,162,20460,1,0,0:0:0:0:
162,139,20801,5,2,0:0:0:0:
262,132,21142,1,0,0:0:0:0:
345,75,21483,1,0,0:0:0:0:
150,165,22165,5,2,0:0:0:0:
270,157,22506,1,0,0:0:0:0:
369,88,22847,1,0,0:0:0:0:
227,15,23187,1,0,0:0:0:0:
131,181,23528,5,2,0:0:0:0:
275,171,23869,1,0,0:0:0:0:
393,88,24210,1,0,0:0:0:0:
223,0,24550,1,0,0:0:0:0:
131,328,24892,5,2,0:0:0:0:
223,299,25233,1,0,0:0:0:0:
299,198,25574,1,0,0:0:0:0:
255,46,25915,1,0,0:0:0:0:
193,389,26256,5,2,0:0:0:0:
271,304,26597,1,0,0:0:0:0:
289,154,26938,1,0,0:0:0:0:
153,22,27279,1,0,0:0:0:0:
128,117,27619,6,0,P|123:59|100:-19,2,119.999996337891,2|0|0,0:0|0:0|0:0,0:0:0:0:
26,6,28642,1,0,0:0:0:0:
222,294,28983,1,2,0:0:0:0:
145,257,29324,1,0,0:0:0:0:
96,186,29665,1,0,0:0:0:0:
228,273,30347,5,2,0:0:0:0:
167,244,30688,1,0,0:0:0:0:
128,187,31327,6,0,L|131:178,1,6.25,2|0,0:0|0:0,0:0:0:0:
202,130,32051,1,0,0:0:0:0:
237,43,32392,1,0,0:0:0:0:
221,58,32903,1,0,0:0:0:0:
418,86,33074,6,0,P|378:101|336:105,1,75.0000028610231,4|0,1:2|0:0,0:0:0:0:
428,282,33415,2,0,P|418:242|452:200,1,75.0000028610231
444,367,33756,1,8,0:0:0:0:
275,239,33926,2,0,P|325:270|267:282,1,150.000005722046
151,344,34437,6,0,P|232:320|317:321,1,170.000003242493,0|0,1:0|0:0,0:0:0:0:
72,308,34949,1,0,0:0:0:0:
246,377,35119,2,0,P|340:289|328:255,1,170.000003242493,10|0,0:0|0:0,0:0:0:0:
421,243,35631,1,0,0:0:0:0:
181,210,35801,6,0,P|134:165|140:149,1,75.0000028610231,0|0,1:0|0:0,0:0:0:0:
303,298,36142,2,0,P|307:233|291:225,1,75.0000028610231
219,354,36483,1,8,0:0:0:0:
320,120,36653,2,0,P|328:179|340:240,1,100
492,144,37165,6,0,P|446:178|349:136,2,170.000003242493,2|0|8,1:2|0:0|0:0,0:0:0:0:
488,65,38017,1,0,0:0:0:0:
187,168,38187,2,0,P|254:194|294:182,1,100
370,106,38528,6,0,B|254:137|254:137|103:173|50:37|178:-33|234:54,1,440.000013427735,6|8,1:2|0:0,0:0:0:0:
342,169,39551,1,0,0:0:0:0:
168,167,39722,1,0,0:0:0:0:
348,257,39892,6,0,P|408:253|421:242,1,75.0000028610231,2|0,1:2|0:0,0:0:0:0:
179,317,40233,2,0,P|129:283|122:267,1,75.0000028610231
414,315,40574,2,0,P|368:239|372:156,1,170.000003242493,8|0,0:0|0:0,0:0:0:0:
320,382,41256,6,0,P|352:327|349:267,1,119.999996337891,2|0,1:2|0:0,0:0:0:0:
312,203,41767,1,0,0:0:0:0:
176,288,41937,2,0,P|226:311|260:267,1,119.999996337891,8|0,0:0|0:0,0:0:0:0:
69,131,42619,6,0,P|99:130|127:119,1,59.9999981689454,2|0,1:2|0:0,0:0:0:0:
196,184,42960,2,0,P|158:181|125:163,1,59.9999981689454,4|0,3:0|0:0,0:0:0:0:
252,185,43301,1,8,0:0:0:0:
119,275,43472,1,0,0:0:0:0:
173,8,43642,6,0,L|176:90,1,75
268,112,43983,6,0,P|231:108|196:120,1,75.0000028610231,6|0,1:2|0:0,0:0:0:0:
385,158,44324,2,0,L|490:131,1,75.0000028610231
506,104,44665,1,8,0:0:0:0:
489,345,44835,2,0,P|471:307|512:309,1,100
416,384,45347,6,0,P|441:316|396:236,2,150.000005722046,0|0|8,1:0|0:0|1:2,0:0:0:0:
463,78,46199,1,0,0:0:0:0:
318,139,46369,2,0,P|351:144|381:113,1,75.0000028610231
160,384,46710,6,0,P|89:323|106:260,1,150.000005722046,0|0,1:0|0:0,0:0:0:0:
127,200,47222,1,0,0:0:0:0:
259,297,47392,2,0,P|291:235|288:155,1,150.000005722046,8|0,0:2|0:0,0:0:0:0:
261,79,47903,1,0,0:0:0:0:
113,0,48074,6,0,P|127:30|135:71,1,75.0000028610231,4|0,1:2|0:0,0:0:0:0:
165,115,48415,2,0,P|171:78|187:44,1,75.0000028610231
135,189,48756,1,4,3:0:0:0:
394,211,48926,1,0,0:0:0:0:
146,319,49097,6,0,P|170:301|140:295,1,75
45,347,49437,6,0,B|117:410|195:281|254:322,1,225.000008583069,4|0,1:2|0:0,0:0:0:0:
373,263,50119,2,0,P|319:253|301:241,1,75.0000028610231,8|0,0:0|0:0,0:0:0:0:
463,334,50460,2,0,P|478:279|473:259,1,75.0000028610231
406,111,50801,6,0,P|396:164|466:141,1,150.000005722046,0|0,1:0|0:0,0:0:0:0:
512,86,51312,1,0,0:0:0:0:
312,224,51483,2,0,L|481:207,1,170.000003242493,8|0,1:2|0:0,0:0:0:0:
512,248,51994,2,0,L|459:253,1,42.5000008106232
139,372,52165,6,0,B|113:341|119:281|158:260|158:260|171:289|136:322,1,179.999994506836,4|0,1:0|0:0,0:0:0:0:
284,270,52847,6,0,B|304:247|298:201|269:185|269:185|259:208|279:224,1,119.999996337891,8|0,0:0|0:0,0:0:0:0:
250,146,53358,1,2,0:0:0:0:
203,275,53528,6,0,L|402:264,1,200,0|0,1:0|0:0,0:0:0:0:
124,315,53869,6,0,L|380:303,1,250,0|0,1:0|0:0,0:0:0:0:
128,288,54892,6,0,L|197:284,1,62.5,2|0,0:0|0:0,0:0:0:0:
248,200,55403,5,0,3:0:0:0:
161,247,55489,1,0,3:0:0:0:
61,246,55574,1,8,3:2:0:0:
322,99,55744,1,0,0:0:0:0:
52,137,55915,6,0,L|92:133,1,37.5,2|0,0:0|0:0,0:0:0:0:
184,112,56255,6,0,P|106:149|159:37,1,300.000011444092,4|0,0:0|0:0,0:0:0:0:
112,265,56936,2,0,B|199:293|252:225|252:225|261:203|261:203|324:202|345:168|345:168|320:161,1,300.000011444092,8|0,0:0|0:0,0:0:0:0:
429,108,57448,1,0,0:0:0:0:
357,225,57618,6,0,P|366:165|279:147,1,150.000005722046,4|0,3:0|0:0,0:0:0:0:
112,265,57959,2,0,P|103:205|190:187,1,150.000005722046
332,383,58300,2,0,P|350:246|220:237,1,300.000011444092,8|0,0:0|0:0,0:0:0:0:
443,141,58982,6,0,B|431:240|431:240|271:256|271:256|298:283,2,300.000011444092,4|0|8,3:0|0:0|0:0,0:0:0:0:
455,54,59834,1,0,0:0:0:0:
124,63,60005,2,0,P|175:116|240:86,1,150.000005722046,0|2,0:0|0:0,0:0:0:0:
24,43,60345,5,4,3:0:0:0:
371,142,60516,1,0,0:0:0:0:
222,272,60686,1,0,3:0:0:0:
69,266,60857,1,0,0:0:0:0:
70,288,61027,6,0,P|89:319|140:338,1,75.0000028610231,8|0,0:0|0:0,0:0:0:0:
234,282,61198,2,0,P|236:245|257:215,1,75.0000028610231
380,136,61368,6,0,B|405:110|395:76|395:76|347:80|320:153|349:196,1,200,2|0,0:0|0:0,0:0:0:0:
512,242,61709,6,0,B|529:183|529:183|290:335|290:335|347:339,2,400,4|0|8,0:0|0:0|0:0,0:0:0:0:
439,317,62732,1,0,0:0:0:0:
259,186,62902,1,0,0:0:0:0:
195,246,63073,6,0,P|266:276|289:278,1,100,4|0,3:0|0:0,0:0:0:0:
196,125,63243,2,0,P|144:114|105:153,1,100
331,135,63414,2,0,B|423:163|453:36|352:12,1,200,2|0,0:0|0:0,0:0:0:0:
243,329,63755,2,0,B|22:334|22:334|191:277,1,400,8|0,0:0|0:0,0:0:0:0:
435,336,64436,6,0,P|251:274|292:95,1,400,4|0,3:2|0:0,0:0:0:0:
0,210,65118,2,0,B|44:243|44:243|95:229|95:229|132:263|132:263|181:244|181:244|218:282|268:290|321:272|357:225,1,400,8|0,3:2|0:0,0:0:0:0:
447,213,65630,1,0,0:0:0:0:
512,115,65800,1,4,3:0:0:0:
271,201,65970,5,8,0:0:0:0:
512,318,66141,1,0,0:0:0:0:
162,165,66311,5,0,3:0:0:0:
77,116,66397,1,0,3:0:0:0:
27,30,66482,1,4,3:2:0:0:
228,345,66652,1,0,0:0:0:0:
237,350,66823,6,0,P|263:312|277:260,1,100,8|0,0:0|0:0,0:0:0:0:
5,189,66993,2,0,P|13:235|59:240,1,100
213,181,67164,6,0,B|253:161|243:113|243:113|161:91|92:143|69:281|127:327,2,400,4|0|8,3:2|0:0|0:0,0:0:0:0:
189,384,68186,5,2,0:0:0:0:
277,254,68357,1,0,0:0:0:0:
371,316,68527,6,0,P|503:358|522:335,1,150.000005722046,4|0,3:0|0:0,0:0:0:0:
327,26,68868,2,0,B|284:30|217:57|236:129,1,150.000005722046,2|0,0:0|0:0,0:0:0:0:
500,148,69209,6,0,P|459:118|410:112,1,100,8|0,0:0|0:0,0:0:0:0:
318,178,69380,2,0,P|358:207|407:213,1,100
235,67,69550,6,0,B|166:40|106:86|113:133|113:133|143:134|160:99,1,225.000008583069,2|0,0:0|0:0,0:0:0:0:
79,175,69891,6,0,B|183:211|183:211|45:79,1,300.000011444092,4|0,3:0|0:0,0:0:0:0:
202,253,70573,2,0,B|98:289|98:289|235:157,1,300.000011444092,8|0,0:0|0:0,0:0:0:0:
159,101,71084,1,2,0:0:0:0:
223,328,71255,5,0,3:0:0:0:
375,323,71425,1,0,0:0:0:0:
434,139,71595,1,4,3:0:0:0:
288,50,71766,1,0,0:0:0:0:
275,66,71936,6,0,P|309:46|328:5,1,75.0000028610231,8|0,0:0|0:0,0:0:0:0:
446,118,72107,2,0,P|470:159|469:185,1,75.0000028610231
277,284,72277,6,0,B|254:262|268:218|321:211|341:252|341:252|366:320,1,200,4|0,3:0|0:0,0:0:0:0:
443,194,72618,6,0,P|388:271|428:358,2,200,4|0|8,0:0|0:0|0:0,0:0:0:0:
512,140,73641,1,0,0:0:0:0:
406,23,73811,1,0,0:0:0:0:
335,70,73982,6,0,P|443:29|443:-3,1,150.000005722046,4|0,3:2|0:0,0:0:0:0:
71,83,74323,2,0,B|56:128|17:172|109:219,1,150.000005722046
242,206,74664,6,0,P|205:211|180:238,1,75.0000028610231,8|0,0:0|0:0,0:0:0:0:
190,373,74834,2,0,P|226:367|251:340,1,75.0000028610231
402,308,75005,6,0,P|339:305|365:362,1,150.000005722046,0|0,3:0|0:0,0:0:0:0:
468,377,75345,6,0,B|468:303|404:267|404:267|426:207|513:219,1,262.500002503395,4|0,3:0|0:0,0:0:0:0:
495,138,75686,2,0,B|435:164|435:164|372:142|372:142|335:191,1,175.00000166893
183,266,76027,6,0,B|199:305|199:305|217:313|217:313|265:362|265:362|285:264|285:264|298:242|298:242|319:149|319:149|248:172|248:172|219:169|219:169|176:180,1,500,8|0,0:0|0:0,0:0:0:0:
48,18,76709,5,2,3:2:0:0:
34,62,76794,1,0,3:0:0:0:
77,108,76880,1,0,3:0:0:0:
63,171,76965,1,0,3:0:0:0:
111,218,77050,1,0,0:0:0:0:
10,374,77220,1,0,0:0:0:0:
23,384,77391,6,0,B|60:352|60:352|68:300,1,100,8|0,0:0|0:0,0:0:0:0:
186,265,77561,2,0,B|205:333|205:333|234:344,1,100
390,188,77732,6,0,B|406:157|406:157|364:130|364:130|381:247,1,200,2|0,0:0|0:0,0:0:0:0:
295,57,78073,6,0,P|331:126|342:204,2,150.000005722046,4|0|0,3:2|0:0|0:0,0:0:0:0:
416,25,78584,1,0,0:0:0:0:
378,296,78755,2,0,P|356:179|523:188,1,300.000011444092,8|0,0:0|0:0,0:0:0:0:
249,201,79266,1,0,0:0:0:0:
464,375,79436,6,0,B|377:296|377:296|299:382|206:348,2,300.000011444092,4|0|8,3:0|0:0|0:0,0:0:0:0:
486,211,80289,1,0,0:0:0:0:
380,138,80459,1,0,0:0:0:0:
385,25,80630,1,0,0:0:0:0:
0,73,80800,6,0,P|141:21|53:143,1,400,4|0,1:2|0:0,0:0:0:0:
153,344,81482,2,0,P|65:221|208:272,1,400,4|0,0:0|0:0,0:0:0:0:
182,357,81993,1,0,0:0:0:0:
446,124,82164,6,0,P|457:64|399:85,1,150
374,22,82845,2,0,L|377:34,1,12.5,2|0,0:0|0:0,0:0:0:0:
38,32,83016,5,0,0:0:0:0:
120,111,83186,1,0,0:0:0:0:
230,138,83357,1,0,0:0:0:0:
30,313,83527,6,0,P|146:274|272:250,1,250,4|0,3:2|0:0,0:0:0:0:
344,242,84209,2,0,P|262:184|358:158,1,250,8|0,0:0|0:0,0:0:0:0:
433,211,84720,1,0,0:0:0:0:
263,384,84891,6,0,P|305:320|190:212,1,250,4|0,1:3|0:0,0:0:0:0:
49,192,85573,2,0,P|105:186|110:182,1,62.5,8|0,0:0|0:0,0:0:0:0:
463,192,85743,2,0,P|406:186|401:182,1,62.5
241,47,85914,1,0,0:0:0:0:
248,7,86255,6,0,B|227:64|244:103|247:108|251:114|261:147|238:195|238:195|250:233|278:246|278:246|303:211|303:211|298:188|298:188|313:172|313:172|305:150|305:150|312:137,1,381.25,2|0,0:0|0:0,0:0:0:0:
