osu file format v14

[General]
AudioFilename: audio.mp3
AudioLeadIn: 0
PreviewTime: 60064
Countdown: 0
SampleSet: Soft
StackLeniency: 0.7
Mode: 0
LetterboxInBreaks: 0
WidescreenStoryboard: 0

[Editor]
DistanceSpacing: 1
BeatDivisor: 4
GridSize: 32
TimelineZoom: 1.2

[Metadata]
Title:Gomen ne, Iiko ja Irarenai. (Anime ver.)
TitleUnicode:ごめんね、いいコじゃいられない。 (Anime ver.)
Artist:Sawai Miku
ArtistUnicode:沢井美空
Creator:Mordred
Version:Normal
Source:キルラキル
Tags:aniplex trigger ending 1 ed tv size kill la kill
BeatmapID:1530588
BeatmapSetID:724844

[Difficulty]
HPDrainRate:4
CircleSize:3
OverallDifficulty:4
ApproachRate:5
SliderMultiplier:1
SliderTickRate:1

[Events]
//Background and Video events
0,0,"klk.jpg",0,0
//Break Periods
//Storyboard Layer 0 (Background)
//Storyboard Layer 1 (Fail)
//Storyboard Layer 2 (Pass)
//Storyboard Layer 3 (Foreground)
//Storyboard Sound Samples

[TimingPoints]
-1000,387.096774193548,4,2,1,50,1,0
4999,-100,4,2,1,60,0,0
6354,-100,4,2,2,60,0,0
6741,-100,4,2,1,70,0,0
13902,-100,4,2,2,70,0,0
14483,-100,4,2,1,50,0,0
20677,-100,4,2,1,60,0,0
25322,-100,4,2,1,50,0,0
31515,-100,4,2,1,60,0,0
36257,-100,4,2,1,5,0,0
36354,-100,4,2,1,60,0,0
37709,-100,4,2,1,70,0,0
47483,-100,4,2,1,5,0,0
47580,-100,4,2,1,70,0,0
48547,-100,4,2,1,60,0,0
59483,-100,4,2,1,5,0,0
59580,-100,4,2,1,60,0,0
60451,-100,4,2,1,5,0,0
60547,-100,4,2,2,60,0,0
60935,-100,4,2,1,80,0,1
64322,-100,4,2,1,5,0,1
64418,-100,4,2,1,80,0,1
70515,-100,4,2,1,5,0,1
70612,-100,4,2,1,80,0,1
71870,-100,4,2,1,5,0,1
71967,-100,4,2,1,80,0,1
72160,-100,4,2,1,82,0,1
72354,-100,4,2,1,84,0,1
72547,-100,4,2,1,86,0,1
72741,-100,4,2,1,88,0,1
72935,-100,4,2,1,90,0,1
73128,-100,4,2,1,92,0,1
73225,-100,4,2,1,80,0,0
73322,-100,4,2,1,80,0,1
76709,-100,4,2,1,5,0,1
76806,-100,4,2,1,80,0,1
85709,-100,4,2,1,75,0,0
85999,-100,4,2,1,5,0,0
86096,-100,4,2,1,75,0,0
86580,-100,4,2,1,5,0,0
86677,-100,4,2,1,75,0,0
88418,-100,4,2,1,20,0,0

[Colours]
Combo1 : 128,128,192
Combo2 : 255,128,64
Combo3 : 255,128,192
Combo4 : 255,128,128

[HitObjects]
51,134,548,5,6,0:0:0:0:
239,246,2096,1,6,0:0:0:0:
48,352,3644,1,6,0:0:0:0:
131,209,4806,1,8,0:0:0:0:
131,209,4999,5,4,0:0:0:0:
222,250,5386,1,4,0:0:0:0:
313,291,5773,2,0,L|359:311,1,50,0|8,3:0|0:0,0:0:0:0:
451,273,6354,1,12,0:0:0:0:
462,173,6741,6,0,P|464:120|438:73,1,100,6|10,3:2|0:0,0:0:0:0:
393,71,7322,1,2,3:2:0:0:
393,71,7515,2,0,P|348:92|298:89,1,100,2|10,0:0|0:0,0:0:0:0:
236,167,8289,2,0,L|224:275,1,100,2|10,3:2|0:0,0:0:0:0:
179,277,8870,1,2,3:2:0:0:
179,277,9063,2,0,P|134:256|84:259,1,100,2|10,0:0|0:0,0:0:0:0:
14,186,9838,6,0,L|6:77,1,100,2|10,3:2|0:0,0:0:0:0:
52,62,10418,1,0,3:2:0:0:
52,62,10612,2,0,L|56:11,2,50,8|8|8,0:0|0:0|0:0,0:0:0:0:
83,100,11193,5,4,0:0:0:0:
182,108,11580,1,4,0:0:0:0:
281,116,11967,2,0,L|297:178,1,50,0|8,3:0|0:0,0:0:0:0:
321,260,12547,1,8,0:0:0:0:
346,356,12935,2,0,P|248:370|186:350,1,150,4|4,0:0|0:0,0:0:0:0:
115,303,13902,1,2,0:0:0:0:
44,170,14483,6,0,B|95:158|95:158|133:185|198:167,1,150,6|2,3:2|3:2,0:0:0:0:
266,41,15644,1,10,0:0:0:0:
348,97,16031,2,0,B|387:130|387:130|397:228,1,150,2|0,3:2|3:2,0:0:0:0:
409,378,17193,1,8,0:0:0:0:
496,329,17580,6,0,L|480:179,1,150,2|0,3:2|3:0,0:0:0:0:
456,31,18741,1,8,0:0:0:0:
356,21,19128,1,2,3:2:0:0:
160,62,19902,2,0,L|99:76,1,50,0|0,0:0|3:0,0:0:0:0:
63,88,20289,1,8,0:0:0:0:
41,185,20677,6,0,B|27:240|27:240|38:292,1,100,6|8,0:0|0:0,0:0:0:0:
54,328,21257,1,2,0:0:0:0:
183,251,21838,1,8,0:0:0:0:
277,217,22225,2,0,B|332:203|332:203|384:214,1,100,2|8,0:0|0:0,0:0:0:0:
420,230,22806,1,2,0:0:0:0:
389,83,23386,1,8,0:0:0:0:
295,117,23773,6,0,B|240:131|240:131|188:120,1,100,2|8,0:0|0:0,0:0:0:0:
149,106,24354,1,2,0:0:0:0:
16,176,24935,1,2,0:0:0:0:
57,268,25322,6,0,L|224:259,1,150,6|2,3:2|3:2,0:0:0:0:
227,111,26483,1,10,0:0:0:0:
301,44,26870,2,0,P|351:25|447:72,1,150,2|0,3:2|3:0,0:0:0:0:
460,207,28031,1,8,0:0:0:0:
364,237,28418,6,0,B|310:257|310:257|279:362,1,150,2|0,3:2|3:0,0:0:0:0:
134,358,29580,1,8,0:0:0:0:
102,263,29967,1,2,3:2:0:0:
24,78,30741,2,0,L|32:18,1,50,0|0,0:0|3:0,0:0:0:0:
75,5,31129,1,8,0:0:0:0:
172,27,31515,6,0,B|191:75|191:75|181:137,1,100,6|8,0:0|0:0,0:0:0:0:
176,172,32096,1,2,0:0:0:0:
207,318,32677,1,8,0:0:0:0:
306,328,33064,2,0,L|408:339,1,100,2|8,0:0|0:0,0:0:0:0:
453,327,33644,1,2,0:0:0:0:
486,180,34225,1,8,0:0:0:0:
436,93,34612,5,6,0:0:0:0:
362,25,34999,1,10,0:0:0:0:
362,25,35193,1,6,0:0:0:0:
265,139,35773,1,10,0:0:0:0:
265,139,35967,1,6,0:0:0:0:
363,161,36354,1,0,3:2:0:0:
363,161,36547,1,8,3:2:0:0:
372,260,36935,1,0,3:0:0:0:
281,300,37322,1,8,3:2:0:0:
215,226,37709,6,0,P|166:216|105:221,1,100,6|0,3:2|3:2,0:0:0:0:
17,233,38483,2,0,P|7:184|12:123,1,100,0|0,3:0|3:0,0:0:0:0:
31,89,39064,2,0,L|83:86,1,50,6|0,0:0|3:0,0:0:0:0:
175,118,39645,2,0,L|227:115,1,50,0|2,3:0|3:2,0:0:0:0:
266,143,40032,2,0,L|318:146,1,50,0|2,3:2|3:2,0:0:0:0:
357,118,40419,1,0,3:2:0:0:
456,105,40806,6,0,L|470:223,1,100,6|0,3:2|3:2,0:0:0:0:
380,252,41580,2,0,L|366:370,1,100,0|0,3:0|3:0,0:0:0:0:
325,377,42161,2,0,L|268:380,1,50,6|0,0:0|3:0,0:0:0:0:
177,357,42741,2,0,P|166:322|167:302,1,50,0|2,3:0|3:2,0:0:0:0:
185,262,43128,2,0,P|197:227|196:207,1,50,0|2,3:2|3:2,0:0:0:0:
177,167,43515,1,0,3:2:0:0:
192,67,43903,6,0,P|147:53|82:69,1,100,6|0,3:2|3:0,0:0:0:0:
29,138,44678,2,0,P|37:186|22:234,1,100,0|0,3:0|3:0,0:0:0:0:
0,275,45258,2,0,L|5:331,1,50,6|0,0:0|3:0,0:0:0:0:
104,323,45838,2,0,L|108:273,1,50,0|2,3:0|3:2,0:0:0:0:
148,243,46225,2,0,L|152:193,1,50,0|2,3:2|3:2,0:0:0:0:
184,154,46612,1,0,3:2:0:0:
279,117,46999,1,8,0:0:0:0:
279,117,47193,6,0,P|297:168|282:233,1,100,6|2,0:0|3:2,0:0:0:0:
279,259,47773,1,2,0:0:0:0:
300,357,48160,1,2,0:0:0:0:
399,342,48547,6,0,L|416:229,1,100,6|8,3:2|0:0,0:0:0:0:
447,206,49128,1,2,3:2:0:0:
454,56,49709,2,0,L|388:46,1,50,8|0,0:0|3:0,0:0:0:0:
358,68,50096,2,0,L|245:85,1,100,2|8,3:2|0:0,0:0:0:0:
213,62,50677,1,2,3:2:0:0:
65,86,51257,2,0,L|43:152,1,50,8|0,0:0|3:2,0:0:0:0:
58,182,51644,6,0,L|80:297,1,100,2|8,3:2|0:0,0:0:0:0:
105,321,52225,1,2,3:2:0:0:
253,340,52806,2,0,P|252:304|242:272,1,50,8|0,0:0|3:2,0:0:0:0:
217,251,53193,2,0,P|203:206|216:137,1,100,2|8,3:2|0:0,0:0:0:0:
239,114,53773,1,2,3:2:0:0:
385,81,54354,5,8,0:0:0:0:
385,81,54548,2,0,L|434:87,1,50,2|2,3:2|0:0,0:0:0:0:
459,184,55129,1,8,0:0:0:0:
459,184,55323,2,0,L|453:233,1,50,2|2,3:2|0:0,0:0:0:0:
362,274,55902,2,0,L|312:267,1,50,8|2,0:0|3:2,0:0:0:0:
270,242,56289,5,2,3:2:0:0:
211,323,56677,1,8,0:0:0:0:
111,312,57064,1,0,3:2:0:0:
71,220,57451,2,0,L|59:163,1,50,8|0,0:0|3:2,0:0:0:0:
36,73,58031,5,6,0:0:0:0:
36,73,58225,1,6,0:0:0:0:
114,11,58612,1,6,0:0:0:0:
114,11,58806,1,6,0:0:0:0:
213,18,59193,2,0,B|272:24|272:24|297:60,1,100,6|6,0:0|0:0,0:0:0:0:
318,101,59773,1,6,0:0:0:0:
463,64,60354,2,0,L|482:130,1,50,0|8,0:0|0:0,0:0:0:0:
500,209,60935,6,0,B|510:260|510:260|492:323,1,100,6|10,3:2|3:2,0:0:0:0:
406,349,61709,2,0,B|359:335|359:335|308:345,1,100,0|8,3:0|3:2,0:0:0:0:
262,364,62289,1,2,0:0:0:0:
262,364,62483,2,0,L|195:366,1,50,0|2,3:2|0:0,0:0:0:0:
162,373,62870,2,0,L|103:370,1,50,8|0,3:2|0:0,0:0:0:0:
72,339,63257,1,2,3:2:0:0:
62,239,63644,1,10,3:2:0:0:
52,139,64031,6,0,P|55:88|90:38,1,100,2|10,3:2|3:2,0:0:0:0:
180,47,64806,2,0,P|205:89|207:139,1,100,0|8,3:0|3:2,0:0:0:0:
182,181,65386,1,2,0:0:0:0:
182,181,65580,2,0,L|173:249,1,50,0|2,3:2|0:0,0:0:0:0:
203,272,65967,2,0,L|212:340,1,50,8|0,3:2|0:0,0:0:0:0:
242,359,66354,1,2,3:2:0:0:
341,350,66741,1,10,3:2:0:0:
440,341,67128,6,0,L|459:229,1,100,2|10,3:2|3:2,0:0:0:0:
378,179,67902,2,0,L|359:67,1,100,0|8,3:2|3:2,0:0:0:0:
323,46,68483,1,2,0:0:0:0:
323,46,68677,1,0,3:2:0:0:
232,87,69064,1,8,3:2:0:0:
141,46,69451,2,0,L|91:50,1,50,0|2,3:2|0:0,0:0:0:0:
50,79,69838,1,8,3:2:0:0:
21,174,70225,6,0,L|137:167,1,100,6|2,0:0|0:0,0:0:0:0:
161,196,70806,1,0,3:0:0:0:
161,196,70999,1,2,0:0:0:0:
183,293,71386,2,0,L|255:305,1,50,10|6,0:0|0:0,0:0:0:0:
308,366,71967,6,0,L|357:357,1,50,2|2,0:0|0:0,0:0:0:0:
396,326,72354,1,2,0:0:0:0:
396,326,72547,2,0,L|412:279,1,50,2|2,0:0|0:0,0:0:0:0:
405,229,72935,2,0,L|372:191,1,50,2|2,0:0|0:0,0:0:0:0:
322,192,73322,6,0,P|263:197|201:182,1,100,6|8,3:2|3:2,0:0:0:0:
152,120,74096,2,0,P|102:112|53:118,1,100,0|8,3:0|3:2,0:0:0:0:
27,161,74677,1,2,0:0:0:0:
27,161,74870,2,0,L|21:222,1,50,0|2,3:2|0:0,0:0:0:0:
59,243,75257,2,0,L|65:304,1,50,8|2,3:2|0:0,0:0:0:0:
92,333,75644,1,0,3:0:0:0:
191,341,76031,1,8,3:2:0:0:
290,349,76418,6,0,L|303:239,1,100,2|10,3:2|3:2,0:0:0:0:
209,210,77193,2,0,L|196:100,1,100,0|8,3:2|3:2,0:0:0:0:
221,66,77773,1,2,0:0:0:0:
221,66,77967,2,0,P|252:56|285:52,1,50,0|2,3:2|0:0,0:0:0:0:
315,72,78354,2,0,P|339:67|363:59,1,50,8|2,3:2|0:0,0:0:0:0:
411,73,78741,1,0,3:2:0:0:
479,145,79128,1,8,3:2:0:0:
451,240,79515,6,0,L|444:356,1,100,2|10,3:2|3:2,0:0:0:0:
347,361,80289,2,0,L|340:261,1,100,0|8,3:0|3:2,0:0:0:0:
305,224,80870,1,2,0:0:0:0:
305,224,81064,2,0,L|300:161,1,50,0|2,3:2|0:0,0:0:0:0:
256,150,81451,2,0,L|251:87,1,50,8|2,3:2|0:0,0:0:0:0:
215,66,81838,5,0,3:0:0:0:
116,47,82225,1,8,3:2:0:0:
16,35,82612,1,2,3:2:0:0:
16,35,82806,2,0,L|11:94,1,50,4|4,0:0|0:0,0:0:0:0:
83,154,83386,1,2,3:2:0:0:
83,154,83580,2,0,L|88:213,1,50,4|4,0:0|0:0,0:0:0:0:
69,302,84160,6,0,P|101:307|132:302,1,50,6|2,0:0|3:2,0:0:0:0:
160,277,84547,2,0,P|184:275|209:280,1,50,6|2,0:0|3:2,0:0:0:0:
248,312,84935,2,0,P|280:317|311:312,1,50,6|2,0:0|3:2,0:0:0:0:
339,287,85322,2,0,P|363:285|388:290,1,50,6|2,0:0|0:0,0:0:0:0:
435,305,85709,6,0,L|450:189,1,100,6|10,0:0|0:0,0:0:0:0:
410,172,86289,2,0,L|397:72,1,100,2|2,0:0|3:2,0:0:0:0:
352,49,86870,1,10,0:0:0:0:
352,49,87064,1,6,0:0:0:0:
267,101,87451,1,8,0:0:0:0:
267,101,87644,2,0,L|202:106,1,50,8|8,0:0|0:0,0:0:0:0:
169,90,88031,1,8,0:0:0:0:
109,170,88418,5,2,0:0:0:0:
