osu file format v14

[General]
AudioFilename: audio.mp3
AudioLeadIn: 0
PreviewTime: 60064
Countdown: 0
SampleSet: Soft
StackLeniency: 0.5
Mode: 0
LetterboxInBreaks: 0
WidescreenStoryboard: 1

[Editor]
DistanceSpacing: 0.9
BeatDivisor: 4
GridSize: 32
TimelineZoom: 1.4

[Metadata]
Title:Gomen ne, Iiko ja Irarenai. (Anime ver.)
TitleUnicode:ごめんね、いいコじゃいられない。 (Anime ver.)
Artist:Sawai Miku
ArtistUnicode:沢井美空
Creator:Mordred
Version:Hard
Source:キルラキル
Tags:aniplex trigger ending 1 ed tv size kill la kill
BeatmapID:1530586
BeatmapSetID:724844

[Difficulty]
HPDrainRate:5
CircleSize:4
OverallDifficulty:6
ApproachRate:7.5
SliderMultiplier:1.4
SliderTickRate:1

[Events]
//Background and Video events
0,0,"klk.jpg",0,0
//Break Periods
//Storyboard Layer 0 (Background)
//Storyboard Layer 1 (Fail)
//Storyboard Layer 2 (Pass)
//Storyboard Layer 3 (Foreground)
//Storyboard Sound Samples

[TimingPoints]
-1000,387.096774193548,4,2,1,50,1,0
548,-111.111111111111,4,2,1,50,0,0
4999,-111.111111111111,4,2,1,60,0,0
6354,-111.111111111111,4,2,2,60,0,0
6741,-100.0,4,2,1,70,0,0
13902,-100.0,4,2,2,70,0,0
14483,-142.857142857143,4,2,1,50,0,0
20677,-125.0,4,2,1,60,0,0
25322,-142.857142857143,4,2,1,50,0,0
31515,-125.0,4,2,1,60,0,0
36257,-125.0,4,2,1,5,0,0
36354,-125.0,4,2,1,60,0,0
37709,-100.0,4,2,1,70,0,0
47483,-100.0,4,2,1,5,0,0
47580,-100.0,4,2,1,70,0,0
48547,-125.0,4,2,1,60,0,0
59483,-125.0,4,2,1,5,0,0
59580,-125.0,4,2,1,60,0,0
60354,-76.9230769230769,4,2,1,60,0,0
60451,-76.9230769230769,4,2,1,5,0,0
60547,-76.9230769230769,4,2,2,60,0,0
60935,-83.3333333333333,4,2,1,80,0,1
64322,-83.3333333333333,4,2,1,5,0,1
64418,-83.3333333333333,4,2,1,80,0,1
70515,-83.3333333333333,4,2,1,5,0,1
70612,-83.3333333333333,4,2,1,80,0,1
71870,-83.3333333333333,4,2,1,5,0,1
71967,-83.3333333333333,4,2,1,80,0,1
72160,-83.3333333333333,4,2,1,82,0,1
72354,-83.3333333333333,4,2,1,84,0,1
72547,-83.3333333333333,4,2,1,86,0,1
72741,-83.3333333333333,4,2,1,88,0,1
72935,-83.3333333333333,4,2,1,90,0,1
73128,-83.3333333333333,4,2,1,92,0,1
73225,-83.3333333333333,4,2,1,80,0,0
73322,-83.3333333333333,4,2,1,80,0,1
76709,-83.3333333333333,4,2,1,5,0,1
76806,-83.3333333333333,4,2,1,80,0,1
85709,-100.0,4,2,1,75,0,0
85999,-100.0,4,2,1,5,0,0
86096,-100.0,4,2,1,75,0,0
86580,-100.0,4,2,1,5,0,0
86677,-100.0,4,2,1,75,0,0
88418,-100.0,4,2,1,20,0,0

[Colours]
Combo1 : 128,128,192
Combo2 : 255,128,64
Combo3 : 255,128,192
Combo4 : 255,128,128

[HitObjects]
28,98,548,6,0,L|32:184,1,62.9999980773926,6|0,0:0|0:0,0:0:0:0:
109,214,935,2,0,L|113:128,1,62.9999980773926,2|0,0:0|0:0,0:0:0:0:
190,98,1322,2,0,L|194:184,1,62.9999980773926,2|0,0:0|0:0,0:0:0:0:
271,214,1709,2,0,L|275:128,1,62.9999980773926,2|0,0:0|0:0,0:0:0:0:
352,98,2096,6,0,L|438:102,1,62.9999980773926,6|0,0:0|0:0,0:0:0:0:
468,179,2483,2,0,L|382:183,1,62.9999980773926,2|0,0:0|0:0,0:0:0:0:
352,260,2870,2,0,L|438:264,1,62.9999980773926,2|0,0:0|0:0,0:0:0:0:
468,341,3257,2,0,L|382:345,1,62.9999980773926,2|0,0:0|0:0,0:0:0:0:
311,329,3644,6,0,P|276:317|236:314,1,62.9999980773926,6|0,0:0|0:0,0:0:0:0:
156,325,4031,1,2,0:0:0:0:
156,325,4418,2,0,P|145:278|147:255,1,62.9999980773926,0|0,0:0|0:0,0:0:0:0:
171,172,4806,1,8,0:0:0:0:
171,172,4999,5,4,0:0:0:0:
359,155,5386,1,4,0:0:0:0:
251,1,5773,1,0,3:0:0:0:
251,1,5967,1,8,0:0:0:0:
69,58,6354,1,12,0:0:0:0:
32,244,6741,6,0,L|14:338,1,70,6|2,3:2|0:0,0:0:0:0:
112,361,7128,1,10,0:0:0:0:
112,361,7322,1,2,3:2:0:0:
202,308,7515,2,0,L|296:290,1,70,2|2,0:0|0:0,0:0:0:0:
360,348,7902,2,0,L|428:361,1,70,10|2,0:0|0:0,0:0:0:0:
480,269,8289,6,0,P|494:218|489:186,1,70,2|2,3:2|0:0,0:0:0:0:
458,101,8677,1,10,0:0:0:0:
458,101,8870,1,2,3:2:0:0:
382,173,9064,2,0,P|368:224|373:256,1,70,2|2,0:0|0:0,0:0:0:0:
292,312,9451,2,0,P|257:311|224:299,1,70,10|2,0:0|0:0,0:0:0:0:
125,264,9838,6,0,L|111:195,1,70,2|2,3:2|0:0,0:0:0:0:
90,92,10225,1,10,0:0:0:0:
273,19,10612,5,8,0:0:0:0:
322,111,10806,1,8,0:0:0:0:
250,186,11000,1,8,0:0:0:0:
155,141,11193,2,0,B|116:135|116:135|61:142,1,70,4|0,0:0|0:0,0:0:0:0:
47,236,11580,5,4,0:0:0:0:
47,236,11677,1,0,0:0:0:0:
47,236,11773,2,0,L|51:311,1,70,0|0,0:0|3:0,0:0:0:0:
151,336,12160,2,0,P|210:362|294:327,1,140,8|8,0:0|0:0,0:0:0:0:
313,241,12741,1,0,0:0:0:0:
313,241,12838,1,0,0:0:0:0:
313,241,12935,2,0,B|365:252|400:226|400:226|456:242,1,140,4|0,0:0|0:0,0:0:0:0:
512,157,13515,2,0,B|460:168|425:142|425:142|369:158,1,140,4|2,0:0|0:0,0:0:0:0:
226,91,14483,6,0,P|204:52|199:34,2,48.9999985046387,6|2|2,3:2|0:0|0:0,0:0:0:0:
235,163,15064,2,0,P|225:184|210:204,2,48.9999985046387,2|2|2,3:2|0:0|0:0,0:0:0:0:
294,117,15644,2,0,P|318:116|342:119,1,48.9999985046387,10|2,0:0|0:0,0:0:0:0:
416,115,16031,2,0,P|463:91|438:-5,2,146.999995513916,2|0|8,3:2|3:2|0:0,0:0:0:0:
383,181,17386,1,2,0:0:0:0:
383,181,17580,6,0,P|376:223|394:335,1,146.999995513916,2|0,3:2|3:0,0:0:0:0:
316,322,18354,2,0,P|304:264|310:206,1,97.9999970092774,2|8,0:0|0:0,0:0:0:0:
319,153,18935,2,0,L|331:116,2,24.4999992523194,2|2|2,0:0|0:0|3:2,0:0:0:0:
50,28,19902,2,0,P|30:70|28:85,1,48.9999985046387,0|0,0:0|3:0,0:0:0:0:
25,145,20289,1,8,0:0:0:0:
158,41,20677,6,0,P|190:35|237:43,1,56,6|0,0:0|0:0,0:0:0:0:
290,71,21064,1,8,0:0:0:0:
290,71,21257,2,0,P|346:82|404:62,1,112,2|0,0:0|0:0,0:0:0:0:
471,25,21838,1,8,0:0:0:0:
486,192,22225,6,0,P|453:197|406:189,1,56,2|0,0:0|0:0,0:0:0:0:
354,162,22612,1,8,0:0:0:0:
354,162,22805,2,0,P|298:151|239:170,1,112,2|0,0:0|0:0,0:0:0:0:
173,208,23386,1,8,0:0:0:0:
78,346,23773,6,0,P|110:340|157:348,1,56,2|0,0:0|0:0,0:0:0:0:
210,376,24160,1,8,0:0:0:0:
210,376,24353,2,0,P|266:387|324:367,1,112,2|0,0:0|0:0,0:0:0:0:
391,330,24934,1,2,0:0:0:0:
469,205,25322,6,0,P|491:166|496:148,2,48.9999985046387,6|2|2,3:2|0:0|0:0,0:0:0:0:
460,277,25903,2,0,P|470:298|485:318,2,48.9999985046387,2|2|2,3:2|0:0|0:0,0:0:0:0:
401,231,26483,2,0,P|377:230|353:233,1,48.9999985046387,10|2,0:0|0:0,0:0:0:0:
279,245,26870,2,0,P|211:243|154:167,2,146.999995513916,2|0|8,3:2|3:0|0:0,0:0:0:0:
302,175,28225,1,2,0:0:0:0:
302,175,28418,6,0,P|321:109|409:75,1,146.999995513916,2|0,3:2|3:0,0:0:0:0:
351,9,29193,2,0,P|312:23|265:65,1,97.9999970092774,2|8,0:0|0:0,0:0:0:0:
236,124,29773,2,0,L|217:166,2,24.4999992523194,2|2|2,0:0|0:0|3:2,0:0:0:0:
28,333,30741,2,0,P|58:349|93:347,1,48.9999985046387,0|0,0:0|3:0,0:0:0:0:
76,274,31128,1,8,0:0:0:0:
227,346,31515,6,0,B|261:349,1,56,6|0,0:0|0:0,0:0:0:0:
366,359,31902,1,8,0:0:0:0:
366,359,32096,2,0,L|407:238,1,112,2|0,0:0|0:0,0:0:0:0:
430,173,32677,1,8,0:0:0:0:
277,110,33064,6,0,B|243:107,1,56,2|0,0:0|0:0,0:0:0:0:
137,102,33451,1,8,0:0:0:0:
137,102,33645,2,0,L|96:223,1,112,2|0,0:0|0:0,0:0:0:0:
73,287,34226,1,8,0:0:0:0:
20,222,34418,5,0,0:0:0:0:
20,222,34515,1,0,0:0:0:0:
20,222,34612,2,0,L|37:168,1,56,6|2,0:0|0:0,0:0:0:0:
47,85,34999,1,10,0:0:0:0:
105,23,35193,2,0,L|159:6,1,56,6|2,0:0|0:0,0:0:0:0:
234,41,35580,5,2,0:0:0:0:
278,112,35773,1,10,0:0:0:0:
362,110,35967,2,0,P|397:111|441:118,1,56,6|0,0:0|0:0,0:0:0:0:
469,180,36354,1,0,3:2:0:0:
469,180,36547,1,8,3:2:0:0:
451,348,36935,1,0,3:0:0:0:
284,330,37322,1,8,3:2:0:0:
302,163,37709,5,6,3:2:0:0:
302,163,37902,2,0,P|304:120|301:88,1,70,2|0,0:0|3:2,0:0:0:0:
226,41,38289,2,0,P|187:60|161:79,1,70,2|0,0:0|3:0,0:0:0:0:
158,167,38677,2,0,P|193:191|223:204,1,70,2|0,0:0|3:0,0:0:0:0:
146,288,39064,6,0,L|64:297,1,70,6|0,0:0|3:0,0:0:0:0:
122,374,39451,2,0,L|191:381,1,70,2|0,0:0|3:0,0:0:0:0:
279,358,39838,1,2,3:2:0:0:
279,358,40031,1,0,3:2:0:0:
359,315,40225,1,2,3:2:0:0:
359,315,40418,1,0,3:2:0:0:
467,171,40806,5,6,3:2:0:0:
467,171,40999,2,0,L|475:100,1,70,2|0,0:0|3:2,0:0:0:0:
389,51,41387,2,0,L|396:120,1,70,2|0,0:0|3:0,0:0:0:0:
311,171,41774,2,0,L|318:101,1,70,2|0,0:0|3:0,0:0:0:0:
231,31,42160,6,0,P|196:23|155:26,1,70,6|0,0:0|3:0,0:0:0:0:
126,108,42547,2,0,P|161:100|202:103,1,70,2|0,0:0|3:0,0:0:0:0:
231,185,42935,1,2,3:2:0:0:
231,185,43128,1,0,3:2:0:0:
194,268,43322,1,2,3:2:0:0:
194,268,43515,1,0,3:2:0:0:
4,373,43902,5,6,3:2:0:0:
4,373,44096,2,0,P|1:321|6:286,1,70,2|0,0:0|3:0,0:0:0:0:
67,238,44483,2,0,P|70:186|65:151,1,70,2|0,0:0|3:0,0:0:0:0:
10,97,44870,2,0,P|7:45|12:10,1,70,2|0,0:0|3:0,0:0:0:0:
119,6,45257,6,0,L|205:15,1,70,6|0,0:0|3:0,0:0:0:0:
227,95,45644,2,0,L|296:87,1,70,2|0,0:0|3:0,0:0:0:0:
370,33,46031,1,2,3:2:0:0:
370,33,46225,1,0,3:2:0:0:
459,46,46418,1,2,3:2:0:0:
459,46,46612,1,0,3:2:0:0:
500,127,46806,2,0,P|503:169|501:206,1,70,2|8,0:0|0:0,0:0:0:0:
510,323,47193,5,6,0:0:0:0:
303,360,47580,1,2,3:2:0:0:
371,280,47773,1,2,0:0:0:0:
371,280,47967,1,2,3:2:0:0:
335,181,48160,1,2,0:0:0:0:
222,56,48547,6,0,P|191:57|157:54,1,56,6|0,3:2|0:0,0:0:0:0:
81,60,48935,1,8,0:0:0:0:
81,60,49128,2,0,P|70:124|80:193,1,112,2|0,3:2|0:0,0:0:0:0:
111,245,49709,1,8,0:0:0:0:
111,245,49902,1,0,3:0:0:0:
159,314,50096,6,0,P|190:313|224:316,1,56,2|0,3:2|0:0,0:0:0:0:
300,310,50484,1,8,0:0:0:0:
300,310,50677,2,0,P|311:246|301:177,1,112,2|0,3:2|0:0,0:0:0:0:
270,125,51258,1,8,0:0:0:0:
270,125,51451,1,0,3:2:0:0:
311,52,51644,6,0,L|386:44,1,56,2|0,3:2|0:0,0:0:0:0:
450,49,52031,1,8,0:0:0:0:
450,49,52225,2,0,P|448:106|466:179,1,112,2|0,3:2|0:0,0:0:0:0:
491,237,52806,1,8,0:0:0:0:
491,237,52999,1,0,3:2:0:0:
450,310,53193,6,0,L|383:322,1,56,2|0,3:2|0:0,0:0:0:0:
317,285,53580,1,8,0:0:0:0:
317,285,53773,2,0,L|206:274,1,112,2|0,3:2|0:0,0:0:0:0:
170,197,54354,1,8,0:0:0:0:
93,163,54547,1,2,3:2:0:0:
93,163,54741,6,0,P|58:213|54:271,1,112,2|8,0:0|0:0,0:0:0:0:
94,335,55322,1,2,3:2:0:0:
94,335,55515,2,0,P|129:285|133:227,1,112,2|8,0:0|0:0,0:0:0:0:
93,163,56096,1,2,3:2:0:0:
93,163,56289,5,2,3:2:0:0:
160,8,56677,1,8,0:0:0:0:
315,75,57064,1,0,3:2:0:0:
248,230,57451,2,0,L|211:289,1,56,8|0,0:0|3:2,0:0:0:0:
384,330,58031,5,6,0:0:0:0:
384,330,58225,2,0,L|430:267,1,56,6|0,0:0|3:0,0:0:0:0:
484,195,58612,1,6,0:0:0:0:
484,195,58806,1,6,0:0:0:0:
348,95,59193,1,6,0:0:0:0:
248,230,59581,1,6,0:0:0:0:
248,230,59773,1,6,0:0:0:0:
69,73,60354,6,0,B|98:49|98:49|124:58|166:50,1,90.9999958343508,0|8,0:0|0:0,0:0:0:0:
373,54,60935,5,6,3:2:0:0:
433,13,61129,1,2,0:0:0:0:
490,58,61322,1,10,3:2:0:0:
465,128,61515,2,0,L|470:221,1,83.9999974365235,2|0,0:0|3:0,0:0:0:0:
367,286,61902,2,0,L|371:202,1,83.9999974365235,2|8,0:0|3:2,0:0:0:0:
265,132,62289,6,0,P|249:177|244:231,1,83.9999974365235,2|0,0:0|3:2,0:0:0:0:
237,339,62677,1,2,0:0:0:0:
237,339,62870,1,8,3:2:0:0:
111,352,63064,1,0,0:0:0:0:
111,352,63257,2,0,L|94:240,1,83.9999974365235,2|0,3:2|0:0,0:0:0:0:
135,149,63644,2,0,L|137:35,1,83.9999974365235,10|0,3:2|0:0,0:0:0:0:
261,83,64031,6,0,P|310:56|361:56,1,83.9999974365235,2|0,3:2|0:0,0:0:0:0:
462,64,64418,1,10,3:2:0:0:
462,64,64612,2,0,P|470:117|473:175,1,83.9999974365235,2|0,0:0|3:0,0:0:0:0:
360,206,64999,2,0,P|352:259|349:317,1,83.9999974365235,2|8,0:0|3:2,0:0:0:0:
245,360,65386,1,2,0:0:0:0:
245,360,65580,1,0,3:2:0:0:
237,234,65773,1,2,0:0:0:0:
237,234,65967,2,0,P|236:188|252:137,1,83.9999974365235,8|0,3:2|0:0,0:0:0:0:
198,34,66354,5,2,3:2:0:0:
141,84,66547,1,2,0:0:0:0:
66,71,66741,1,10,3:2:0:0:
61,146,66935,1,2,0:0:0:0:
17,209,67128,6,0,P|9:265|46:369,1,167.999994873047,2|10,3:2|3:2,0:0:0:0:
122,276,67709,2,0,P|165:266|236:280,1,83.9999974365235,2|0,0:0|3:2,0:0:0:0:
316,326,68096,2,0,P|359:336|430:322,1,83.9999974365235,2|8,0:0|3:2,0:0:0:0:
500,258,68483,2,0,P|510:215|495:144,1,83.9999974365235,2|0,0:0|3:2,0:0:0:0:
394,116,68870,2,0,P|384:159|398:230,1,83.9999974365235,2|8,0:0|3:2,0:0:0:0:
276,259,69257,2,0,P|234:261|193:251,1,83.9999974365235,2|0,0:0|3:2,0:0:0:0:
111,159,69644,2,0,P|68:149|-3:163,2,83.9999974365235,2|8|2,0:0|3:2|0:2,0:0:0:0:
230,117,70225,5,6,0:0:0:0:
230,117,70612,2,0,L|326:107,1,83.9999974365235,2|0,0:0|3:0,0:0:0:0:
439,93,70999,1,2,0:0:0:0:
484,340,71386,1,10,0:0:0:0:
484,340,71580,5,6,0:0:0:0:
232,349,71967,1,2,0:0:0:0:
143,286,72160,1,2,0:0:0:0:
154,178,72354,1,2,0:0:0:0:
254,134,72547,1,2,0:0:0:0:
343,199,72741,1,2,0:0:0:0:
332,309,72935,2,0,B|304:341|304:341|262:360,1,83.9999974365235,2|2,0:0|0:0,0:0:0:0:
149,330,73322,5,6,3:2:0:0:
149,330,73515,2,0,L|144:237,1,83.9999974365235,2|8,0:0|3:2,0:0:0:0:
51,160,73902,2,0,L|55:243,1,83.9999974365235,2|0,0:0|3:0,0:0:0:0:
139,149,74289,2,0,L|134:56,1,83.9999974365235,2|8,0:0|3:2,0:0:0:0:
252,17,74677,5,2,0:0:0:0:
252,17,74870,1,0,3:2:0:0:
371,56,75064,1,2,0:0:0:0:
371,56,75257,1,8,3:2:0:0:
367,182,75451,2,0,P|359:240|371:281,1,83.9999974365235,2|0,0:0|3:0,0:0:0:0:
436,368,75838,2,0,P|388:382|340:375,1,83.9999974365235,2|8,0:0|3:2,0:0:0:0:
235,337,76225,1,2,0:0:0:0:
235,337,76418,6,0,L|127:331,1,83.9999974365235,2|0,3:2|0:0,0:0:0:0:
53,250,76806,1,10,3:2:0:0:
53,250,76999,2,0,L|161:244,1,83.9999974365235,2|0,0:0|3:2,0:0:0:0:
235,163,77386,2,0,L|127:157,1,83.9999974365235,2|8,0:0|3:2,0:0:0:0:
59,71,77773,5,2,0:0:0:0:
59,71,77967,1,0,3:2:0:0:
7,185,78160,1,2,0:0:0:0:
7,185,78354,1,8,3:2:0:0:
33,307,78547,2,0,P|84:324|132:321,1,83.9999974365235,2|0,0:0|3:2,0:0:0:0:
230,275,78935,2,0,P|271:277|310:292,1,83.9999974365235,2|8,0:0|3:2,0:0:0:0:
404,376,79322,1,2,0:0:0:0:
503,299,79515,6,0,L|512:205,1,83.9999974365235,2|2,3:2|0:0,0:0:0:0:
484,91,79902,1,10,3:2:0:0:
393,178,80096,2,0,L|284:184,1,83.9999974365235,2|0,0:0|3:0,0:0:0:0:
208,106,80483,2,0,L|317:112,1,83.9999974365235,2|8,0:0|3:2,0:0:0:0:
393,22,80870,6,0,L|284:28,1,83.9999974365235,2|0,0:0|3:2,0:0:0:0:
197,30,81257,2,0,L|114:26,1,83.9999974365235,2|8,0:0|3:2,0:0:0:0:
16,105,81644,2,0,L|99:109,1,83.9999974365235,2|0,0:0|3:0,0:0:0:0:
198,188,82031,2,0,L|114:192,1,83.9999974365235,2|8,0:0|3:2,0:0:0:0:
78,313,82419,1,2,0:0:0:0:
78,313,82612,1,2,3:2:0:0:
185,379,82806,5,4,0:0:0:0:
279,295,82999,2,0,P|317:272|444:294,1,167.999994873047,4|2,0:0|3:2,0:0:0:0:
398,166,83580,1,4,0:0:0:0:
504,98,83773,2,0,P|492:51|470:17,1,83.9999974365235,4|2,0:0|0:0,0:0:0:0:
347,33,84160,5,6,0:0:0:0:
347,33,84354,1,2,3:2:0:0:
265,128,84547,1,6,0:0:0:0:
265,128,84741,1,2,3:2:0:0:
306,246,84935,1,6,0:0:0:0:
306,246,85129,1,2,3:2:0:0:
183,223,85322,1,6,0:0:0:0:
183,223,85516,1,2,0:0:0:0:
145,101,85709,6,0,P|128:62|19:27,1,140,6|10,0:0|0:0,0:0:0:0:
45,126,86289,2,0,L|35:277,1,140,2|2,0:0|3:2,0:0:0:0:
122,325,86870,1,10,0:0:0:0:
122,325,87064,1,6,0:0:0:0:
178,122,87451,5,8,0:0:0:0:
178,122,87645,1,8,0:0:0:0:
268,70,87838,1,8,0:0:0:0:
268,70,88031,1,8,0:0:0:0:
436,194,88418,5,2,0:0:0:0:
