osu file format v14

[General]
AudioFilename: audio.mp3
AudioLeadIn: 0
PreviewTime: 60064
Countdown: 0
SampleSet: Soft
StackLeniency: 0.6
Mode: 0
LetterboxInBreaks: 0
WidescreenStoryboard: 1

[Editor]
DistanceSpacing: 1
BeatDivisor: 4
GridSize: 32
TimelineZoom: 1.4

[Metadata]
Title:Gomen ne, Iiko ja Irarenai. (Anime ver.)
TitleUnicode:ごめんね、いいコじゃいられない。 (Anime ver.)
Artist:Sawai Miku
ArtistUnicode:沢井美空
Creator:Mordred
Version:Insane
Source:キルラキル
Tags:aniplex trigger ending 1 ed tv size kill la kill
BeatmapID:1530587
BeatmapSetID:724844

[Difficulty]
HPDrainRate:6
CircleSize:4.2
OverallDifficulty:8
ApproachRate:8.5
SliderMultiplier:1.6
SliderTickRate:1

[Events]
//Background and Video events
0,0,"klk.jpg",0,0
//Break Periods
//Storyboard Layer 0 (Background)
//Storyboard Layer 1 (Fail)
//Storyboard Layer 2 (Pass)
//Storyboard Layer 3 (Foreground)
//Storyboard Sound Samples

[TimingPoints]
-1000,387.096774193548,4,2,1,50,1,0
548,-111.111111111111,4,2,1,50,0,0
4999,-111.111111111111,4,2,1,60,0,0
6354,-111.111111111111,4,2,2,60,0,0
6741,-100,4,2,1,70,0,0
13902,-100,4,2,2,70,0,0
14483,-142.857142857143,4,2,1,50,0,0
20677,-125,4,2,1,60,0,0
25322,-142.857142857143,4,2,1,50,0,0
31515,-125,4,2,1,60,0,0
36257,-125,4,2,1,5,0,0
36354,-125,4,2,1,60,0,0
37709,-100,4,2,1,70,0,0
47483,-100,4,2,1,5,0,0
47580,-100,4,2,1,70,0,0
48547,-125,4,2,1,60,0,0
59483,-125,4,2,1,5,0,0
59580,-125,4,2,1,60,0,0
60354,-76.9230769230769,4,2,1,60,0,0
60451,-76.9230769230769,4,2,1,5,0,0
60547,-76.9230769230769,4,2,2,60,0,0
60935,-83.3333333333333,4,2,1,80,0,1
64322,-83.3333333333333,4,2,1,5,0,1
64418,-83.3333333333333,4,2,1,80,0,1
70515,-83.3333333333333,4,2,1,5,0,1
70612,-83.3333333333333,4,2,1,80,0,1
71870,-83.3333333333333,4,2,1,5,0,1
71967,-83.3333333333333,4,2,1,80,0,1
72160,-83.3333333333333,4,2,1,82,0,1
72354,-83.3333333333333,4,2,1,84,0,1
72547,-83.3333333333333,4,2,1,86,0,1
72741,-83.3333333333333,4,2,1,88,0,1
72935,-83.3333333333333,4,2,1,90,0,1
73128,-83.3333333333333,4,2,1,92,0,1
73225,-83.3333333333333,4,2,1,80,0,0
73322,-83.3333333333333,4,2,1,80,0,1
76709,-83.3333333333333,4,2,1,5,0,1
76806,-83.3333333333333,4,2,1,80,0,1
85709,-100,4,2,1,75,0,0
85999,-100,4,2,1,5,0,0
86096,-100,4,2,1,75,0,0
86580,-100,4,2,1,5,0,0
86677,-100,4,2,1,75,0,0
88418,-100,4,2,1,20,0,0

[Colours]
Combo1 : 128,128,192
Combo2 : 255,128,64
Combo3 : 255,128,192
Combo4 : 255,128,128

[HitObjects]
33,95,354,6,0,B|19:61,2,26.6666666666667,0|0|0,3:0|3:0|3:0,3:0:0:0:
33,95,548,6,0,L|106:89,1,71.9999978027344,6|0,0:0|0:0,0:0:0:0:
184,178,935,2,0,L|111:172,1,71.9999978027344,2|0,0:0|0:0,0:0:0:0:
33,261,1322,2,0,L|106:255,1,71.9999978027344,2|0,0:0|0:0,0:0:0:0:
184,344,1709,2,0,L|111:338,1,71.9999978027344,2|0,0:0|0:0,0:0:0:0:
328,344,2096,6,0,L|399:338,1,71.9999978027344,6|0,0:0|0:0,0:0:0:0:
479,261,2483,2,0,L|407:255,1,71.9999978027344,2|0,0:0|0:0,0:0:0:0:
328,178,2870,2,0,L|399:172,1,71.9999978027344,2|0,0:0|0:0,0:0:0:0:
479,95,3257,2,0,L|407:89,1,71.9999978027344,2|0,0:0|0:0,0:0:0:0:
256,0,3644,6,0,L|256:80,1,71.9999978027344,6|0,0:0|0:0,0:0:0:0:
263,199,4031,1,2,0:0:0:0:
263,199,4418,1,0,0:0:0:0:
263,199,4612,1,0,0:0:0:0:
146,168,4806,1,8,0:0:0:0:
379,229,4999,5,4,0:0:0:0:
379,229,5386,1,4,0:0:0:0:
379,229,5773,1,0,3:0:0:0:
403,376,5967,1,8,0:0:0:0:
356,83,6354,1,12,0:0:0:0:
14,283,6741,6,0,L|113:292,1,80,6|2,3:2|0:0,0:0:0:0:
229,206,7128,1,10,0:0:0:0:
69,194,7322,1,2,3:2:0:0:
192,298,7515,2,0,P|233:304|285:296,1,80,2|2,0:0|0:0,0:0:0:0:
271,112,7902,2,0,P|231:108|192:114,1,80,10|2,0:0|0:0,0:0:0:0:
389,218,8289,6,0,L|405:129,1,80,2|2,3:2|0:0,0:0:0:0:
502,12,8677,1,10,0:0:0:0:
507,171,8870,1,2,3:2:0:0:
406,44,9064,2,0,P|354:36|307:46,1,80,2|2,0:0|0:0,0:0:0:0:
141,54,9451,2,0,P|193:62|240:52,1,80,10|2,0:0|0:0,0:0:0:0:
49,18,9838,6,0,L|56:117,1,80,2|2,3:2|0:0,0:0:0:0:
148,202,10225,1,10,0:0:0:0:
0,262,10418,1,0,3:2:0:0:
126,361,10612,5,8,0:0:0:0:
50,178,10806,1,8,0:0:0:0:
246,203,10999,1,8,0:0:0:0:
34,291,11193,5,4,0:0:0:0:
189,337,11580,5,4,0:0:0:0:
189,337,11677,1,0,0:0:0:0:
189,337,11774,1,0,0:0:0:0:
336,274,11967,5,0,3:0:0:0:
181,196,12160,1,8,0:0:0:0:
491,352,12547,2,0,L|503:389,3,40,8|0|0|0,0:0|0:0|0:0|0:0,0:0:0:0:
441,266,12935,1,4,0:0:0:0:
436,246,13031,1,0,0:0:0:0:
434,226,13128,1,0,0:0:0:0:
435,206,13225,1,0,0:0:0:0:
438,186,13322,1,0,0:0:0:0:
443,167,13418,1,0,0:0:0:0:
450,148,13515,5,4,0:0:0:0:
64,224,13902,5,2,0:0:0:0:
409,242,14483,6,0,L|420:298,2,55.9999982910157,6|2|2,3:2|0:0|0:0,0:0:0:0:
325,288,15064,2,0,L|315:344,2,55.9999982910157,2|2|2,3:2|0:0|0:0,0:0:0:0:
256,224,15644,1,10,0:0:0:0:
256,224,15838,1,2,0:0:0:0:
102,243,16031,6,0,L|89:311,2,55.9999982910157,2|0|0,3:2|0:0|0:0,0:0:0:0:
186,289,16612,2,0,L|199:357,2,55.9999982910157,0|0|0,3:2|0:0|0:0,0:0:0:0:
256,224,17193,1,8,0:0:0:0:
256,224,17386,1,2,0:0:0:0:
122,145,17580,6,0,L|109:77,2,55.9999982910157,2|0|0,3:2|0:0|0:0,0:0:0:0:
181,22,18160,1,0,3:0:0:0:
181,22,18354,2,0,P|226:11|293:37,1,111.999996582031,2|8,0:0|0:0,0:0:0:0:
232,111,18935,1,2,0:0:0:0:
232,111,19031,1,2,0:0:0:0:
232,111,19128,1,2,3:2:0:0:
437,59,19902,5,0,0:0:0:0:
512,80,20096,1,0,3:0:0:0:
362,38,20289,1,8,0:0:0:0:
312,288,20677,6,0,P|335:320|369:343,1,64,6|0,0:0|0:0,0:0:0:0:
355,220,21064,1,8,0:0:0:0:
266,359,21258,2,0,P|243:327|209:304,1,64,2|0,0:0|0:0,0:0:0:0:
141,276,21645,1,0,0:0:0:0:
144,192,21838,1,8,0:0:0:0:
144,192,22225,6,0,P|105:196|68:214,1,64,2|0,0:0|0:0,0:0:0:0:
180,261,22612,1,8,0:0:0:0:
106,117,22806,2,0,P|145:113|182:95,1,64,2|0,0:0|0:0,0:0:0:0:
232,41,23193,1,0,0:0:0:0:
311,95,23386,1,8,0:0:0:0:
311,95,23773,6,0,P|327:59|330:18,1,64,2|0,0:0|0:0,0:0:0:0:
226,91,24160,1,8,0:0:0:0:
403,107,24353,1,2,0:0:0:0:
403,107,24741,1,0,0:0:0:0:
479,262,24935,2,0,L|487:338,1,64,2|0,0:0|0:0,0:0:0:0:
308,347,25322,6,0,L|236:351,2,55.9999982910157,6|2|2,3:2|0:0|0:0,0:0:0:0:
289,249,25902,2,0,L|233:245,2,55.9999982910157,2|2|2,3:2|0:0|0:0,0:0:0:0:
316,151,26483,1,10,0:0:0:0:
316,151,26677,1,2,0:0:0:0:
406,30,26870,6,0,L|478:26,2,55.9999982910157,2|0|0,3:2|0:0|0:0,0:0:0:0:
425,128,27450,2,0,L|480:131,2,55.9999982910157,0|0|0,3:0|0:0|0:0,0:0:0:0:
398,226,28031,1,8,0:0:0:0:
398,226,28225,1,2,0:0:0:0:
253,134,28418,6,0,L|249:62,2,55.9999982910157,2|0|0,3:2|0:0|0:0,0:0:0:0:
182,187,28999,1,0,3:0:0:0:
182,187,29193,2,0,P|162:230|175:316,1,111.999996582031,2|8,0:0|0:0,0:0:0:0:
209,375,29773,1,2,0:0:0:0:
209,375,29870,1,2,0:0:0:0:
209,375,29967,1,2,3:2:0:0:
451,275,30741,5,0,0:0:0:0:
457,197,30935,1,0,3:0:0:0:
443,351,31128,1,8,0:0:0:0:
200,346,31515,6,0,L|112:349,1,64,6|0,0:0|0:0,0:0:0:0:
56,350,31902,1,8,0:0:0:0:
280,344,32096,1,2,0:0:0:0:
81,256,32677,1,8,0:0:0:0:
81,256,33064,6,0,L|169:259,1,64,2|0,0:0|0:0,0:0:0:0:
225,260,33451,1,8,0:0:0:0:
1,254,33645,1,2,0:0:0:0:
172,162,34225,5,8,0:0:0:0:
118,63,34418,1,0,0:0:0:0:
118,63,34515,1,0,0:0:0:0:
118,63,34612,1,6,0:0:0:0:
59,159,34806,1,2,0:0:0:0:
172,162,34999,1,10,0:0:0:0:
260,2,35193,2,0,L|354:-1,1,64,6|2,0:0|0:0,0:0:0:0:
461,68,35580,1,2,0:0:0:0:
401,169,35773,1,10,0:0:0:0:
448,285,35967,6,0,P|449:326|398:375,1,96,6|0,0:0|0:0,0:0:0:0:
380,378,36354,1,0,3:2:0:0:
308,180,36547,1,8,3:2:0:0:
305,167,36935,1,0,3:0:0:0:
302,154,37322,1,8,3:2:0:0:
297,137,37709,5,6,3:2:0:0:
188,10,37902,2,0,P|147:2|88:-2,1,80,2|0,0:0|3:2,0:0:0:0:
162,166,38289,2,0,P|188:134|222:85,1,80,2|0,0:0|3:0,0:0:0:0:
39,65,38677,2,0,P|52:103|78:157,1,80,2|0,0:0|3:0,0:0:0:0:
163,329,39064,6,0,L|262:322,1,80,6|0,0:0|3:0,0:0:0:0:
366,249,39451,2,0,L|267:242,1,80,2|0,0:0|3:0,0:0:0:0:
163,205,39838,1,2,3:2:0:0:
163,205,40031,1,0,3:2:0:0:
261,113,40225,1,2,3:2:0:0:
261,113,40418,1,0,3:2:0:0:
95,4,40806,5,6,3:2:0:0:
223,49,40999,2,0,P|264:41|323:37,1,80,2|0,0:0|3:2,0:0:0:0:
340,182,41386,2,0,P|312:150|279:101,1,80,2|0,0:0|3:0,0:0:0:0:
397,15,41773,2,0,P|383:54|357:107,1,80,2|0,0:0|3:0,0:0:0:0:
138,177,42161,6,0,L|145:276,1,80,6|0,0:0|3:0,0:0:0:0:
217,380,42548,2,0,L|224:281,1,80,2|0,0:0|3:0,0:0:0:0:
262,177,42935,1,2,3:2:0:0:
262,177,43128,1,0,3:2:0:0:
354,275,43322,1,2,3:2:0:0:
354,275,43515,1,0,3:2:0:0:
500,166,43902,5,6,3:2:0:0:
434,269,44096,2,0,P|386:277|345:274,1,80,2|0,0:0|3:0,0:0:0:0:
269,145,44483,2,0,P|295:175|314:210,1,80,2|0,0:0|3:0,0:0:0:0:
245,349,44870,2,0,P|258:312|278:278,1,80,2|0,0:0|3:0,0:0:0:0:
413,129,45257,6,0,L|420:32,1,80,6|0,0:0|3:0,0:0:0:0:
256,0,45644,2,0,L|261:79,1,80,2|0,0:0|3:0,0:0:0:0:
171,161,46032,1,2,3:2:0:0:
171,161,46225,1,0,3:2:0:0:
84,20,46418,1,2,3:2:0:0:
84,20,46612,1,0,3:2:0:0:
87,116,46806,5,2,0:0:0:0:
6,165,46999,1,8,0:0:0:0:
189,63,47193,6,0,P|230:46|329:78,1,120,6|0,0:0|0:0,0:0:0:0:
324,81,47580,1,2,3:2:0:0:
341,303,47773,1,2,0:0:0:0:
443,183,47967,1,2,3:2:0:0:
221,200,48160,1,2,0:0:0:0:
57,339,48547,6,0,B|46:311|39:250,1,64,6|0,3:2|0:0,0:0:0:0:
51,127,48935,1,8,0:0:0:0:
51,127,49128,2,0,P|85:108|180:93,1,128,2|0,3:2|0:0,0:0:0:0:
314,119,49709,1,8,0:0:0:0:
256,34,49902,1,0,3:0:0:0:
229,176,50096,6,0,L|240:265,1,64,2|0,3:2|0:0,0:0:0:0:
314,119,50483,1,8,0:0:0:0:
201,197,50677,2,0,L|216:333,1,128,2|0,3:2|0:0,0:0:0:0:
347,384,51257,1,8,0:0:0:0:
332,256,51451,1,0,3:2:0:0:
463,315,51644,6,0,L|467:246,1,64,2|0,3:2|0:0,0:0:0:0:
332,256,52031,1,8,0:0:0:0:
492,342,52225,2,0,L|499:207,1,128,2|0,3:2|0:0,0:0:0:0:
427,67,52806,1,8,0:0:0:0:
373,207,52999,1,0,3:2:0:0:
297,53,53193,6,0,L|230:49,1,64,2|0,3:2|0:0,0:0:0:0:
373,207,53580,1,8,0:0:0:0:
293,22,53773,2,0,L|159:14,1,128,2|0,3:2|0:0,0:0:0:0:
70,84,54354,1,8,0:0:0:0:
152,183,54547,5,2,3:2:0:0:
59,325,54741,2,0,P|47:258|29:177,1,128,2|8,0:0|0:0,0:0:0:0:
59,41,55322,5,2,3:2:0:0:
152,183,55516,2,0,P|164:116|182:35,1,128,2|8,0:0|0:0,0:0:0:0:
343,13,56096,1,2,3:2:0:0:
403,204,56289,5,2,3:2:0:0:
403,204,56677,1,8,0:0:0:0:
403,204,57064,1,0,3:2:0:0:
403,204,57451,1,8,0:0:0:0:
306,278,57644,2,0,L|314:348,1,64,0|0,3:2|0:0,0:0:0:0:
160,384,58031,5,6,0:0:0:0:
0,288,58225,1,6,0:0:0:0:
0,288,58418,1,0,3:0:0:0:
163,197,58612,1,6,0:0:0:0:
3,101,58806,1,6,0:0:0:0:
3,101,59193,6,0,P|42:80|116:96,1,96,6|0,0:0|0:0,0:0:0:0:
119,99,59580,1,6,0:0:0:0:
74,322,59773,1,6,0:0:0:0:
74,322,60354,6,0,L|142:312,1,51.999997619629
228,299,60547,1,8,0:0:0:0:
480,352,60935,5,6,3:2:0:0:
451,173,61128,1,2,0:0:0:0:
311,288,61322,1,10,3:2:0:0:
506,356,61515,2,0,L|513:245,1,95.9999970703126,2|0,0:0|3:0,0:0:0:0:
366,104,61902,2,0,L|358:227,1,95.9999970703126,2|8,0:0|3:2,0:0:0:0:
208,304,62289,5,2,0:0:0:0:
208,304,62483,1,0,3:2:0:0:
51,193,62677,1,2,0:0:0:0:
51,193,62871,1,8,3:2:0:0:
34,384,63064,1,0,0:0:0:0:
161,202,63257,2,0,L|172:86,1,95.9999970703126,2|0,3:2|0:0,0:0:0:0:
8,118,63644,2,0,L|-2:1,1,95.9999970703126,10|0,3:2|0:0,0:0:0:0:
173,13,64031,6,0,P|226:2|320:31,1,143.999995605469,2|0,3:2|0:0,0:0:0:0:
326,55,64418,1,10,3:2:0:0:
328,230,64612,2,0,P|324:275|333:329,1,95.9999970703126,2|0,0:0|3:0,0:0:0:0:
512,322,64999,2,0,P|516:277|507:223,1,95.9999970703126,2|8,0:0|3:2,0:0:0:0:
404,82,65387,5,2,0:0:0:0:
404,82,65580,1,0,3:2:0:0:
420,276,65773,1,2,0:0:0:0:
420,276,65967,2,0,L|425:374,1,95.9999970703126,8|0,3:2|0:0,0:0:0:0:
256,384,66354,5,2,3:2:0:0:
74,234,66547,1,2,0:0:0:0:
310,247,66741,1,10,3:2:0:0:
110,375,66935,1,2,0:0:0:0:
321,235,67128,6,0,B|346:211|348:172|348:172|302:125|330:38,1,191.999994140625,2|10,3:2|3:2,0:0:0:0:
128,60,67709,2,0,P|121:109|132:166,1,95.9999970703126,2|0,0:0|3:2,0:0:0:0:
267,322,68096,2,0,P|244:279|211:245,1,95.9999970703126,2|8,0:0|3:2,0:0:0:0:
0,190,68483,2,0,P|42:211|90:219,1,95.9999970703126,2|0,0:0|3:2,0:0:0:0:
293,141,68870,2,0,P|245:148|203:170,1,95.9999970703126,2|8,0:0|3:2,0:0:0:0:
86,353,69257,2,0,P|119:318|141:276,1,95.9999970703126,2|0,0:0|3:2,0:0:0:0:
128,60,69645,1,2,0:0:0:0:
128,60,69838,2,0,P|121:109|132:166,1,95.9999970703126,8|2,3:2|0:2,0:0:0:0:
277,23,70225,6,0,P|334:8|437:38,1,143.999995605469,6|0,0:0|0:0,0:0:0:0:
429,55,70612,1,2,0:0:0:0:
417,167,70806,1,0,3:0:0:0:
511,237,70999,1,2,0:0:0:0:
511,237,71386,1,10,0:0:0:0:
415,24,71580,6,0,P|358:8|254:36,1,143.999995605469,6|0,0:0|0:0,0:0:0:0:
263,54,71967,1,2,0:0:0:0:
271,195,72160,1,2,0:0:0:0:
84,73,72354,1,2,0:0:0:0:
322,124,72547,1,2,0:0:0:0:
152,318,72741,1,2,0:0:0:0:
217,29,72935,1,2,0:0:0:0:
147,335,73128,1,2,0:0:0:0:
448,243,73322,5,6,3:2:0:0:
271,195,73515,2,0,P|210:185|170:187,1,95.9999970703126,2|8,0:0|3:2,0:0:0:0:
43,300,73902,2,0,P|82:252|100:216,1,95.9999970703126,2|0,0:0|3:0,0:0:0:0:
66,50,74289,2,0,P|87:107|109:141,1,95.9999970703126,2|8,0:0|3:2,0:0:0:0:
228,54,74677,5,2,0:0:0:0:
228,54,74870,1,0,3:2:0:0:
372,89,75064,1,2,0:0:0:0:
372,89,75257,1,8,3:2:0:0:
499,29,75451,2,0,P|510:85|508:128,1,95.9999970703126,2|0,0:0|3:0,0:0:0:0:
512,307,75838,2,0,P|501:251|503:208,1,95.9999970703126,2|8,0:0|3:2,0:0:0:0:
372,89,76225,1,2,0:0:0:0:
288,288,76418,6,0,L|140:295,1,143.999995605469,2|0,3:2|0:0,0:0:0:0:
119,318,76806,1,10,3:2:0:0:
4,194,76999,2,0,P|-5:144|5:79,1,95.9999970703126,2|0,0:0|3:2,0:0:0:0:
165,0,77386,2,0,P|174:50|164:115,1,95.9999970703126,2|8,0:0|3:2,0:0:0:0:
76,263,77773,5,2,0:0:0:0:
76,263,77967,1,0,3:2:0:0:
224,176,78160,1,2,0:0:0:0:
224,176,78354,1,8,3:2:0:0:
373,260,78547,2,0,L|494:268,1,95.9999970703126,2|0,0:0|3:2,0:0:0:0:
512,64,78935,2,0,L|391:72,1,95.9999970703126,2|8,0:0|3:2,0:0:0:0:
184,17,79322,5,2,0:0:0:0:
366,167,79515,1,2,3:2:0:0:
130,154,79709,1,2,0:0:0:0:
330,26,79903,1,10,3:2:0:0:
120,165,80096,6,0,P|104:211|110:276,1,95.9999970703126,2|0,0:0|3:0,0:0:0:0:
278,113,80483,2,0,P|293:68|292:21,1,95.9999970703126,2|8,0:0|3:2,0:0:0:0:
181,218,80870,2,0,P|212:254|253:277,1,95.9999970703126,2|0,0:0|3:2,0:0:0:0:
216,58,81257,2,0,P|185:22|144:0,1,95.9999970703126,2|8,0:0|3:2,0:0:0:0:
260,194,81644,2,0,P|307:184|361:147,1,95.9999970703126,2|0,0:0|3:0,0:0:0:0:
137,84,82031,2,0,P|91:92|50:117,1,95.9999970703126,2|8,0:0|3:2,0:0:0:0:
278,113,82419,1,2,0:0:0:0:
278,113,82612,1,2,3:2:0:0:
100,234,82806,5,4,0:0:0:0:
252,26,82999,1,4,0:0:0:0:
49,117,83193,1,2,0:0:0:0:
49,117,83386,1,2,3:2:0:0:
299,143,83580,5,4,0:0:0:0:
6,224,83773,1,4,0:0:0:0:
152,183,83967,1,2,0:0:0:0:
48,52,84160,5,6,0:0:0:0:
79,349,84354,1,2,3:2:0:0:
167,53,84547,5,6,0:0:0:0:
170,322,84741,1,2,3:2:0:0:
283,65,84935,5,6,0:0:0:0:
266,303,85128,1,2,3:2:0:0:
397,87,85322,6,0,L|387:151,1,47.9999985351563,6|0,0:0|0:0,0:0:0:0:
364,293,85515,2,0,L|371:245,1,47.9999985351563,2|0,0:0|0:0,0:0:0:0:
497,125,85709,6,0,L|504:281,1,120,6|0,0:0|0:0,0:0:0:0:
498,272,86096,1,10,0:0:0:0:
378,379,86289,2,0,L|222:386,1,120,2|0,0:0|0:0,0:0:0:0:
231,380,86676,1,2,3:2:0:0:
161,209,86870,1,10,0:0:0:0:
48,356,87064,1,6,0:0:0:0:
48,356,87451,5,8,0:0:0:0:
14,96,87644,1,8,0:0:0:0:
274,62,87838,1,8,0:0:0:0:
308,322,88031,1,8,0:0:0:0:
161,209,88418,5,2,0:0:0:0:
