osu file format v14

[General]
AudioFilename: audio.mp3
AudioLeadIn: 0
PreviewTime: 234379
Countdown: 1
SampleSet: Normal
StackLeniency: 0.7
Mode: 0
LetterboxInBreaks: 0
WidescreenStoryboard: 0

[Editor]
DistanceSpacing: 1.4
BeatDivisor: 4
GridSize: 8
TimelineZoom: 3.099999

[Metadata]
Title:Colorful. (Kamaboko Remix)
TitleUnicode:カラフル。 (Kamaboko Remix)
Artist:Sawai Miku
ArtistUnicode:沢井美空
Creator:Lud5_Beats
Version:Blessing Software
Source:冴えない彼女の育てかた
Tags:Remix SawaiMiku Kamaboko Saekano
BeatmapID:1345715
BeatmapSetID:634171

[Difficulty]
HPDrainRate:6.5
CircleSize:4.1
OverallDifficulty:7.5
ApproachRate:9.3
SliderMultiplier:1.6
SliderTickRate:1

[Events]
//Background and Video events
0,0,"stretched-1366-768-801215.jpg",0,0
//Break Periods
//Storyboard Layer 0 (Background)
//Storyboard Layer 1 (Fail)
//Storyboard Layer 2 (Pass)
//Storyboard Layer 3 (Foreground)
//Storyboard Sound Samples

[TimingPoints]
260,392.16,4,1,0,55,1,0
260,-200,4,1,2,55,0,0
12809,-200,4,1,1,100,0,0
25358,-100,4,1,2,100,0,0
47319,-100,4,1,6,100,0,0
50456,-100,4,1,1,100,0,0
62809,-76.9230769230769,4,1,3,100,0,0
68103,-76.9230769230769,4,1,1,100,0,0
69280,-76.9230769230769,4,1,3,100,0,0
74770,-76.9230769230769,4,1,4,100,0,0
75946,-76.9230769230769,4,1,2,100,0,0
76731,-200,4,1,2,100,0,0
77123,-58.8235294117647,4,1,3,100,0,1
88495,-200,4,1,6,75,0,0
89672,-58.8235294117647,4,1,3,100,0,1
103790,-58.8235294117647,4,1,3,100,0,0
117123,-200,4,1,6,75,0,0
117907,-58.8235294117647,4,1,3,100,0,0
130064,-58.8235294117647,4,1,2,100,0,0
130457,-100,4,1,2,70,0,0
136535,-100,4,1,2,100,0,0
147712,-100,4,1,1,100,0,0
148496,-100,4,1,2,100,0,0
154574,-66.6666666666667,4,1,2,100,0,0
155555,-66.6666666666667,4,1,1,100,0,0
160653,-66.6666666666667,4,1,2,100,0,0
161829,-66.6666666666667,4,1,1,100,0,0
168104,-66.6666666666667,4,1,4,100,0,0
181045,-66.6666666666667,4,1,2,100,0,0
181830,-200,4,1,2,100,0,0
182222,-58.8235294117647,4,1,3,100,0,1
193987,-200,4,1,6,75,0,0
194771,-58.8235294117647,4,1,3,100,0,1
207320,-100,4,1,2,100,0,1
208889,-200,4,1,2,55,0,0
221046,-100,4,1,5,100,0,0
227712,-100,4,1,3,100,0,0
234379,-100,4,1,2,100,0,0
235555,-200,4,1,3,100,0,0
236340,-200,4,1,2,100,0,0
248105,-200,4,1,2,100,0,0
248693,-100,4,1,2,100,0,0
249281,-58.8235294117647,4,1,3,100,0,1
259477,-200,4,1,6,75,0,0
260654,-58.8235294117647,4,1,3,100,0,1
276340,-58.8235294117647,4,1,3,100,0,0
288105,-200,4,1,6,75,0,0
288889,-58.8235294117647,4,1,3,100,0,0
301046,-58.8235294117647,4,1,2,100,0,0
301448,392.156862745098,4,1,0,100,1,0

[Colours]
Combo1 : 128,0,128
Combo2 : 102,70,28
Combo3 : 173,1,18
Combo4 : 0,128,255

[HitObjects]
246,306,260,6,0,B|126:285|90:183|143:96,1,280,0|0,2:0|2:0,2:0:0:0:
266,41,1828,2,0,B|372:69|408:171|365:262,1,280,0|0,2:0|2:0,2:0:0:0:
246,330,3397,2,0,B|201:355|138:326|117:263,1,160,0|0,2:0|2:0,2:0:0:0:
102,190,4377,1,0,0:0:0:0:
139,119,4573,2,0,P|161:96|177:85,1,40
245,70,4965,2,0,B|322:109|316:207,2,160,0|0|0,2:0|2:0|2:0,2:0:0:0:
105,142,6926,6,0,P|126:252|216:288,1,200,0|0,2:0|2:0,2:0:0:0:
340,239,8103,2,0,P|368:105|246:39,1,280,0|0,2:0|2:0,2:0:0:0:
261,37,9671,1,0,0:0:0:0:
256,192,9867,12,0,12416,0:0:0:0:
134,77,12809,5,0,0:0:0:0:
104,94,13005,1,0,0:0:0:0:
77,116,13201,1,0,0:0:0:0:
74,149,13397,1,0,0:0:0:0:
148,237,13593,1,2,0:0:0:0:
173,262,13789,1,0,0:0:0:0:
201,282,13985,2,0,L|165:317,1,40
152,250,14377,5,0,0:0:0:0:
164,237,14475,1,0,0:0:0:0:
177,225,14573,1,0,0:0:0:0:
189,213,14671,1,0,0:0:0:0:
202,201,14769,1,0,0:0:0:0:
214,189,14868,1,0,0:0:0:0:
227,177,14966,1,0,0:0:0:0:
240,164,15064,1,0,0:0:0:0:
254,153,15162,1,2,0:0:0:0:
293,121,15358,2,0,L|328:84,2,40
374,41,15946,5,0,0:0:0:0:
404,58,16142,1,0,0:0:0:0:
431,80,16338,1,0,0:0:0:0:
434,113,16534,1,0,0:0:0:0:
360,201,16730,1,2,0:0:0:0:
335,226,16926,1,0,0:0:0:0:
307,246,17122,1,0,0:0:0:0:
274,241,17318,1,0,0:0:0:0:
200,208,17515,6,0,L|176:193,1,20
128,161,17711,2,0,L|103:146,1,20
154,98,17907,2,0,L|172:88,1,20
235,57,18103,2,0,L|255:46,1,20
286,78,18299,5,2,0:0:0:0:
300,108,18495,1,0,3:0:0:0:
321,137,18691,1,0,3:0:0:0:
353,142,18887,1,0,3:0:0:0:
286,78,19083,6,0,L|315:106,2,40
286,78,19671,1,0,0:0:0:0:
192,80,19868,2,0,L|165:109,2,40,2|0|0,0:0|0:0|0:0,0:0:0:0:
192,80,20456,1,0,0:0:0:0:
111,144,20652,5,0,0:0:0:0:
99,151,20750,1,0,0:0:0:0:
88,160,20848,1,0,0:0:0:0:
80,171,20946,1,0,0:0:0:0:
73,184,21044,1,0,0:0:0:0:
69,197,21142,1,0,0:0:0:0:
67,211,21240,1,0,0:0:0:0:
67,225,21338,1,0,0:0:0:0:
71,265,21436,5,2,0:0:0:0:
148,288,21632,1,0,0:0:0:0:
228,288,21828,1,0,0:0:0:0:
306,269,22024,1,0,0:0:0:0:
378,234,22220,1,0,0:0:0:0:
439,181,22417,1,0,0:0:0:0:
394,114,22613,1,0,0:0:0:0:
269,51,22809,1,0,0:0:0:0:
283,190,23005,1,2,0:0:0:0:
346,54,23201,1,0,0:0:0:0:
222,120,23397,1,0,0:0:0:0:
346,54,23593,1,0,0:0:0:0:
256,192,23789,12,0,25162,0:0:0:0:
125,222,25358,6,0,L|193:147,1,80,4|0,0:0|0:0,0:0:0:0:
239,100,25751,2,0,P|267:149|262:183,2,80,0|0|8,0:0|0:0|0:0,0:0:0:0:
180,168,26338,1,2,0:0:0:0:
125,222,26534,1,0,0:0:0:0:
68,273,26730,1,0,0:0:0:0:
178,288,26926,6,0,L|246:213,1,80
292,166,27319,2,0,P|320:215|315:249,2,80,0|0|8,0:0|0:0|0:0,0:0:0:0:
231,228,27907,1,2,0:0:0:0:
177,283,28103,1,0,0:0:0:0:
122,336,28299,1,0,0:0:0:0:
243,301,28495,5,0,0:0:0:0:
359,152,28691,1,0,0:0:0:0:
178,220,28887,1,0,0:0:0:0:
359,152,29083,1,0,0:0:0:0:
169,134,29279,1,8,0:0:0:0:
359,152,29475,1,2,0:0:0:0:
193,53,29671,1,0,0:0:0:0:
315,40,29868,6,0,L|217:83,1,80
111,128,30260,1,0,0:0:0:0:
308,209,30652,2,0,L|406:252,1,80,0|8,0:0|0:0,0:0:0:0:
512,297,31044,1,2,0:0:0:0:
449,255,31534,6,0,L|407:226,1,40
449,255,32024,2,0,L|356:188,1,80
336,281,32417,2,0,P|274:286|248:263,1,80,8|2,0:0|0:0,0:0:0:0:
200,214,32809,2,0,L|319:104,1,160
468,13,33593,1,0,0:0:0:0:
504,101,33789,2,0,L|438:168,1,80,0|8,0:0|0:0,0:0:0:0:
343,273,34181,1,2,0:0:0:0:
343,273,34574,6,0,L|415:315,2,80
251,230,35162,1,0,0:0:0:0:
164,184,35358,1,0,0:0:0:0:
164,184,35554,2,0,B|100:171|74:99|74:99|132:56|175:57,1,240,8|2,0:0|0:0,0:0:0:0:
278,22,36338,5,2,2:0:0:0:
359,135,36534,1,2,2:0:0:0:
444,246,36730,1,2,2:0:0:0:
311,290,36926,2,0,L|223:320,1,80,2|8,2:0|0:0,3:0:0:0:
235,315,37907,6,0,B|229:339|229:339|182:307,1,80,4|0,0:0|0:0,0:0:0:0:
108,248,38299,2,0,L|48:193,2,80,0|4|8,0:0|0:0|0:0,0:0:0:0:
183,307,38887,1,2,0:0:0:0:
268,350,39083,1,0,0:0:0:0:
354,307,39279,1,4,3:0:0:0:
431,234,39476,6,0,P|424:190|381:165,1,80
313,97,39868,1,0,0:0:0:0:
313,97,40064,2,0,P|283:153|288:190,1,80,4|8,0:0|0:0,0:0:0:0:
397,168,40456,1,4,3:0:0:0:
313,97,40652,1,4,0:0:0:0:
226,168,40848,1,0,0:0:0:0:
154,270,41044,6,0,L|210:326,2,80
92,184,41632,1,4,0:0:0:0:
143,94,41828,1,12,3:0:0:0:
246,71,42025,1,6,0:0:0:0:
331,133,42221,1,0,0:0:0:0:
249,202,42417,1,4,0:0:0:0:
249,202,42613,6,0,L|148:235,1,80
61,224,43005,1,0,0:0:0:0:
135,154,43201,2,0,L|177:237,1,80,4|8,0:0|0:0,0:0:0:0:
116,323,43593,1,2,0:0:0:0:
61,224,43789,1,4,3:0:0:0:
171,225,43985,1,0,0:0:0:0:
291,319,44181,6,0,P|378:299|428:235,1,160,4|0,0:0|0:0,0:0:0:0:
472,156,44770,1,6,0:0:0:0:
436,58,44966,1,8,0:0:0:0:
319,74,45162,2,0,B|290:34|228:117|230:16|171:33,1,160,4|4,0:0|3:0,0:0:0:0:
171,32,45750,5,0,0:0:0:0:
67,229,46142,1,0,0:0:0:0:
171,288,46338,2,0,B|235:320|270:287,1,80,4|8,0:0|0:0,0:0:0:0:
359,300,46730,2,0,P|358:265|333:226,1,80,4|4,3:0|0:0,0:0:0:0:
256,192,47319,12,0,50260,0:0:0:0:
448,224,50456,5,12,3:0:0:0:
434,255,50554,1,0,0:0:0:0:
405,274,50652,1,0,0:0:0:0:
278,292,50848,1,12,0:0:0:0:
244,284,50946,1,0,0:0:0:0:
216,263,51044,1,0,0:0:0:0:
292,160,51240,1,12,0:0:0:0:
318,137,51338,1,0,0:0:0:0:
332,106,51436,1,0,0:0:0:0:
223,37,51632,1,12,0:0:0:0:
191,22,51731,1,0,0:0:0:0:
158,28,51829,1,0,0:0:0:0:
80,129,52025,6,0,L|42:93,2,40,12|0|0,0:0|0:0|0:0,0:0:0:0:
184,202,52417,2,0,L|224:161,2,40,12|0|0,0:0|0:0|0:0,0:0:0:0:
95,294,52809,1,12,0:0:0:0:
126,309,52907,1,0,0:0:0:0:
160,308,53005,5,0,0:0:0:0:
279,261,53201,1,12,0:0:0:0:
386,191,53397,1,4,0:0:0:0:
389,63,53593,2,12,P|336:29|232:55,1,160
167,193,54182,1,4,0:0:0:0:
288,234,54378,1,8,0:0:0:0:
311,108,54574,1,4,0:0:0:0:
187,74,54770,1,8,0:0:0:0:
167,193,54966,2,4,P|212:217|251:223,1,80,4|12,0:0|0:0,0:0:0:0:
265,226,55260,5,0,0:0:0:0:
299,219,55358,1,0,0:0:0:0:
332,209,55456,1,4,0:0:0:0:
364,194,55554,1,8,0:0:0:0:
393,174,55652,1,0,0:0:0:0:
417,149,55750,1,4,0:0:0:0:
437,121,55848,1,0,0:0:0:0:
454,90,55946,2,0,P|445:46|414:30,1,80,12|0,0:0|0:0,0:0:0:0:
335,47,56338,2,0,B|289:63|250:93|205:138,1,160,8|8,0:0|0:0,0:0:0:0:
87,185,56927,5,0,0:0:0:0:
106,58,57123,1,12,0:0:0:0:
205,138,57319,2,4,P|220:179|210:212,1,80,4|12,0:0|0:0,0:0:0:0:
87,185,57711,1,0,0:0:0:0:
106,58,57907,2,4,P|148:35|186:43,1,80,12|4,0:0|0:0,0:0:0:0:
257,91,58299,5,12,0:0:0:0:
283,104,58397,1,0,0:0:0:0:
304,123,58495,1,0,0:0:0:0:
315,148,58593,1,4,0:0:0:0:
315,176,58691,1,8,0:0:0:0:
312,204,58789,1,0,0:0:0:0:
316,231,58887,1,4,0:0:0:0:
333,253,58985,1,0,0:0:0:0:
357,268,59084,1,8,0:0:0:0:
472,212,59280,1,0,0:0:0:0:
414,97,59476,1,12,0:0:0:0:
296,47,59672,5,4,0:0:0:0:
296,47,59868,2,12,P|254:24|216:32,1,80,12|0,0:0|0:0,0:0:0:0:
123,102,60260,1,12,0:0:0:0:
170,220,60456,1,4,0:0:0:0:
284,219,60652,1,12,0:0:0:0:
331,101,60848,1,4,0:0:0:0:
227,27,61044,1,12,0:0:0:0:
142,129,61240,2,4,B|223:128,1,80,4|12,0:0|0:0,0:0:0:0:
253,127,61829,5,8,0:0:0:0:
273,127,62221,1,8,0:0:0:0:
293,127,62613,1,8,0:0:0:0:
381,183,62809,5,0,0:0:0:0:
381,183,62907,1,0,0:0:0:0:
381,183,63005,2,0,P|410:136|398:81,1,103.999995239258,4|2,3:0|0:0,0:0:0:0:
425,18,63397,2,0,P|380:14|332:62,1,103.999995239258,8|2,0:0|0:0,0:0:0:0:
244,148,63789,1,0,0:0:0:0:
381,183,63986,1,2,0:0:0:0:
336,49,64182,2,0,B|345:11|329:-2|329:-2|313:5|297:41,1,103.999995239258,8|2,0:0|0:0,0:0:0:0:
208,58,64476,5,0,0:0:0:0:
208,58,64574,2,0,P|232:104|293:127,1,103.999995239258,0|2,0:0|0:0,0:0:0:0:
420,101,64966,1,8,0:0:0:0:
456,240,65162,1,2,0:0:0:0:
335,164,65358,1,0,0:0:0:0:
216,248,65554,1,2,0:0:0:0:
335,164,65750,2,0,B|307:184|290:183|290:183|282:164|309:135,1,103.999995239258,8|2,0:0|0:0,0:0:0:0:
341,39,66142,6,0,P|437:82|465:176,1,207.999990478516,0|8,0:0|0:0,0:0:0:0:
327,294,66731,2,0,P|231:251|203:157,1,207.999990478516,2|2,0:0|0:0,0:0:0:0:
356,132,67319,2,0,B|383:156|385:173|385:173|367:184|335:164,1,103.999995239258,8|2,0:0|0:0,0:0:0:0:
254,35,67711,2,0,P|200:15|145:48,1,103.999995239258,0|2,0:0|0:0,0:0:0:0:
96,128,68103,5,8,0:0:0:0:
140,127,68201,1,0,0:0:0:0:
179,150,68299,1,4,0:0:0:0:
204,196,68397,1,0,0:0:0:0:
229,236,68495,1,0,0:0:0:0:
267,259,68593,1,0,0:0:0:0:
312,258,68691,1,4,0:0:0:0:
353,237,68789,1,0,0:0:0:0:
377,195,68888,1,8,0:0:0:0:
416,172,68986,1,0,0:0:0:0:
460,173,69084,1,4,0:0:0:0:
89,206,69280,6,0,P|72:249|117:258,1,103.999995239258,4|2,3:0|0:0,0:0:0:0:
162,25,69672,2,0,B|145:-10|124:-10|124:-10|117:5|127:37,1,103.999995239258,8|2,0:0|0:0,0:0:0:0:
236,177,69966,1,0,0:0:0:0:
236,177,70064,2,0,P|235:218|287:222,1,103.999995239258,0|2,0:0|0:0,0:0:0:0:
162,25,70456,2,0,B|145:-10|124:-10|124:-10|117:5|127:38,1,103.999995239258,8|2,0:0|0:0,0:0:0:0:
236,177,70750,1,0,0:0:0:0:
236,177,70848,2,0,L|330:220,1,103.999995239258,0|2,0:0|0:0,0:0:0:0:
510,107,71240,2,0,L|416:64,1,103.999995239258,8|2,0:0|0:0,0:0:0:0:
330,220,71633,2,0,L|232:179,1,103.999995239258,0|2,0:0|0:0,0:0:0:0:
154,73,72025,2,0,B|122:50|104:59|104:59|105:77|129:101,1,103.999995239258,8|2,0:0|0:0,0:0:0:0:
374,96,72319,5,0,0:0:0:0:
349,67,72417,2,0,P|287:42|152:75,1,207.999990478516,8|8,0:0|0:0,0:0:0:0:
208,248,73005,1,0,0:0:0:0:
400,216,73201,1,8,0:0:0:0:
208,248,73397,1,0,0:0:0:0:
360,120,73593,1,8,0:0:0:0:
208,248,73790,1,0,0:0:0:0:
264,56,73986,1,8,0:0:0:0:
208,248,74182,1,0,0:0:0:0:
144,64,74378,1,8,0:0:0:0:
208,248,74574,1,0,0:0:0:0:
242,146,74770,5,8,0:0:0:0:
261,113,74868,1,4,0:0:0:0:
291,100,74966,1,4,0:0:0:0:
321,108,75064,1,4,0:0:0:0:
353,113,75162,1,8,0:0:0:0:
373,93,75260,1,4,0:0:0:0:
385,62,75358,1,4,0:0:0:0:
401,36,75456,1,4,0:0:0:0:
432,32,75554,1,4,0:0:0:0:
432,32,75946,5,0,0:0:0:0:
442,76,76044,1,0,0:0:0:0:
452,120,76142,1,0,0:0:0:0:
462,165,76241,1,0,0:0:0:0:
440,187,76339,5,0,0:0:0:0:
400,209,76437,1,0,0:0:0:0:
361,232,76535,1,0,0:0:0:0:
321,255,76633,1,0,0:0:0:0:
258,263,76731,6,0,P|245:252|203:219,1,60,0|0,0:0|2:0,0:0:0:0:
208,160,77123,6,0,B|168:137|165:112|165:112|179:94|227:73,1,136.000002593994,2|0,0:0|0:0,0:0:0:0:
385,59,77515,2,0,B|428:78|442:96|442:96|439:121|399:144,1,136.000002593994,2|0,0:0|0:0,0:0:0:0:
264,235,77907,2,0,B|183:282|183:282|157:248,1,136.000002593994,6|0,0:0|0:0,0:0:0:0:
132,170,78201,2,0,B|209:119|209:119|235:153,1,136.000002593994
264,235,78495,2,0,P|321:164|306:105,1,136.000002593994,0|2,0:0|0:0,0:0:0:0:
191,18,78888,1,4,0:0:0:0:
147,36,78986,1,0,0:0:0:0:
120,75,79084,2,0,P|99:148|124:204,1,136.000002593994,0|2,0:0|0:0,0:0:0:0:
246,305,79476,2,0,P|312:302|356:252,1,136.000002593994,6|0,0:0|0:0,0:0:0:0:
357,98,79868,5,2,0:0:0:0:
352,96,80064,2,0,B|460:9,2,136.000002593994,0|2|0,0:0|2:0|0:0,0:0:0:0:
155,286,80652,1,2,0:0:0:0:
155,286,80848,2,0,B|50:373,2,136.000002593994,0|10|0,0:0|2:0|0:0,0:0:0:0:
181,262,81339,5,0,0:0:0:0:
209,241,81437,1,2,0:0:0:0:
259,89,81633,1,0,0:0:0:0:
242,125,81731,1,0,0:0:0:0:
261,167,81829,2,0,P|298:207|376:197,1,136.000002593994,2|0,0:0|0:0,0:0:0:0:
461,212,82221,2,0,P|461:157|394:113,1,136.000002593994,2|0,0:0|0:0,0:0:0:0:
348,39,82613,2,0,P|303:86|316:150,1,136.000002593994,6|0,0:0|0:0,0:0:0:0:
460,1,82907,1,0,0:0:0:0:
460,1,83005,2,0,L|372:106,1,136.000002593994,2|0,0:0|0:0,0:0:0:0:
330,118,83397,5,2,0:0:0:0:
330,118,83790,2,0,B|242:67|242:67|165:150,1,204.000003890991,2|0,0:0|0:0,0:0:0:0:
271,206,84182,2,0,B|313:152|313:152|241:109,1,136.000002593994,6|2,0:0|2:0,0:0:0:0:
142,88,84476,1,0,0:0:0:0:
142,88,84574,1,2,2:0:0:0:
192,243,84770,1,2,2:0:0:0:
335,321,84966,1,2,2:0:0:0:
256,277,85162,1,4,0:0:0:0:
211,250,85260,1,0,0:0:0:0:
168,222,85358,1,2,0:0:0:0:
359,97,85554,5,0,0:0:0:0:
247,299,85750,1,6,0:0:0:0:
362,102,85946,1,0,0:0:0:0:
362,102,86045,1,0,0:0:0:0:
362,102,86143,1,2,0:0:0:0:
163,219,86339,1,0,0:0:0:0:
163,219,86437,1,0,0:0:0:0:
163,219,86535,6,0,B|163:155|163:155|147:123|147:123|147:59,1,136.000002593994,2|0,0:0|0:0,0:0:0:0:
310,86,86927,2,0,B|310:150|310:150|326:182|326:182|326:246,1,136.000002593994,2|0,0:0|0:0,0:0:0:0:
183,298,87319,2,0,B|132:325|132:325|87:260,1,136.000002593994,6|0,0:0|0:0,0:0:0:0:
130,191,87613,2,0,B|180:163|180:163|225:228,1,136.000002593994
183,298,87907,2,0,B|123:280|123:280|203:241,1,136.000002593994,0|2,0:0|0:0,0:0:0:0:
448,160,88299,1,0,0:0:0:0:
448,160,88496,6,0,L|425:206,1,40,2|2,0:0|0:0,0:0:0:0:
384,288,88888,2,0,P|401:284|381:283,1,40,2|0,0:0|0:0,0:0:0:0:
218,265,89280,2,0,L|239:250,1,20,2|0,0:0|0:0,0:0:0:0:
94,331,89476,2,0,L|77:342,1,20,2|0,0:0|0:0,0:0:0:0:
131,241,89672,6,0,B|138:166|138:166|210:184,1,136.000002593994,4|0,3:0|0:0,0:0:0:0:
312,291,90064,2,0,B|305:366|305:366|243:351,1,136.000002593994,0|0,3:0|0:0,0:0:0:0:
131,241,90456,2,0,B|149:171|149:171|226:143,1,136.000002593994,6|0,0:0|0:0,0:0:0:0:
295,138,90750,2,0,B|277:208|277:208|218:230,1,136.000002593994
131,241,91045,2,0,L|22:329,2,136.000002593994,0|2|4,0:0|0:0|0:0,0:0:0:0:
261,121,91633,2,0,P|326:138|374:184,1,136.000002593994,2|0,0:0|0:0,0:0:0:0:
244,304,92025,2,0,P|178:287|130:240,1,136.000002593994,6|0,0:0|0:0,0:0:0:0:
41,264,92319,5,0,0:0:0:0:
41,264,92417,1,2,0:0:0:0:
109,115,92613,1,0,0:0:0:0:
180,261,92809,2,0,B|225:329|313:316,1,136.000002593994,2|0,2:0|0:0,0:0:0:0:
407,199,93201,1,2,0:0:0:0:
466,47,93398,1,0,0:0:0:0:
303,61,93594,2,0,B|231:49|186:117,1,136.000002593994,2|0,2:0|0:0,0:0:0:0:
174,140,93888,5,0,0:0:0:0:
151,165,93986,2,0,B|119:196|153:274|218:279,1,136.000002593994,2|0,0:0|0:0,0:0:0:0:
226,286,94280,1,0,0:0:0:0:
258,275,94378,1,2,0:0:0:0:
272,112,94574,1,0,0:0:0:0:
114,70,94770,1,2,0:0:0:0:
229,176,94966,1,0,0:0:0:0:
229,176,95064,1,0,0:0:0:0:
230,177,95162,2,0,L|344:251,1,136.000002593994,6|0,0:0|0:0,0:0:0:0:
384,189,95456,1,0,0:0:0:0:
384,189,95554,2,0,L|269:110,1,136.000002593994,2|0,0:0|0:0,0:0:0:0:
65,94,95947,6,0,B|33:125|67:203|132:208,1,136.000002593994,2|0,0:0|0:0,0:0:0:0:
161,357,96339,2,0,B|194:386|269:347|270:282,1,136.000002593994,2|0,0:0|0:0,0:0:0:0:
176,268,96731,1,6,0:0:0:0:
262,227,96927,2,0,L|337:194,1,68.0000012969971,2|0,2:0|0:0,0:0:0:0:
364,125,97123,2,0,L|310:78,1,68.0000012969971,2|0,2:0|0:0,0:0:0:0:
252,21,97319,2,0,P|168:51|182:212,2,272.000005187988,2|4|0,2:0|0:0|0:0,0:0:0:0:
236,124,98300,1,4,0:0:0:0:
290,277,98496,2,0,L|405:154,1,136.000002593994,0|2,0:0|0:0,0:0:0:0:
455,323,98888,1,0,0:0:0:0:
291,327,99084,5,2,0:0:0:0:
163,224,99280,1,0,0:0:0:0:
227,74,99476,1,2,0:0:0:0:
350,180,99672,1,0,0:0:0:0:
291,332,99868,1,6,0:0:0:0:
128,318,100064,1,0,0:0:0:0:
291,332,100260,1,2,0:0:0:0:
453,343,100456,1,0,0:0:0:0:
163,224,100751,5,0,2:0:0:0:
149,239,100849,1,2,2:0:0:0:
174,250,100947,1,2,2:0:0:0:
184,230,101045,1,2,2:0:0:0:
325,149,101241,1,0,0:0:0:0:
236,12,101437,1,6,0:0:0:0:
131,137,101633,1,0,0:0:0:0:
325,149,101829,5,2,0:0:0:0:
325,149,102025,2,0,B|288:84|215:73,1,136.000002593994
110,149,102613,2,0,B|147:84|217:73,1,136.000002593994
218,196,103005,1,6,0:0:0:0:
195,5,103202,1,0,0:0:0:0:
377,57,103398,1,2,0:0:0:0:
281,130,103594,1,0,0:0:0:0:
281,130,103790,1,0,0:0:0:0:
464,336,105358,6,0,B|388:336|388:336|341:294,1,136.000002593994,2|0,0:0|0:0,0:0:0:0:
294,139,105751,2,0,B|214:139|214:139|171:181,1,136.000002593994
32,268,106143,2,0,B|32:191|32:191|74:145,1,136.000002593994,6|0,0:0|0:0,0:0:0:0:
94,130,106437,5,0,0:0:0:0:
111,100,106535,2,0,P|145:68|171:83,1,68.0000012969971
207,122,106731,2,0,P|235:116|249:79,1,68.0000012969971
261,62,106927,2,0,P|315:39|378:76,1,136.000002593994,2|4,0:0|0:0,0:0:0:0:
377,75,107221,1,0,0:0:0:0:
377,75,107319,1,0,0:0:0:0:
428,214,107515,1,0,0:0:0:0:
403,254,107613,1,0,0:0:0:0:
376,293,107711,1,6,0:0:0:0:
284,294,107907,1,0,0:0:0:0:
289,301,108005,1,0,0:0:0:0:
289,301,108104,2,2,L|243:250,1,68.0000012969971
220,182,108300,2,0,L|296:93,1,68.0000012969971
238,61,108496,6,0,B|302:39|302:39|393:69,1,136.000002593994
496,159,108888,2,0,B|518:223|518:223|488:314,1,136.000002593994
338,338,109280,2,0,B|273:359|273:359|209:337,1,136.000002593994
201,315,109574,5,0,0:0:0:0:
193,281,109672,1,2,0:0:0:0:
184,246,109770,1,2,0:0:0:0:
177,212,109868,2,0,P|82:229|13:174,1,136.000002593994
91,68,110260,1,0,0:0:0:0:
206,163,110456,1,2,0:0:0:0:
240,2,110653,1,0,0:0:0:0:
91,68,110849,1,4,0:0:0:0:
91,68,110947,6,0,L|144:109,1,68.0000012969971
206,163,111143,2,0,L|262:120,1,68.0000012969971,0|2,0:0|0:0,0:0:0:0:
327,76,111339,2,0,L|380:120,1,68.0000012969971
427,185,111535,2,0,L|372:227,1,68.0000012969971
182,297,111829,5,0,0:0:0:0:
182,297,112025,2,0,B|218:235|218:235|285:235,1,136.000002593994,2|0,0:0|0:0,0:0:0:0:
151,193,112417,2,0,B|176:155|176:155|250:137,1,68.0000012969971,4|0,0:0|0:0,0:0:0:0:
174,106,112613,6,0,L|239:83,1,68.0000012969971,2|0,2:0|0:0,0:0:0:0:
288,18,112809,2,0,L|360:43,1,68.0000012969971,2|0,2:0|0:0,0:0:0:0:
434,45,113006,2,0,L|463:107,1,68.0000012969971,2|0,2:0|0:0,0:0:0:0:
505,176,113202,2,0,B|487:248|487:248|427:259,1,136.000002593994,2|4,2:0|0:0,0:0:0:0:
264,259,113594,2,0,B|191:241|191:241|180:181,1,136.000002593994,2|0,0:0|0:0,0:0:0:0:
343,173,113986,2,0,B|325:100|325:100|265:89,1,136.000002593994,4|0,0:0|0:0,0:0:0:0:
265,89,114280,5,0,0:0:0:0:
265,89,114378,1,2,0:0:0:0:
265,89,114476,1,2,0:0:0:0:
265,89,114574,2,0,L|215:38,1,68.0000012969971
322,148,114770,6,0,B|351:185|371:199|371:199|355:219|341:261,1,136.000002593994
204,314,115162,2,0,B|167:343|153:363|153:363|133:347|91:333,1,136.000002593994,2|0,0:0|0:0,0:0:0:0:
3,198,115555,2,0,B|-9:159|-25:139|-25:139|-5:125|23:88,1,136.000002593994,4|0,0:0|0:0,0:0:0:0:
47,77,115849,5,0,0:0:0:0:
63,62,115947,1,0,0:0:0:0:
81,51,116045,1,0,0:0:0:0:
101,42,116143,1,0,0:0:0:0:
128,35,116241,1,0,0:0:0:0:
161,31,116339,1,0,0:0:0:0:
194,33,116437,1,0,0:0:0:0:
219,43,116535,2,0,P|286:79|316:145,1,136.000002593994
347,289,116927,1,0,0:0:0:0:
206,250,117123,6,0,P|198:233|195:241,1,40,2|0,0:0|0:0,0:0:0:0:
357,280,117515,2,0,L|373:260,1,20,2|0,0:0|0:0,0:0:0:0:
199,333,117711,2,0,L|186:348,1,20,2|0,0:0|0:0,0:0:0:0:
300,326,117908,6,0,B|250:284|250:284|294:229,1,136.000002593994,4|0,3:0|0:0,0:0:0:0:
458,228,118300,2,0,B|508:270|508:270|463:324,1,136.000002593994,0|0,3:0|0:0,0:0:0:0:
300,326,118692,2,0,B|250:284|250:284|294:229,1,136.000002593994,6|0,0:0|0:0,0:0:0:0:
346,165,118986,2,0,P|376:131|412:135,1,68.0000012969971
509,246,119280,2,0,B|512:326|392:323|397:265,1,136.000002593994
284,324,119672,1,4,0:0:0:0:
284,324,119770,1,0,0:0:0:0:
284,324,119868,2,0,B|220:357|189:308|262:262,1,136.000002593994
344,248,120162,1,0,0:0:0:0:
344,248,120260,2,0,P|346:174|269:179,1,136.000002593994,6|0,0:0|0:0,0:0:0:0:
232,208,120555,2,0,P|174:182|184:120,1,136.000002593994
176,32,120849,1,0,0:0:0:0:
176,32,121045,6,0,B|139:12|139:12|139:107,1,136.000002593994,2|0,0:0|0:0,0:0:0:0:
137,269,121437,2,0,B|137:362|137:362|174:342,1,136.000002593994
357,274,121829,2,0,B|433:242|433:242|461:174,1,136.000002593994,6|0,0:0|0:0,0:0:0:0:
461,178,122123,5,0,0:0:0:0:
462,142,122221,1,0,0:0:0:0:
454,107,122319,1,0,0:0:0:0:
436,77,122417,1,0,0:0:0:0:
409,53,122515,1,0,0:0:0:0:
382,39,122613,2,0,P|323:23|255:48,1,136.000002593994,2|0,0:0|0:0,0:0:0:0:
152,138,123006,2,0,B|155:203|196:221|229:222|277:209,1,136.000002593994,2|0,0:0|0:0,0:0:0:0:
49,287,123398,2,0,B|52:352|93:370|126:371|174:358,1,136.000002593994,6|0,0:0|0:0,0:0:0:0:
181,345,123692,1,0,0:0:0:0:
223,323,123790,1,0,0:0:0:0:
243,280,123888,1,0,0:0:0:0:
263,236,123986,6,0,B|339:228|339:228|389:173,1,136.000002593994
379,183,124574,2,0,B|338:138|338:138|262:130,1,136.000002593994
101,108,124966,1,6,0:0:0:0:
240,222,125162,6,0,L|262:157,1,68.0000012969971,2|0,2:0|2:0,2:0:0:0:
286,64,125359,2,0,L|176:52,1,68.0000012969971,2|0,2:0|2:0,2:0:0:0:
144,116,125555,2,0,L|117:194,1,68.0000012969971,2|0,2:0|2:0,2:0:0:0:
67,260,125751,2,0,B|131:315|131:315|209:256,1,136.000002593994,2|4,2:0|1:0,2:0:0:0:
196,264,126045,1,0,0:0:0:0:
219,238,126143,2,0,B|283:183|283:183|361:242,1,136.000002593994,0|0,2:0|1:0,2:0:0:0:
446,182,126535,2,0,B|478:141|478:141|423:77,1,136.000002593994,6|0,0:0|1:0,2:0:0:0:
401,53,126829,5,0,0:0:0:0:
363,35,126927,1,0,0:0:0:0:
322,32,127025,1,0,0:0:0:0:
284,49,127123,1,0,0:0:0:0:
246,65,127221,1,0,0:0:0:0:
205,61,127319,6,0,B|165:119|165:119|206:184,1,136.000002593994,2|0,0:0|0:0,0:0:0:0:
298,305,127712,2,0,B|242:339|242:339|184:299,1,136.000002593994,2|0,0:0|0:0,0:0:0:0:
160,110,128104,2,0,B|215:75|215:75|273:115,1,136.000002593994,6|0,0:0|0:0,0:0:0:0:
294,129,128398,5,0,0:0:0:0:
310,147,128496,1,0,0:0:0:0:
326,164,128594,1,0,0:0:0:0:
358,193,128692,1,0,0:0:0:0:
390,228,128790,1,0,0:0:0:0:
425,266,128888,6,0,B|377:323,1,68.0000012969971,2|2,0:0|0:0,0:0:0:0:
288,320,129084,2,0,L|206:252,1,68.0000012969971
144,200,129280,1,0,0:0:0:0:
256,32,129476,1,0,0:0:0:0:
384,192,129672,1,6,0:0:0:0:
256,32,129868,1,0,0:0:0:0:
141,197,130064,2,0,L|54:302,1,136.000002593994
54,301,130457,6,2,L|166:303,1,80
237,303,130849,1,2,0:0:0:0:
340,302,131045,2,2,P|374:258|359:222,1,70
332,137,131437,1,0,0:0:0:0:
251,71,131633,1,0,0:0:0:0:
149,94,131829,1,0,0:0:0:0:
160,197,132025,6,2,B|91:247,2,80
243,133,132614,2,2,B|328:77,1,80
419,99,133006,1,0,0:0:0:0:
423,213,133202,2,2,L|339:264,1,80
263,188,133594,5,0,0:0:0:0:
356,126,133790,1,0,0:0:0:0:
423,213,133986,1,0,0:0:0:0:
332,279,134182,1,0,0:0:0:0:
377,176,134378,1,2,0:0:0:0:
446,263,134574,1,2,0:0:0:0:
332,279,134770,1,2,0:0:0:0:
230,230,134966,1,2,0:0:0:0:
176,131,135163,1,0,0:0:0:0:
234,35,135359,1,2,0:0:0:0:
234,35,135751,6,0,B|154:90|308:89|215:161,2,160,2|2|4,0:0|0:0|0:0,0:0:0:0:
234,35,136731,2,0,B|308:40|328:125|300:160,1,160,4|0,0:0|0:0,0:0:0:0:
380,177,137319,1,0,0:0:0:0:
230,117,137516,1,4,2:0:0:0:
305,151,137712,5,4,0:0:0:0:
305,151,137908,2,0,P|286:201|249:228,1,80,0|4,0:0|0:0,0:0:0:0:
204,290,138300,2,0,L|177:326,2,40,0|0|4,0:0|0:0|0:0,0:0:0:0:
267,218,138692,2,0,P|294:189|304:151,1,80,0|4,0:0|0:0,0:0:0:0:
376,165,139084,1,4,2:0:0:0:
330,52,139280,1,4,3:0:0:0:
330,52,139672,6,0,B|330:100|330:100|306:156,1,80,0|4,0:0|0:0,0:0:0:0:
228,167,140065,1,0,0:0:0:0:
123,53,140261,2,0,B|123:100|123:100|139:130,1,80,0|4,0:0|0:0,0:0:0:0:
68,155,140653,1,4,2:0:0:0:
228,167,140849,1,4,0:0:0:0:
228,167,141241,5,10,2:0:0:0:
299,116,141437,1,2,2:0:0:0:
380,65,141633,1,10,2:0:0:0:
461,14,141829,1,2,2:0:0:0:
380,65,142025,2,0,P|347:63|345:104,1,80,10|4,2:0|2:0,0:0:0:0:
389,192,142418,1,4,0:0:0:0:
457,124,142614,1,4,3:0:0:0:
380,65,142810,5,4,0:0:0:0:
380,65,143006,2,0,P|319:64|296:89,1,80,4|0,0:0|0:0,0:0:0:0:
253,170,143398,1,0,0:0:0:0:
309,247,143594,2,0,B|339:288|339:288|366:268,1,80,4|4,0:0|2:0,0:0:0:0:
426,198,143986,5,4,0:0:0:0:
369,120,144182,1,0,0:0:0:0:
274,138,144378,1,4,3:0:0:0:
195,82,144574,6,0,L|126:32,2,80,0|4|0,0:0|0:0|0:0,0:0:0:0:
274,138,145163,2,0,B|316:164|316:164|293:204,1,80,0|4,0:0|2:0,0:0:0:0:
240,270,145555,5,4,3:0:0:0:
154,314,145751,1,0,0:0:0:0:
88,244,145947,1,4,0:0:0:0:
71,149,146143,6,0,L|-5:185,2,80,4|0|0,0:0|0:0|0:0,0:0:0:0:
158,108,146731,1,4,0:0:0:0:
249,78,146927,2,0,B|286:63|286:63|285:111,2,80,4|4|0,2:0|0:0|0:0,0:0:0:0:
160,114,147516,1,4,0:0:0:0:
160,114,147712,5,0,0:0:0:0:
153,148,147810,1,0,0:0:0:0:
158,182,147908,1,4,0:0:0:0:
177,211,148006,1,0,0:0:0:0:
206,230,148104,1,0,0:0:0:0:
240,237,148202,1,0,0:0:0:0:
275,235,148300,1,0,0:0:0:0:
308,223,148398,1,0,0:0:0:0:
338,205,148496,2,0,B|370:164|370:164|378:116,1,80,4|0,2:0|0:0,0:0:0:0:
480,121,148888,1,4,3:0:0:0:
400,67,149084,5,4,0:0:0:0:
399,66,149280,2,0,B|337:114|332:52|246:93,1,160,4|0,0:0|0:0,0:0:0:0:
130,166,149869,2,0,B|96:200|96:200|152:220,1,80,4|4,0:0|2:0,0:0:0:0:
251,271,150261,2,0,B|337:312|342:250|404:298,1,160,4|4,0:0|3:0,0:0:0:0:
476,235,150849,2,0,B|537:194|476:187,1,80,0|4,0:0|0:0,0:0:0:0:
367,234,151241,2,0,L|311:288,1,70
248,192,151633,1,4,2:0:0:0:
441,152,151829,2,0,L|391:103,1,70,4|0,3:0|0:0,0:0:0:0:
256,160,152222,1,4,0:0:0:0:
256,160,152418,1,4,0:0:0:0:
256,192,152614,12,0,155359,2:0:0:0:
463,221,155555,6,0,P|426:264|347:273,1,120.000004577637,4|0,0:0|0:0,0:0:0:0:
302,266,155849,1,4,0:0:0:0:
240,241,155947,2,0,P|222:221|213:185,1,60.0000022888184,4|0,0:0|0:0,0:0:0:0:
223,124,156143,1,4,0:0:0:0:
111,33,156339,2,0,L|17:42,2,60.0000022888184,4|0|4,0:0|0:0|0:0,0:0:0:0:
133,31,156633,1,4,0:0:0:0:
159,28,156731,2,0,L|253:22,1,60.0000022888184,4|0,0:0|0:0,0:0:0:0:
287,46,156927,2,0,P|318:96|316:140,1,60.0000022888184,4|0,0:0|0:0,0:0:0:0:
320,176,157124,1,4,0:0:0:0:
176,176,157320,2,4,L|139:59,2,120.000004577637
156,318,157908,1,0,0:0:0:0:
76,197,158104,5,4,0:0:0:0:
139,61,158300,1,4,0:0:0:0:
279,31,158496,1,4,0:0:0:0:
139,61,158692,2,0,P|82:45|57:106,1,120.000004577637,4|4,0:0|0:0,0:0:0:0:
119,217,159084,2,0,P|175:267|242:271,1,120.000004577637,4|4,0:0|0:0,0:0:0:0:
238,278,159378,1,4,0:0:0:0:
261,282,159476,2,0,P|340:256|363:229,1,120.000004577637,4|0,0:0|0:0,0:0:0:0:
404,170,159771,2,0,P|331:110|280:119,1,120.000004577637,4|4,0:0|0:0,0:0:0:0:
243,109,160065,2,0,P|186:123|150:170,1,120.000004577637,4|4,0:0|0:0,0:0:0:0:
61,64,160457,1,0,0:0:0:0:
174,67,160653,5,0,0:0:0:0:
196,89,160751,1,0,0:0:0:0:
218,112,160849,1,0,0:0:0:0:
240,134,160947,1,0,0:0:0:0:
225,155,161045,5,0,0:0:0:0:
203,177,161143,1,0,0:0:0:0:
181,200,161241,1,0,0:0:0:0:
158,223,161339,1,0,0:0:0:0:
176,241,161437,5,0,0:0:0:0:
199,263,161535,1,0,0:0:0:0:
221,286,161633,1,0,0:0:0:0:
243,308,161731,1,0,0:0:0:0:
320,352,161829,6,0,L|446:366,2,120.000004577637,4|0|4,0:0|0:0|0:0,0:0:0:0:
179,319,162418,2,4,P|132:276|156:217,1,120.000004577637
197,93,162810,1,4,0:0:0:0:
203,68,162908,1,4,0:0:0:0:
226,57,163006,2,0,P|260:42|308:64,1,60.0000022888184,4|0,0:0|0:0,0:0:0:0:
340,86,163202,2,4,P|376:124|385:191,1,120.000004577637
267,271,163594,5,4,0:0:0:0:
385,189,163790,1,4,0:0:0:0:
307,68,163986,1,4,0:0:0:0:
163,71,164182,1,4,0:0:0:0:
80,192,164378,2,4,B|28:258,2,60.0000022888184
163,71,164771,5,4,0:0:0:0:
276,24,164967,2,0,P|324:54|343:116,1,120.000004577637,4|0,0:0|0:0,0:0:0:0:
365,273,165359,1,4,0:0:0:0:
222,291,165555,2,4,P|149:292|107:258,1,120.000004577637
135,123,165947,2,4,L|64:161,2,60.0000022888184
276,96,166339,1,4,0:0:0:0:
400,112,166535,6,4,P|442:180|425:213,1,120.000004577637
304,256,166928,2,4,P|262:188|279:153,1,120.000004577637
424,96,167320,2,4,P|466:164|448:197,1,120.000004577637
288,272,167712,2,4,P|246:204|262:169,1,120.000004577637
347,90,168104,6,0,P|285:60|224:76,1,120.000004577637,6|0,0:0|0:0,0:0:0:0:
238,77,168398,1,0,0:0:0:0:
238,77,168496,1,8,0:0:0:0:
123,165,168692,2,0,P|96:227|123:268,1,120.000004577637,4|0,0:0|0:0,0:0:0:0:
253,323,169084,1,4,0:0:0:0:
396,326,169280,2,0,B|452:344|452:344|413:287,1,120.000004577637,8|0,0:0|0:0,0:0:0:0:
340,169,169673,1,4,0:0:0:0:
328,147,169771,1,0,0:0:0:0:
303,141,169869,1,0,0:0:0:0:
277,140,169967,1,4,0:0:0:0:
252,140,170065,1,8,0:0:0:0:
226,137,170163,1,0,0:0:0:0:
203,127,170261,1,4,0:0:0:0:
187,107,170359,1,0,0:0:0:0:
178,83,170457,1,0,0:0:0:0:
169,59,170555,1,0,0:0:0:0:
152,39,170653,1,4,0:0:0:0:
128,31,170751,1,0,0:0:0:0:
93,66,170849,2,0,B|34:59|34:59|83:107,1,120.000004577637,8|0,0:0|0:0,0:0:0:0:
177,148,171241,6,0,P|240:65|301:98,1,180.000006866455,4|0,0:0|0:0,0:0:0:0:
294,88,171633,1,8,0:0:0:0:
435,128,171830,2,0,L|499:229,1,120.000004577637,4|0,0:0|0:0,0:0:0:0:
375,303,172222,1,0,0:0:0:0:
232,324,172418,2,0,B|183:356|183:356|203:292,1,120.000004577637,8|0,0:0|0:0,0:0:0:0:
268,174,172810,5,0,0:0:0:0:
287,156,172908,1,0,0:0:0:0:
306,138,173006,1,0,0:0:0:0:
323,121,173104,1,0,0:0:0:0:
339,103,173202,2,0,B|385:58|385:58|424:100,1,120.000004577637,8|4,0:0|0:0,0:0:0:0:
430,242,173594,2,0,B|392:282|392:282|346:237,1,120.000004577637,0|4,0:0|0:0,0:0:0:0:
480,80,173986,2,0,B|535:53|535:53|478:40,1,120.000004577637,8|0,0:0|0:0,0:0:0:0:
287,26,174379,6,0,B|212:26|173:49|123:127,1,180.000006866455,14|4,0:0|0:0,0:0:0:0:
99,169,174771,2,0,L|218:239,1,120.000004577637,8|4,0:0|0:0,0:0:0:0:
330,295,175163,2,0,L|405:197,1,120.000004577637,8|4,0:0|0:0,0:0:0:0:
398,55,175555,2,0,L|271:-2,1,120.000004577637,8|4,0:0|0:0,0:0:0:0:
167,83,175947,2,0,P|95:161|78:235,1,180.000006866455,8|4,0:0|0:0,0:0:0:0:
142,262,176339,2,0,L|244:194,1,120.000004577637,8|4,0:0|0:0,0:0:0:0:
161,166,176732,2,0,L|263:98,1,120.000004577637,8|4,0:0|0:0,0:0:0:0:
172,76,177124,2,0,L|274:8,1,120.000004577637,8|4,0:0|0:0,0:0:0:0:
374,49,177516,2,0,P|379:159|299:208,1,180.000006866455,4|4,0:0|0:0,0:0:0:0:
332,200,177908,5,8,0:0:0:0:
256,48,178104,1,4,0:0:0:0:
180,200,178300,2,8,L|119:200,3,60.0000022888184,8|8|4|0,0:0|0:0|0:0|0:0,0:0:0:0:
180,200,178692,5,8,0:0:0:0:
255,37,178888,1,0,0:0:0:0:
352,200,179084,1,4,0:0:0:0:
160,200,179281,1,0,0:0:0:0:
253,22,179477,1,8,0:0:0:0:
441,99,179673,1,4,0:0:0:0:
401,182,179869,5,8,0:0:0:0:
389,222,179967,1,4,0:0:0:0:
364,242,180065,1,4,0:0:0:0:
333,243,180163,1,4,0:0:0:0:
301,247,180261,1,8,0:0:0:0:
287,272,180359,1,4,0:0:0:0:
284,305,180457,1,4,0:0:0:0:
276,334,180555,1,4,0:0:0:0:
247,346,180653,1,4,0:0:0:0:
247,346,181045,5,0,0:0:0:0:
257,302,181143,1,0,0:0:0:0:
267,258,181241,1,0,0:0:0:0:
277,213,181339,1,0,0:0:0:0:
255,191,181437,5,0,0:0:0:0:
215,169,181535,1,0,0:0:0:0:
176,146,181634,1,0,0:0:0:0:
136,123,181732,1,0,0:0:0:0:
97,100,181830,6,0,L|135:46,1,60
232,40,182222,6,0,B|320:24|320:24|345:78,1,136.000002593994,2|0,0:0|0:0,0:0:0:0:
362,227,182614,2,0,B|274:243|274:243|249:189,1,136.000002593994,2|0,0:0|0:0,0:0:0:0:
360,76,183006,2,0,B|389:156|389:156|330:167,1,136.000002593994,6|0,0:0|0:0,0:0:0:0:
259,147,183300,2,0,B|230:67|230:67|289:56,1,136.000002593994
338,165,183594,2,0,P|310:242|257:259,1,136.000002593994,0|2,0:0|0:0,0:0:0:0:
128,16,183986,1,4,0:0:0:0:
53,161,184183,2,0,P|40:254|62:294,1,136.000002593994,2|0,0:0|0:0,0:0:0:0:
109,219,184575,2,0,P|96:312|116:352,1,136.000002593994,6|0,0:0|0:0,0:0:0:0:
278,253,184967,5,2,0:0:0:0:
278,253,185163,2,0,L|153:305,2,136.000002593994,0|2|0,0:0|2:0|0:0,0:0:0:0:
331,353,185751,1,2,0:0:0:0:
331,353,185947,2,0,L|457:300,2,136.000002593994,0|10|0,0:0|2:0|0:0,0:0:0:0:
331,353,186437,5,0,0:0:0:0:
331,353,186536,1,2,0:0:0:0:
245,135,186732,2,0,B|196:49|78:44|18:151,1,272.000005187988
81,288,187320,2,0,P|139:312|208:287,1,136.000002593994,2|0,0:0|0:0,0:0:0:0:
140,193,187614,1,0,0:0:0:0:
140,193,187712,2,0,P|198:169|267:194,1,136.000002593994,6|0,0:0|0:0,0:0:0:0:
286,282,188006,1,0,0:0:0:0:
286,282,188104,2,0,P|352:298|414:260,1,136.000002593994,2|0,0:0|0:0,0:0:0:0:
448,112,188496,1,2,0:0:0:0:
448,112,188888,2,0,B|336:144|336:144|368:240,1,204.000003890991,2|0,0:0|0:0,0:0:0:0:
477,236,189281,2,0,B|455:151|455:151|354:182,1,136.000002593994,4|2,0:0|2:0,0:0:0:0:
372,340,189575,1,0,0:0:0:0:
372,340,189673,1,2,2:0:0:0:
245,236,189869,1,2,2:0:0:0:
222,74,190065,1,2,2:0:0:0:
334,45,190261,2,0,P|270:30|222:75,1,136.000002593994,4|2,0:0|0:0,0:0:0:0:
154,222,190653,5,0,0:0:0:0:
349,98,190849,1,6,0:0:0:0:
154,222,191045,1,0,0:0:0:0:
154,222,191143,1,0,0:0:0:0:
154,222,191241,1,2,0:0:0:0:
391,185,191438,1,0,0:0:0:0:
343,44,191634,6,0,B|401:13|401:13|468:43,1,136.000002593994,2|0,0:0|0:0,0:0:0:0:
391,185,192026,2,0,B|330:210|330:210|269:177,1,136.000002593994,2|0,0:0|0:0,0:0:0:0:
262,16,192418,1,6,0:0:0:0:
168,149,192614,2,0,P|210:202|230:188,1,68.0000012969971
262,244,192810,2,0,P|304:297|324:283,1,68.0000012969971
359,344,193006,1,0,0:0:0:0:
359,344,193202,2,0,B|401:290|401:290|371:201,1,136.000002593994,2|0,0:0|0:0,0:0:0:0:
225,279,193594,2,0,B|183:225|183:225|213:136,1,136.000002593994
366,186,193987,6,0,P|383:182|363:181,1,40,2|0,0:0|0:0,0:0:0:0:
168,237,194379,2,0,L|186:265,1,20,2|0,0:0|0:0,0:0:0:0:
101,100,194575,2,0,L|90:83,1,20,2|0,0:0|0:0,0:0:0:0:
137,170,194771,6,0,B|219:124|219:124|256:171,1,136.000002593994,4|0,3:0|0:0,0:0:0:0:
289,227,195163,2,0,B|315:260|315:260|397:214,1,136.000002593994,2|0,0:0|0:0,0:0:0:0:
379,51,195555,2,0,B|330:7|330:7|257:7,1,136.000002593994,6|0,0:0|0:0,0:0:0:0:
260,116,195849,2,0,B|211:160|211:160|138:160,1,136.000002593994
116,146,196143,1,0,0:0:0:0:
208,24,196340,1,2,0:0:0:0:
369,43,196536,1,4,0:0:0:0:
249,153,196732,2,0,B|177:185|177:185|196:240,1,136.000002593994,2|0,0:0|0:0,0:0:0:0:
335,322,197124,2,0,B|407:290|407:290|388:235,1,136.000002593994,6|0,0:0|0:0,0:0:0:0:
368,176,197418,5,0,0:0:0:0:
368,176,197516,1,2,0:0:0:0:
257,75,197712,2,0,L|377:-6,2,136.000002593994,0|2|0,0:0|0:0|0:0,0:0:0:0:
247,237,198300,2,0,L|134:313,2,136.000002593994,2|0|2,0:0|0:0|0:0,0:0:0:0:
465,22,198889,5,0,0:0:0:0:
432,24,198987,1,0,0:0:0:0:
400,24,199085,2,0,P|349:31|337:53,1,68.0000012969971,2|0,0:0|0:0,0:0:0:0:
279,106,199281,2,0,B|206:157|148:109|120:129|175:188|85:272,1,272.000005187988
197,280,199869,2,0,B|264:320|264:320|317:284,1,136.000002593994,2|0,0:0|0:0,0:0:0:0:
328,368,200261,2,0,B|405:312|405:312|405:269,1,136.000002593994,6|0,0:0|0:0,0:0:0:0:
408,248,200555,1,0,0:0:0:0:
408,224,200653,2,0,B|408:181|408:181|338:120,1,136.000002593994,2|0,0:0|0:0,0:0:0:0:
284,66,201045,6,0,B|245:106|245:106|261:154|221:189,1,136.000002593994,2|0,0:0|0:0,0:0:0:0:
170,131,201438,2,0,B|142:152|158:200|158:200|113:244,1,136.000002593994,2|0,0:0|0:0,0:0:0:0:
48,80,201830,1,6,0:0:0:0:
208,53,202026,1,2,2:0:0:0:
341,146,202222,1,2,2:0:0:0:
413,291,202418,2,2,B|362:337|362:337|295:338,1,136.000002593994,2|2,2:0|0:0,0:0:0:0:
312,175,202810,2,0,B|261:175|261:175|199:233,1,136.000002593994,4|2,0:0|0:0,0:0:0:0:
51,366,203202,2,0,B|52:298|52:298|100:250,1,136.000002593994,0|6,0:0|0:0,0:0:0:0:
121,88,203594,5,2,2:0:0:0:
280,50,203791,1,2,2:0:0:0:
418,135,203987,1,2,2:0:0:0:
318,297,204183,1,2,0:0:0:0:
170,199,204379,1,0,0:0:0:0:
231,33,204575,1,2,0:0:0:0:
376,133,204771,1,0,0:0:0:0:
333,309,204967,1,2,0:0:0:0:
272,240,205163,5,0,0:0:0:0:
192,80,205359,1,2,0:0:0:0:
400,112,205555,1,0,2:0:0:0:
264,264,205751,1,2,0:0:0:0:
168,56,205947,1,0,0:0:0:0:
424,112,206144,1,2,0:0:0:0:
248,296,206340,1,0,0:0:0:0:
152,40,206536,1,6,0:0:0:0:
456,112,206732,1,0,0:0:0:0:
232,312,206928,1,2,0:0:0:0:
136,24,207124,1,0,0:0:0:0:
496,64,207320,5,0,0:0:0:0:
368,76,207516,1,0,0:0:0:0:
399,200,207712,1,0,0:0:0:0:
260,201,207908,2,0,P|235:240|219:287,1,80
222,271,208300,2,0,L|139:311,2,80
224,272,208889,6,0,P|256:199|314:144,1,160,4|8,0:0|0:0,2:0:0:0:
313,144,210457,2,0,B|340:52|435:41,1,160,0|8,0:0|0:0,2:0:0:0:
424,42,212026,2,0,B|373:44|343:6|329:8|335:49|274:82,2,160,0|8|0,0:0|0:0|0:0,2:0:0:0:
424,42,214379,1,8,0:0:0:0:
424,42,215163,6,0,B|451:89|472:97|472:97|451:114|443:177,1,160,0|8,0:0|0:0,2:0:0:0:
443,176,216732,2,0,B|393:150|384:111|384:111|327:151,1,160,0|8,0:0|0:0,2:0:0:0:
327,150,218300,2,0,B|278:82|278:82|265:111|224:134,1,160,0|8,0:0|0:0,2:0:0:0:
256,192,219869,12,0,221046,2:0:0:0:
163,107,221438,6,0,B|115:124|99:207|131:244,1,160,6|0,0:0|0:0,0:0:0:0:
272,273,222222,2,0,P|321:214|311:132,1,160
244,8,223006,2,0,L|388:77,1,160
391,221,223791,2,0,L|249:294,1,160
248,294,224575,5,0,0:0:0:0:
248,294,224967,1,0,0:0:0:0:
127,214,225359,1,0,0:0:0:0:
127,214,225752,1,0,0:0:0:0:
214,100,226144,1,0,0:0:0:0:
214,100,226536,1,0,0:0:0:0:
351,141,226928,1,0,0:0:0:0:
351,141,227320,1,0,0:0:0:0:
279,283,227712,5,8,0:0:0:0:
181,213,228006,1,0,0:0:0:0:
181,213,228104,2,0,L|119:163,1,80,8|0,0:0|0:0,0:0:0:0:
168,65,228497,1,8,0:0:0:0:
183,56,228595,1,0,0:0:0:0:
200,52,228693,1,0,0:0:0:0:
217,51,228791,1,0,0:0:0:0:
234,53,228889,1,8,0:0:0:0:
305,87,229085,5,0,0:0:0:0:
384,123,229281,2,0,P|404:158|389:203,1,80,8|0,0:0|0:0,0:0:0:0:
348,269,229673,2,2,B|291:285|250:270,1,80,8|0,0:0|0:0,0:0:0:0:
222,200,230065,2,0,P|180:195|140:218,1,80,8|0,0:0|0:0,0:0:0:0:
98,284,230457,2,0,P|62:243|68:192,1,80,8|0,0:0|0:0,0:0:0:0:
59,219,230850,5,8,0:0:0:0:
121,97,231144,1,0,0:0:0:0:
121,97,231242,2,0,P|177:70|206:91,1,80,8|0,0:0|0:0,0:0:0:0:
299,110,231634,1,8,0:0:0:0:
318,124,231732,1,0,0:0:0:0:
335,142,231830,1,0,0:0:0:0:
348,162,231928,1,0,0:0:0:0:
358,185,232026,1,8,0:0:0:0:
392,272,232222,5,0,0:0:0:0:
232,216,232418,1,8,0:0:0:0:
400,280,232614,1,0,0:0:0:0:
224,208,232810,1,8,0:0:0:0:
408,288,233006,1,0,0:0:0:0:
216,200,233203,1,8,0:0:0:0:
416,296,233399,1,0,0:0:0:0:
208,192,233595,1,8,0:0:0:0:
424,304,233791,1,0,0:0:0:0:
200,184,233987,1,0,0:0:0:0:
192,176,234379,5,0,0:0:0:0:
278,61,234771,1,0,0:0:0:0:
418,90,235164,1,0,0:0:0:0:
431,233,235556,5,0,0:0:0:0:
431,233,236340,1,8,0:0:0:0:
239,89,237124,5,0,0:0:0:0:
239,89,237908,1,8,0:0:0:0:
82,270,238693,5,0,0:0:0:0:
82,270,239477,1,8,0:0:0:0:
312,337,240261,5,0,0:0:0:0:
312,337,241046,1,8,0:0:0:0:
419,151,241830,5,0,0:0:0:0:
419,151,242614,1,8,0:0:0:0:
344,96,242810,5,2,2:0:0:0:
312,72,243007,1,2,2:0:0:0:
280,48,243203,1,2,2:0:0:0:
248,24,243399,1,2,2:0:0:0:
248,24,244183,1,8,0:0:0:0:
256,192,244967,12,0,247712,2:0:0:0:
368,224,248105,6,0,P|400:192|395:153,1,80
454,170,248693,6,0,P|486:138|482:104,2,80
240,176,249281,5,4,3:0:0:0:
259,91,249477,2,0,P|193:103|156:175,2,136.000002593994,0|0|4,0:0|0:0|0:0,0:0:0:0:
397,108,250065,2,0,P|410:193|345:237,1,136.000002593994,2|0,0:0|0:0,0:0:0:0:
450,261,250458,2,0,P|396:301|311:260,1,136.000002593994,6|0,0:0|0:0,0:0:0:0:
310,271,250752,5,0,0:0:0:0:
294,255,250850,2,0,P|262:186|281:131,1,136.000002593994,2|0,0:0|0:0,0:0:0:0:
369,102,251242,2,0,P|311:45|220:54,1,136.000002593994,2|0,0:0|0:0,0:0:0:0:
200,96,251634,1,2,0:0:0:0:
104,176,251830,1,0,0:0:0:0:
70,277,252026,2,0,P|163:264|201:211,1,136.000002593994,6|0,0:0|0:0,0:0:0:0:
197,210,252320,1,0,0:0:0:0:
205,190,252418,2,0,P|254:140|275:139,1,68.0000012969971,2|0,0:0|0:0,0:0:0:0:
334,182,252614,6,0,B|355:62|236:3|150:93,1,272.000005187988
96,213,253203,2,0,P|124:271|205:272,1,136.000002593994,2|0,0:0|0:0,0:0:0:0:
251,260,253497,1,0,0:0:0:0:
273,201,253595,2,0,B|221:157|221:157|173:205,1,136.000002593994,6|0,0:0|0:0,0:0:0:0:
152,228,253889,1,0,0:0:0:0:
136,216,253987,2,0,B|92:164|92:164|146:112,1,136.000002593994,2|0,0:0|0:0,0:0:0:0:
281,33,254379,6,0,B|336:3|336:3|408:48,1,136.000002593994,2|0,0:0|0:0,0:0:0:0:
495,172,254771,2,0,B|497:229|497:229|440:291,1,136.000002593994,2|0,0:0|0:0,0:0:0:0:
290,345,255164,1,6,0:0:0:0:
446,230,255360,1,2,2:0:0:0:
401,73,255556,1,2,2:0:0:0:
213,58,255752,1,2,2:0:0:0:
125,195,255948,1,2,2:0:0:0:
248,301,256144,6,2,L|325:351,2,68.0000012969971,4|0|2,0:0|0:0|0:0,0:0:0:0:
125,195,256536,1,0,0:0:0:0:
203,51,256732,1,6,0:0:0:0:
359,96,256928,1,0,0:0:0:0:
363,259,257124,1,2,0:0:0:0:
368,104,257320,5,0,0:0:0:0:
368,104,257418,1,0,0:0:0:0:
368,104,257516,2,0,B|312:71|312:71|241:86,1,136.000002593994,2|0,0:0|0:0,0:0:0:0:
158,227,257909,2,0,B|214:260|214:260|287:246,1,136.000002593994,2|0,0:0|0:0,0:0:0:0:
425,164,258301,1,6,0:0:0:0:
283,82,258497,1,0,0:0:0:0:
132,145,258693,2,0,B|72:171|72:171|42:239,2,136.000002593994,2|0|2,0:0|0:0|0:0,0:0:0:0:
384,160,259281,1,0,0:0:0:0:
290,240,259477,6,0,L|244:254,1,40,2|2,0:0|0:0,0:0:0:0:
251,251,259869,2,0,P|238:243|247:258,1,40,2|0,0:0|0:0,0:0:0:0:
247,163,260262,2,0,L|271:139,1,20,2|0,0:0|0:0,0:0:0:0:
158,190,260458,2,0,L|134:166,1,20,2|0,0:0|0:0,0:0:0:0:
55,162,260654,6,0,B|103:104|103:104|173:104,1,136.000002593994,4|0,3:0|0:0,0:0:0:0:
319,152,261046,2,0,B|271:210|271:210|198:210,1,136.000002593994,2|0,3:0|0:0,0:0:0:0:
43,139,261438,2,0,B|91:81|91:81|163:79,1,136.000002593994,6|0,0:0|0:0,0:0:0:0:
237,137,261732,2,0,B|241:212|241:212|190:262,1,136.000002593994
163,318,262026,1,0,0:0:0:0:
86,191,262222,1,2,0:0:0:0:
248,181,262418,1,4,0:0:0:0:
232,304,262615,2,0,B|198:367|198:367|124:330,1,136.000002593994,2|0,0:0|0:0,0:0:0:0:
38,197,263007,2,6,B|-1:137|-1:137|65:89,1,136.000002593994,6|0,0:0|0:0,0:0:0:0:
210,55,263399,5,2,0:0:0:0:
50,100,263595,1,0,0:0:0:0:
162,207,263791,2,0,P|231:248|314:217,1,136.000002593994,2|0,2:0|0:0,0:0:0:0:
457,112,264183,1,2,0:0:0:0:
272,48,264379,1,0,0:0:0:0:
57,109,264575,2,0,P|63:171|106:236,1,136.000002593994,10|0,2:0|0:0,0:0:0:0:
223,345,264968,5,2,0:0:0:0:
103,234,265164,2,0,B|33:160|36:50|129:-7,1,272.000005187988
283,13,265752,2,0,B|339:2|385:34|390:95,1,136.000002593994,2|0,0:0|0:0,0:0:0:0:
306,104,266046,1,0,0:0:0:0:
306,104,266144,2,0,L|345:234,1,136.000002593994,6|0,0:0|0:0,0:0:0:0:
178,88,266438,1,0,0:0:0:0:
178,88,266536,2,0,L|217:227,1,136.000002593994,2|0,0:0|0:0,0:0:0:0:
325,152,266928,6,0,B|330:269|309:314|179:342,2,272.000005187988,0|2|6,0:0|0:0|0:0,0:0:0:0:
225,106,267909,1,2,2:0:0:0:
127,57,268105,1,2,2:0:0:0:
32,16,268301,2,2,L|33:153,1,136.000002593994,2|2,2:0|0:0,0:0:0:0:
149,265,268693,2,0,L|265:336,1,136.000002593994,4|2,0:0|0:0,0:0:0:0:
352,192,269085,2,0,L|464:269,1,136.000002593994,0|6,0:0|0:0,0:0:0:0:
352,192,269477,2,0,L|235:109,1,136.000002593994,0|2,0:0|0:0,0:0:0:0:
160,64,269870,5,0,0:0:0:0:
160,256,270066,1,2,0:0:0:0:
288,96,270262,1,0,0:0:0:0:
80,160,270458,1,2,0:0:0:0:
336,208,270654,1,0,0:0:0:0:
160,64,270850,1,6,0:0:0:0:
160,256,271046,1,0,0:0:0:0:
334,129,271242,1,2,0:0:0:0:
160,256,271438,1,0,0:0:0:0:
160,256,271830,2,0,L|101:291,2,68.0000012969971,2|2|2,2:0|2:0|2:0,0:0:0:0:
314,169,272222,1,2,2:0:0:0:
468,80,272419,1,6,0:0:0:0:
466,256,272615,1,0,0:0:0:0:
314,169,272811,1,2,0:0:0:0:
87,152,273007,6,0,L|96:292,1,136.000002593994
96,288,273595,1,2,0:0:0:0:
96,288,273987,1,6,0:0:0:0:
256,80,274183,1,0,0:0:0:0:
368,288,274379,1,2,0:0:0:0:
256,48,274575,1,0,0:0:0:0:
64,320,274772,1,0,0:0:0:0:
65,320,276340,6,0,B|72:249|72:249|164:233,1,136.000002593994,2|0,0:0|0:0,0:0:0:0:
291,287,276732,2,0,B|348:256|348:256|332:187,1,136.000002593994,2|0,0:0|0:0,0:0:0:0:
208,123,277124,2,0,B|234:56|234:56|327:66,1,136.000002593994,6|0,0:0|0:0,0:0:0:0:
345,73,277419,6,0,P|383:87|377:127,1,68.0000012969971
351,168,277615,2,0,P|322:164|306:128,1,68.0000012969971
304,29,277909,2,0,B|251:-1|207:18|173:47,1,136.000002593994,2|4,0:0|0:0,0:0:0:0:
164,66,278203,1,0,0:0:0:0:
155,91,278301,1,0,0:0:0:0:
106,204,278497,5,0,0:0:0:0:
126,219,278595,1,0,0:0:0:0:
145,233,278693,1,6,0:0:0:0:
164,247,278791,1,0,0:0:0:0:
183,261,278889,1,0,0:0:0:0:
202,275,278987,1,0,0:0:0:0:
227,253,279085,2,0,L|292:225,1,68.0000012969971,2|2,0:0|0:0,0:0:0:0:
299,268,279281,2,0,L|364:296,1,68.0000012969971
394,308,279477,6,0,B|443:270|443:270|443:192,1,136.000002593994,2|0,0:0|0:0,0:0:0:0:
451,50,279870,2,0,B|413:1|413:1|339:1,1,136.000002593994,2|0,0:0|0:0,0:0:0:0:
215,82,280262,2,2,B|159:50|159:50|102:92,1,136.000002593994,6|0,0:0|0:0,0:0:0:0:
103,90,280556,5,0,0:0:0:0:
63,134,280654,1,0,0:0:0:0:
53,190,280752,1,0,0:0:0:0:
94,232,280850,1,0,0:0:0:0:
148,257,280948,1,0,0:0:0:0:
151,258,281046,2,0,L|59:359,2,136.000002593994,2|0|0,0:0|0:0|0:0,0:0:0:0:
327,249,281634,1,0,0:0:0:0:
441,114,281830,2,0,B|394:67|394:67|324:76,1,136.000002593994,6|0,0:0|0:0,0:0:0:0:
295,160,282125,2,0,B|342:207|342:207|412:198,1,136.000002593994
450,86,282419,2,0,B|403:39|403:39|333:48,1,136.000002593994
259,128,282811,5,0,0:0:0:0:
259,128,283007,2,0,B|197:148|197:148|135:112,1,136.000002593994
257,53,283399,1,6,0:0:0:0:
159,195,283595,1,2,2:0:0:0:
307,263,283791,1,2,2:0:0:0:
332,101,283987,1,2,2:0:0:0:
490,140,284183,1,2,2:0:0:0:
332,101,284379,5,4,0:0:0:0:
200,64,284576,2,0,B|150:104|150:104|135:136|135:136|85:177,1,136.000002593994,2|0,0:0|0:0,0:0:0:0:
269,144,284968,2,0,B|219:184|219:184|204:216|204:216|154:257,1,136.000002593994
188,324,285262,2,2,P|252:300|269:280,1,68.0000012969971,0|2,0:0|0:0,0:0:0:0:
264,288,285458,1,2,0:0:0:0:
286,268,285556,1,0,0:0:0:0:
305,245,285654,1,0,0:0:0:0:
318,214,285752,6,0,B|319:135|319:135|271:100,1,136.000002593994,2|0,0:0|0:0,0:0:0:0:
178,194,286144,2,0,B|116:149|116:149|116:71,1,136.000002593994
273,47,286536,2,0,B|350:31|350:31|350:95,1,136.000002593994,6|0,0:0|0:0,0:0:0:0:
353,115,286830,6,2,L|406:166,1,68.0000012969971,0|2,0:0|0:0,0:0:0:0:
383,182,287027,2,0,L|317:246,1,68.0000012969971,2|0,0:0|0:0,0:0:0:0:
315,248,287223,1,0,0:0:0:0:
296,267,287321,2,0,L|197:364,2,136.000002593994,2|0|0,0:0|0:0|0:0,0:0:0:0:
350,151,287909,1,0,0:0:0:0:
350,151,288105,6,0,P|364:139|361:160,1,40,2|0,0:0|0:0,0:0:0:0:
423,27,288497,2,0,L|432:1,1,20,2|0,0:0|0:0,0:0:0:0:
401,169,288693,2,0,L|394:187,1,20,2|0,0:0|0:0,0:0:0:0:
406,95,288889,2,0,B|332:104|332:104|289:201,1,136.000002593994,4|0,3:0|0:0,0:0:0:0:
237,307,289281,2,0,B|163:298|163:298|120:201,1,136.000002593994
179,51,289674,2,0,B|105:60|105:60|80:116,1,136.000002593994,6|0,0:0|0:0,0:0:0:0:
98,164,289968,2,0,L|186:270,1,136.000002593994
232,324,290262,2,0,B|285:367|285:367|352:362,2,136.000002593994,0|2|4,0:0|0:0|0:0,0:0:0:0:
208,297,290752,5,0,0:0:0:0:
172,249,290850,1,0,0:0:0:0:
136,202,290948,1,0,0:0:0:0:
116,169,291046,1,0,0:0:0:0:
162,130,291144,1,0,0:0:0:0:
207,92,291242,1,6,0:0:0:0:
236,65,291340,2,2,L|300:10,2,68.0000012969971,2|0|0,0:0|0:0|0:0,0:0:0:0:
162,130,291634,2,0,P|122:117|107:146,1,68.0000012969971
136,202,291830,2,0,P|176:215|182:156,1,68.0000012969971
162,130,292027,6,0,B|182:68|182:68|283:97,1,136.000002593994,2|0,0:0|0:0,0:0:0:0:
395,121,292419,2,0,B|375:183|375:183|274:154,1,136.000002593994,2|0,0:0|0:0,0:0:0:0:
162,130,292811,2,0,B|94:90|94:90|77:146,1,136.000002593994,6|0,0:0|0:0,0:0:0:0:
74,158,293105,5,0,0:0:0:0:
67,186,293203,1,0,0:0:0:0:
65,216,293301,1,0,0:0:0:0:
70,246,293399,1,0,0:0:0:0:
79,274,293497,1,0,0:0:0:0:
97,293,293595,2,2,L|223:236,1,136.000002593994,2|0,0:0|0:0,0:0:0:0:
397,244,293987,2,2,L|271:301,1,136.000002593994,2|0,0:0|0:0,0:0:0:0:
273,300,294380,6,2,L|243:220,1,68.0000012969971
220,165,294576,1,0,0:0:0:0:
204,133,294674,1,0,0:0:0:0:
188,101,294772,2,0,P|241:54|256:13,2,68.0000012969971
141,129,295066,5,0,0:0:0:0:
108,149,295164,2,0,B|60:189|60:189|61:262,1,136.000002593994,2|0,0:0|0:0,0:0:0:0:
13,351,295556,2,0,B|69:371|69:371|142:340,1,136.000002593994
61,262,295948,1,6,0:0:0:0:
231,308,296144,1,2,2:0:0:0:
260,124,296340,1,2,2:0:0:0:
93,65,296536,1,2,2:0:0:0:
268,48,296732,1,2,2:0:0:0:
404,173,296929,6,0,B|452:221|452:221|397:266,1,136.000002593994,4|0,0:0|0:0,0:0:0:0:
275,320,297321,1,0,0:0:0:0:
143,285,297517,2,0,B|72:266|72:266|28:221,1,136.000002593994,6|0,0:0|0:0,0:0:0:0:
20,197,297811,1,0,0:0:0:0:
14,155,297909,1,2,0:0:0:0:
23,115,298007,1,2,0:0:0:0:
48,82,298105,1,0,0:0:0:0:
82,59,298203,1,0,0:0:0:0:
121,50,298301,1,2,2:0:0:0:
332,277,298497,5,2,2:0:0:0:
172,85,298693,1,2,2:0:0:0:
172,277,298889,1,2,2:0:0:0:
11,78,299085,2,0,B|12:165|12:165|46:199,1,136.000002593994,10|2,2:0|2:0,0:0:0:0:
69,214,299380,5,0,0:0:0:0:
96,240,299478,1,2,2:0:0:0:
128,272,299576,1,0,0:0:0:0:
159,305,299674,1,2,2:0:0:0:
192,336,299772,1,0,0:0:0:0:
233,359,299870,2,0,L|296:330,1,68.0000012969971,2|2,0:0|0:0,0:0:0:0:
286,282,300066,2,0,L|349:231,1,68.0000012969971
412,165,300262,1,0,0:0:0:0:
236,37,300458,1,0,0:0:0:0:
60,165,300654,1,6,0:0:0:0:
236,293,300850,1,0,0:0:0:0:
360,112,301046,6,0,L|485:203,1,136.000002593994
