osu file format v14

[General]
AudioFilename: audio.mp3
AudioLeadIn: 0
PreviewTime: 72183
Countdown: 0
SampleSet: Soft
StackLeniency: 0.3
Mode: 0
LetterboxInBreaks: 0
WidescreenStoryboard: 1

[Editor]
Bookmarks: 526,16983,27954,49897,60868,73211,95154
DistanceSpacing: 0.4
BeatDivisor: 4
GridSize: 4
TimelineZoom: 1.9

[Metadata]
Title:Colorful. (Asterisk DnB Remix) (Cut Ver.)
TitleUnicode:カラフル。(Asterisk DnB Remix) (Cut Ver.)
Artist:Sawai Miku
ArtistUnicode:沢井美空
Creator:Synaelle
Version:Ascens' Expert
Source:冴えない彼女の育てかた
Tags:sanairrt ascens kyutei anya melfissa anya_melfissa female vocalist japanese anime electronic saenai heroine no sodatekata ed drum and bass ending edit short ver version
BeatmapID:3227818
BeatmapSetID:1539643

[Difficulty]
HPDrainRate:6
CircleSize:4.5
OverallDifficulty:8.5
ApproachRate:9.1
SliderMultiplier:1.8
SliderTickRate:1

[Events]
//Background and Video events
0,0,"bg.jpg",0,0
//Break Periods
//Storyboard Layer 0 (Background)
//Storyboard Layer 1 (Fail)
//Storyboard Layer 2 (Pass)
//Storyboard Layer 3 (Foreground)
//Storyboard Layer 4 (Overlay)
//Storyboard Sound Samples

[TimingPoints]
526,342.857142857143,4,2,17,60,1,0
526,-125,4,2,17,60,0,0
783,-125,4,2,17,5,0,0
868,-125,4,2,17,60,0,0
2154,-125,4,2,17,5,0,0
2240,-125,4,2,17,60,0,0
3526,-125,4,2,17,5,0,0
3611,-125,4,2,17,60,0,0
9011,-125,4,2,17,5,0,0
9097,-125,4,2,17,60,0,0
15697,-125,4,2,17,60,0,0
15783,-125,4,2,17,60,0,0
16983,-100,4,2,17,60,0,0
17240,-100,4,2,17,5,0,0
17326,-100,4,2,17,60,0,0
18268,-100,4,2,17,5,0,0
18354,-100,4,2,17,60,0,0
19983,-100,4,2,17,5,0,0
20069,-100,4,2,17,60,0,0
21011,-100,4,2,17,5,0,0
21097,-100,4,2,17,60,0,0
21354,-100,4,2,17,60,0,0
21440,-100,4,2,17,60,0,0
22383,-100,4,2,17,5,0,0
22468,-100,4,2,17,60,0,0
27954,-125,4,2,17,60,0,0
28468,-100,4,2,17,60,0,0
29840,-83.3333333333333,4,2,17,60,0,0
31040,-100,4,2,17,60,0,0
32240,-83.3333333333333,4,2,17,60,0,0
32583,-100,4,2,17,60,0,0
33440,-125,4,2,17,60,0,0
33954,-100,4,2,17,60,0,0
34468,-166.666666666667,4,2,17,60,0,0
34811,-83.3333333333333,4,2,17,60,0,0
35326,-125,4,2,17,60,0,0
36183,-100,4,2,17,60,0,0
36697,-83.3333333333333,4,2,17,60,0,0
38068,-100,4,2,17,60,0,0
38326,-100,4,2,17,60,0,0
38411,-100,4,2,17,60,0,0
38583,-125,4,2,17,60,0,0
39440,-100,4,2,17,60,0,0
40811,-83.3333333333333,4,2,17,60,0,0
41668,-100,4,2,17,60,0,0
42268,-100,4,2,17,5,0,0
42354,-100,4,2,17,60,0,0
44411,-83.3333333333333,4,2,17,60,0,0
46040,-83.3333333333333,4,2,17,60,0,0
46126,-83.3333333333333,4,2,17,60,0,0
48354,-100,4,2,17,60,0,0
49040,-100,4,2,17,60,0,0
49811,-100,4,2,17,5,0,0
49897,-125,4,2,17,50,0,0
50840,-125,4,2,17,50,0,0
50926,-125,4,2,17,50,0,0
53926,-125,4,2,17,5,0,0
54011,-125,4,2,17,50,0,0
56326,-125,4,2,17,50,0,0
56412,-125,4,2,17,50,0,0
59840,-83.3333333333333,4,2,17,50,0,0
60868,-100,4,2,17,60,0,0
63868,-100,4,2,17,60,0,0
63953,-100,4,2,17,60,0,0
66268,-100,4,2,17,5,0,0
66354,-100,4,2,17,60,0,0
72183,-166.666666666667,4,2,17,60,0,0
72440,-100,4,2,17,5,0,0
72526,-125,4,2,17,60,0,0
72783,-86.9565217391304,4,2,17,5,0,0
72868,-100,4,2,17,60,0,0
73126,-76.9230769230769,4,2,17,5,0,0
73211,-83.3333333333333,4,2,17,70,0,1
73468,-83.3333333333333,4,2,17,5,0,1
73554,-83.3333333333333,4,2,17,70,0,1
76211,-83.3333333333333,4,2,17,70,0,1
76297,-83.3333333333333,4,2,17,70,0,1
78611,-83.3333333333333,4,2,17,5,0,1
78697,-83.3333333333333,4,2,17,70,0,1
78954,-83.3333333333333,4,2,17,70,0,1
79040,-83.3333333333333,4,2,17,70,0,1
81697,-83.3333333333333,4,2,17,70,0,1
81783,-83.3333333333333,4,2,17,70,0,1
84097,-83.3333333333333,4,2,17,5,0,1
84183,-83.3333333333333,4,2,17,70,0,1
84440,-83.3333333333333,4,2,17,70,0,1
84526,-83.3333333333333,4,2,17,70,0,1
87183,-83.3333333333333,4,2,17,70,0,1
87269,-83.3333333333333,4,2,17,70,0,1
89668,-100,4,2,17,70,0,0
93868,-100,4,2,17,70,0,0
93954,-100,4,2,17,70,0,0

[Colours]
Combo1 : 233,186,237
Combo2 : 179,34,34
Combo3 : 242,87,87
Combo4 : 220,141,226

[HitObjects]
0,240,526,6,0,P|60:240|92:284,1,108,4|0,1:2|0:0,0:0:0:0:
92,292,868,2,0,B|124:324|124:324|236:312,1,144,8|0,0:2|0:0,0:0:0:0:
256,236,1383,1,0,1:2:0:0:
376,368,1554,2,0,L|368:288,1,72,8|0,0:2|0:0,0:0:0:0:
474,156,1897,6,0,B|498:175|498:175|510:276,1,108,0|0,1:2|0:0,0:0:0:0:
490,272,2240,2,0,P|442:252|366:300,1,144,8|0,0:2|0:0,0:0:0:0:
296,244,2754,1,0,1:2:0:0:
196,368,2926,2,0,L|204:288,1,72,8|0,0:2|0:0,0:0:0:0:
136,168,3268,6,0,P|84:152|32:192,1,108,0|0,1:2|0:0,0:0:0:0:
24,200,3611,2,0,B|-12:168|-12:168|8:56,1,144,8|0,0:2|0:0,0:0:0:0:
80,0,4126,1,0,1:2:0:0:
200,88,4297,2,0,L|124:76,1,72,8|0,0:2|0:0,0:0:0:0:
312,8,4640,1,0,1:2:0:0:
312,8,4983,6,0,L|324:80,1,72,10|0,0:2|0:0,0:0:0:0:
380,208,5326,2,0,L|392:136,1,72,2|0,0:2|1:2,0:0:0:0:
300,0,5668,2,0,P|256:-4|224:12,1,72,10|0,0:2|0:0,0:0:0:0:
400,152,6011,6,0,P|456:144|488:56,1,144,6|8,1:2|0:2,0:0:0:0:
440,0,6526,1,2,0:2:0:0:
392,136,6697,2,0,L|380:208,1,72,2|0,0:2|1:2,0:0:0:0:
472,296,7040,1,8,0:2:0:0:
340,372,7211,5,2,0:2:0:0:
256,312,7383,2,0,L|248:392,1,72,2|2,1:2|0:2,0:0:0:0:
136,290,7726,2,0,P|208:270|260:326,2,144,10|2|8,0:2|0:2|0:2,0:0:0:0:
52,356,8583,1,0,0:0:0:0:
52,356,8668,1,0,0:0:0:0:
52,356,8754,6,0,B|24:328|24:328|32:236,1,108,4|0,1:2|0:0,0:0:0:0:
44,240,9097,2,0,P|76:212|72:104,1,144,8|0,0:2|0:0,0:0:0:0:
20,56,9611,1,0,1:2:0:0:
184,72,9783,2,0,L|268:56,1,72,8|0,0:2|0:0,0:0:0:0:
376,160,10126,5,0,1:2:0:0:
280,220,10297,1,0,0:0:0:0:
280,220,10383,1,0,0:0:0:0:
280,220,10468,2,0,P|240:212|200:212,1,72,8|0,0:2|0:0,0:0:0:0:
180,220,10726,1,0,0:0:0:0:
180,220,10811,1,0,0:0:0:0:
284,316,10983,1,0,1:2:0:0:
364,156,11154,1,8,0:2:0:0:
464,384,11497,5,4,1:2:0:0:
436,300,11840,1,0,1:2:0:0:
464,384,12183,1,0,1:2:0:0:
436,300,12526,1,0,1:2:0:0:
288,200,12868,5,4,1:2:0:0:
260,284,13211,1,0,1:2:0:0:
348,312,13554,1,0,1:2:0:0:
376,228,13897,1,2,1:2:0:0:
248,108,14240,5,0,1:2:0:0:
170,123,14411,1,0,1:2:0:0:
144,197,14583,1,2,1:2:0:0:
196,257,14754,1,0,1:2:0:0:
256,92,14926,5,6,1:2:0:0:
288,259,15097,1,2,1:2:0:0:
321,167,15269,1,2,1:2:0:0:
191,278,15440,1,6,1:2:0:0:
180,264,15783,5,2,1:2:0:0:
336,172,15954,1,2,1:2:0:0:
288,276,16126,1,2,1:2:0:0:
268,88,16297,1,0,1:2:0:0:
272,72,16383,1,0,1:2:0:0:
276,56,16468,1,2,1:2:0:0:
280,40,16554,1,0,1:2:0:0:
308,20,16640,5,10,0:2:0:0:
308,20,16983,6,0,P|377:15|448:32,1,135,0|0,1:2|0:0,0:0:0:0:
456,48,17326,2,0,L|464:152,1,90,8|0,0:2|0:0,0:0:0:0:
352,212,17668,2,0,L|358:122,1,90,0|0,0:0|1:2,0:0:0:0:
488,280,18011,2,0,P|448:328|364:304,1,135,8|0,0:2|0:0,0:0:0:0:
372,304,18354,5,2,1:2:0:0:
284,208,18526,1,2,0:2:0:0:
268,284,18697,1,10,0:2:0:0:
192,344,18868,1,2,0:2:0:0:
176,268,19039,1,2,0:2:0:0:
100,204,19211,1,2,1:2:0:0:
84,280,19382,1,10,0:2:0:0:
0,316,19554,1,2,0:2:0:0:
14,131,19726,6,0,P|66:135|98:211,1,135,4|0,1:2|0:0,0:0:0:0:
120,212,20068,2,0,B|144:232|144:232|224:228,1,90,8|0,0:2|0:0,0:0:0:0:
328,136,20411,2,0,B|304:156|304:156|224:152,1,90,0|0,0:0|1:2,0:0:0:0:
16,32,20754,2,0,B|64:28|64:28|88:4|88:4|148:0,1,135,8|0,0:2|0:0,0:0:0:0:
167,15,21097,6,0,L|179:115,1,90,2|0,1:2|0:0,0:0:0:0:
136,192,21440,1,8,0:0:0:0:
272,76,21611,2,0,L|260:176,1,90,2|0,0:0|0:0,0:0:0:0:
312,232,21954,1,0,1:0:0:0:
512,136,22126,2,0,B|464:140|464:140|432:120|432:120|372:124,1,135,10|0,0:0|0:0,0:0:0:0:
368,144,22468,5,4,1:2:0:0:
376,48,22811,1,0,1:2:0:0:
368,144,23154,1,0,1:2:0:0:
376,48,23497,1,0,1:2:0:0:
184,112,23840,5,6,1:2:0:0:
192,208,24183,1,2,1:2:0:0:
88,216,24526,1,2,1:2:0:0:
80,120,24869,1,2,1:2:0:0:
204,296,25211,5,6,1:2:0:0:
268,236,25383,1,0,1:2:0:0:
216,380,25554,1,0,1:2:0:0:
192,212,25726,1,0,1:2:0:0:
372,264,25897,5,6,1:2:0:0:
180,292,26068,1,2,1:2:0:0:
388,156,26240,1,0,1:2:0:0:
384,384,26411,1,6,1:2:0:0:
384,384,26754,5,2,1:2:0:0:
288,232,26925,1,0,1:2:0:0:
222,367,27097,1,0,1:2:0:0:
372,264,27268,5,0,1:2:0:0:
404,272,27354,1,0,1:2:0:0:
440,260,27440,1,0,1:2:0:0:
460,232,27526,1,0,1:2:0:0:
436,180,27611,5,8,0:2:0:0:
436,180,27954,6,0,L|340:172,1,72,6|2,1:2|0:2,0:0:0:0:
264,228,28297,1,10,0:2:0:0:
496,240,28468,2,0,P|524:196|456:100,1,180,2|2,0:2|1:2,0:0:0:0:
346,172,28983,1,10,0:2:0:0:
346,172,29154,1,2,0:2:0:0:
220,100,29326,6,0,B|200:76|200:76|208:0,1,90,2|2,1:2|0:2,0:0:0:0:
300,100,29668,1,10,0:2:0:0:
132,152,29840,2,0,B|28:180|28:180|4:288,1,215.999993408203,2|2,0:2|1:2,0:0:0:0:
132,368,30354,1,10,0:2:0:0:
112,244,30526,1,2,0:2:0:0:
228,320,30697,5,2,1:2:0:0:
248,232,30868,1,2,0:2:0:0:
396,288,31040,2,0,L|286:288,1,90,10|2,0:2|0:2,0:0:0:0:
248,136,31383,1,2,0:2:0:0:
352,168,31554,1,2,1:2:0:0:
320,72,31726,1,10,0:2:0:0:
340,180,31897,1,2,0:2:0:0:
440,56,32068,5,2,1:2:0:0:
500,220,32240,2,0,B|520:196|520:196|508:120,1,107.999996704102,2|8,0:2|0:2,0:0:0:0:
368,4,32583,2,0,B|342:17|342:17|331:87,1,90,2|0,0:2|0:0,0:0:0:0:
400,168,32926,1,2,1:2:0:0:
256,136,33097,2,0,P|200:144|168:212,1,135,8|0,0:2|0:0,0:0:0:0:
168,232,33440,6,0,L|184:320,1,72,2|0,1:2|0:0,0:0:0:0:
88,220,33783,1,10,0:2:0:0:
248,212,33954,2,0,B|312:224|312:224|340:256|340:256|432:268,1,180,2|0,0:2|1:2,0:0:0:0:
500,188,34468,2,0,L|507:251,1,53.9999983520508,10|0,0:0|0:0,0:0:0:0:
388,340,34811,6,0,B|301:327|301:327|267:289|267:289|189:274,1,215.999993408203,0|8,1:2|0:0,0:0:0:0:
100,176,35326,2,0,L|88:272,1,72,2|0,0:0|0:0,0:0:0:0:
224,176,35668,2,0,L|212:80,1,72,2|8,1:2|0:0,0:0:0:0:
132,36,36011,1,2,0:0:0:0:
304,0,36183,6,0,L|400:12,1,90,2|2,1:2|0:0,0:0:0:0:
452,136,36526,1,10,0:2:0:0:
512,0,36697,2,0,B|428:-8|408:76|408:76|440:52|488:68,1,215.999993408203,2|0,0:2|1:2,0:0:0:0:
512,196,37211,1,8,0:0:0:0:
416,280,37383,1,2,0:2:0:0:
344,160,37554,5,2,1:2:0:0:
304,288,37726,1,2,0:2:0:0:
424,264,37897,1,10,0:2:0:0:
244,128,38068,2,0,P|202:108|148:112,1,90,2|0,0:2|0:0,0:0:0:0:
244,208,38411,1,0,1:2:0:0:
100,288,38583,2,0,P|144:288|184:268,1,72,8|0,0:2|0:0,0:0:0:0:
16,124,38926,6,0,B|4:144|4:144|10:197,1,72,6|2,1:2|0:2,0:0:0:0:
88,280,39268,1,10,0:2:0:0:
264,216,39440,2,0,P|288:256|412:224,1,180,2|2,0:2|1:2,0:0:0:0:
480,320,39954,1,10,0:2:0:0:
480,320,40126,1,2,0:2:0:0:
332,384,40297,6,0,L|320:288,1,90,2|2,1:2|0:2,0:0:0:0:
248,208,40640,1,10,0:2:0:0:
124,320,40811,2,0,B|227:363|227:363|325:296,1,215.999993408203,2|2,0:2|1:2,0:0:0:0:
160,160,41326,1,10,0:2:0:0:
152,248,41497,1,2,0:2:0:0:
0,168,41668,5,6,1:2:0:0:
116,84,41840,1,2,0:2:0:0:
160,236,42011,2,0,B|194:259|194:259|289:244,1,135,10|0,0:2|0:0,0:0:0:0:
308,252,42354,1,2,0:2:0:0:
396,80,42526,1,2,1:2:0:0:
456,248,42697,1,10,0:2:0:0:
344,160,42868,1,2,0:2:0:0:
276,328,43040,5,2,1:2:0:0:
312,72,43211,1,2,1:2:0:0:
100,156,43554,1,2,1:2:0:0:
236,192,43897,1,2,1:2:0:0:
124,308,44068,5,8,0:2:0:0:
244,176,44240,1,10,0:2:0:0:
328,336,44411,2,0,P|384:280|324:176,1,215.999993408203,14|10,0:2|0:2,0:0:0:0:
259,268,44926,1,2,1:2:0:0:
151,119,45097,1,8,0:2:0:0:
151,232,45268,1,2,1:2:0:0:
332,192,45440,1,10,0:2:0:0:
267,284,45611,1,2,1:2:0:0:
259,85,45783,6,0,B|336:76|336:76|376:32|376:32|472:24,1,215.999993408203,14|10,0:2|0:2,0:0:0:0:
512,148,46297,1,2,1:2:0:0:
372,208,46468,1,8,0:2:0:0:
322,323,46640,1,2,1:2:0:0:
343,326,46726,1,0,1:2:0:0:
363,314,46811,1,8,0:2:0:0:
460,220,46983,1,2,0:2:0:0:
255,169,47154,5,6,1:2:0:0:
235,294,47326,1,0,1:2:0:0:
360,126,47497,1,10,0:2:0:0:
163,97,47668,5,6,1:2:0:0:
144,222,47840,1,0,1:2:0:0:
269,54,48011,1,10,0:2:0:0:
53,141,48183,1,2,1:2:0:0:
228,284,48354,6,0,P|148:232|156:352,1,270,6|0,1:2|0:0,0:0:0:0:
288,360,49040,1,2,0:0:0:0:
288,360,49211,2,0,L|384:372,1,90,2|0,0:0|0:0,0:0:0:0:
484,264,49554,2,0,P|436:240|364:292,1,135,10|0,0:2|0:0,0:0:0:0:
344,280,49897,6,0,B|304:256|304:256|296:152,1,144,6|0,1:2|0:0,0:0:0:0:
356,100,50411,1,2,1:2:0:0:
356,100,50583,2,0,L|204:136,1,144,2|10,1:2|0:0,0:0:0:0:
215,133,51268,6,0,P|147:109|91:157,1,144,2|0,1:2|0:0,0:0:0:0:
68,236,51783,1,0,1:2:0:0:
68,236,51954,2,0,L|152:248,1,72,0|2,1:2|0:2,0:0:0:0:
184,312,52297,1,10,0:2:0:0:
184,312,52468,1,2,0:2:0:0:
280,244,52640,6,0,B|312:268|312:268|304:384,1,144,2|2,1:2|0:2,0:0:0:0:
224,384,53154,1,2,1:2:0:0:
224,384,53326,2,0,L|136:372,1,72,2|2,1:2|0:2,0:0:0:0:
16,256,53668,2,0,L|36:384,1,108,8|0,0:2|0:0,0:0:0:0:
56,380,54011,5,2,1:2:0:0:
56,380,54354,1,0,0:0:0:0:
144,288,54526,1,2,1:2:0:0:
144,288,54697,2,0,P|88:292|68:308,1,72,2|0,1:2|0:0,0:0:0:0:
0,200,55040,2,0,P|35:196|67:211,1,72,10|0,0:2|0:0,0:0:0:0:
208,172,55383,6,0,P|220:124|132:80,1,144,2|0,1:2|0:0,0:0:0:0:
60,116,55897,1,2,1:2:0:0:
60,116,56068,2,0,L|48:32,1,72,2|0,1:2|0:0,0:0:0:0:
120,0,56411,1,10,0:2:0:0:
236,48,56583,1,2,0:2:0:0:
236,48,56668,1,0,0:0:0:0:
236,48,56754,6,0,B|284:52|284:52|312:76|312:76|384:80,1,144,0|0,1:2|0:0,0:0:0:0:
464,8,57268,1,0,1:2:0:0:
464,8,57440,2,0,L|472:80,1,72,0|0,1:2|0:0,0:0:0:0:
384,188,57783,1,8,0:2:0:0:
464,164,57954,1,2,0:2:0:0:
512,276,58126,5,2,1:2:0:0:
512,276,58297,2,0,B|480:316|480:316|368:308,1,144,2|2,0:0|1:2,0:0:0:0:
288,224,58811,1,2,1:2:0:0:
288,224,58983,2,0,L|300:304,1,72,2|8,0:0|1:2,0:0:0:0:
212,376,59326,1,2,0:0:0:0:
120,304,59497,2,0,L|130:232,1,72,0|0,1:2|0:0,0:0:0:0:
208,96,59840,6,0,P|252:84|312:104,1,107.999996704102,8|0,0:2|0:0,0:0:0:0:
387,245,60183,2,0,P|333:248|287:223,1,107.999996704102,8|0,0:2|0:0,0:0:0:0:
452,136,60526,1,8,0:2:0:0:
484,324,60697,1,8,0:2:0:0:
287,222,60868,6,0,L|295:133,1,90,6|0,1:2|0:0,0:0:0:0:
196,244,61211,1,10,0:2:0:0:
96,124,61383,2,0,L|104:213,1,90,2|0,0:2|0:0,0:0:0:0:
200,332,61726,1,2,1:2:0:0:
287,222,61897,2,0,P|327:202|391:218,1,90,8|2,0:2|0:2,0:0:0:0:
476,332,62240,6,0,P|416:360|344:280,2,180,0|8|0,1:2|0:2|0:0,0:0:0:0:
508,112,63097,1,0,1:2:0:0:
412,184,63268,2,0,L|420:292,1,90,8|0,0:2|0:0,0:0:0:0:
272,128,63611,6,0,B|248:112|248:112|168:124,1,90,6|0,1:2|0:0,0:0:0:0:
152,212,63954,1,10,0:2:0:0:
80,44,64126,2,0,B|104:28|104:28|164:37,1,90,2|0,0:2|0:0,0:0:0:0:
272,128,64468,1,2,1:2:0:0:
396,0,64640,2,0,P|416:48|412:96,1,90,8|2,0:2|0:2,0:0:0:0:
328,212,64983,6,0,B|263:216|263:216|228:256|228:256|148:264,2,180,0|10|2,1:2|0:2|0:2,0:0:0:0:
424,320,65840,1,0,1:2:0:0:
508,112,66011,2,0,P|444:96|404:156,1,135,10|0,0:2|0:0,0:0:0:0:
424,167,66354,5,6,1:2:0:0:
401,282,66697,1,2,1:2:0:0:
280,254,67040,1,0,1:2:0:0:
304,139,67383,1,0,1:2:0:0:
160,51,67726,5,4,1:2:0:0:
183,166,68069,1,2,1:2:0:0:
304,139,68412,1,2,1:2:0:0:
280,24,68755,1,2,1:2:0:0:
280,24,69097,5,6,1:2:0:0:
304,139,69268,1,0,1:2:0:0:
183,166,69440,1,2,1:2:0:0:
160,51,69611,1,2,1:2:0:0:
304,139,69783,5,4,1:2:0:0:
280,254,69954,1,0,1:2:0:0:
401,282,70126,1,0,1:2:0:0:
424,167,70297,1,2,1:2:0:0:
304,40,70468,6,0,P|280:40|252:56,3,45,6|0|2|0,1:2|1:2|1:2|1:2,0:0:0:0:
180,112,70811,2,0,P|163:129|157:161,3,45,2|0|0|0,1:2|1:2|1:2|1:2,0:0:0:0:
247,260,71154,1,0,1:2:0:0:
283,264,71240,1,0,1:2:0:0:
319,252,71326,1,0,1:2:0:0:
353,230,71411,1,0,1:2:0:0:
371,196,71497,2,0,P|371:172|355:144,1,45,0|0,1:2|1:2,0:0:0:0:
298,71,71668,2,0,P|280:54|248:48,1,45,0|0,1:2|1:2,0:0:0:0:
32,196,72183,6,0,P|51:217|39:188,1,80.9999975280763,2|0,0:2|0:0,0:0:0:0:
44,164,72526,2,0,P|25:127|74:70,1,108,2|0,0:2|0:0,0:0:0:0:
174,182,72868,2,0,B|141:201|113:187|121:179|94:160|45:187,1,135,2|0,0:2|0:0,0:0:0:0:
88,248,73211,6,0,B|132:284|132:284|260:260,1,161.999995056153,6|0,1:2|0:0,0:0:0:0:
252,244,73554,1,8,0:2:0:0:
364,384,73726,1,2,0:2:0:0:
372,180,73897,2,0,P|388:236|376:288,1,107.999996704102,2|0,0:2|1:2,0:0:0:0:
484,164,74240,1,8,0:2:0:0:
316,0,74411,5,2,0:2:0:0:
360,188,74583,1,2,1:2:0:0:
436,24,74754,1,2,0:2:0:0:
200,0,74926,2,0,B|162:-17|162:-17|80:8,1,107.999996704102,10|0,0:2|0:0,0:0:0:0:
0,120,75268,2,0,B|26:152|26:152|111:165,1,107.999996704102,2|0,0:2|1:2,0:0:0:0:
312,216,75611,5,10,0:2:0:0:
108,260,75783,1,2,0:2:0:0:
312,216,75954,2,0,L|432:188,1,107.999996704102,2|0,1:2|0:0,0:0:0:0:
108,260,76297,5,10,0:2:0:0:
312,216,76469,1,2,0:2:0:0:
108,260,76640,2,0,L|-12:288,1,107.999996704102,0|0,0:2|1:2,0:0:0:0:
200,168,76983,1,10,0:2:0:0:
248,384,77154,6,0,P|272:332|268:268,1,107.999996704102,2|0,0:2|1:2,0:0:0:0:
388,168,77497,1,0,0:0:0:0:
512,268,77668,2,0,B|468:300|468:300|392:284,1,107.999996704102,10|0,0:2|0:0,0:0:0:0:
176,160,78011,2,0,B|220:128|220:128|272:139,1,107.999996704102,2|0,0:2|1:2,0:0:0:0:
288,344,78354,2,0,P|224:292|152:324,1,161.999995056153,10|0,0:2|0:0,0:0:0:0:
140,344,78697,6,0,L|120:224,1,107.999996704102,2|0,1:2|0:0,0:0:0:0:
0,384,79040,1,10,0:2:0:0:
52,188,79211,2,0,P|112:148|152:160,1,107.999996704102,2|0,0:2|0:0,0:0:0:0:
220,248,79554,1,0,1:2:0:0:
236,32,79726,1,8,0:2:0:0:
304,172,79897,1,2,0:2:0:0:
304,172,79983,1,2,0:2:0:0:
304,172,80068,6,0,B|380:156|380:156|432:180|432:180|524:160,1,215.999993408203,2|8,1:2|0:2,0:0:0:0:
328,0,80583,1,2,0:2:0:0:
292,192,80754,1,2,0:2:0:0:
436,88,80926,1,2,1:2:0:0:
208,148,81097,1,10,0:2:0:0:
376,264,81268,1,2,0:2:0:0:
224,328,81440,6,0,B|276:316|276:316|332:352,1,107.999996704102,2|0,1:2|0:0,0:0:0:0:
144,192,81783,1,10,0:2:0:0:
100,344,81954,2,0,B|48:332|48:332|-8:368,1,107.999996704102,2|0,0:2|0:0,0:0:0:0:
168,384,82297,1,2,1:2:0:0:
144,192,82468,2,0,L|132:76,1,107.999996704102,10|0,0:2|0:0,0:0:0:0:
120,0,82811,1,0,1:2:0:0:
120,0,83154,6,0,P|184:20|224:8,1,107.999996704102,10|0,0:2|0:0,0:0:0:0:
404,88,83497,2,0,P|351:77|302:97,1,107.999996704102,2|0,0:2|1:2,0:0:0:0:
236,316,83840,2,0,B|200:276|200:276|216:164,1,161.999995056153,10|0,0:2|0:0,0:0:0:0:
232,156,84183,6,0,B|276:188|276:188|344:172,1,107.999996704102,6|0,1:2|0:0,0:0:0:0:
512,352,84526,1,8,0:2:0:0:
468,196,84697,1,2,0:2:0:0:
368,360,84868,2,0,L|380:248,1,107.999996704102,2|0,0:2|1:2,0:0:0:0:
232,156,85211,1,8,0:2:0:0:
56,308,85383,5,2,0:2:0:0:
136,148,85554,1,2,1:2:0:0:
212,308,85726,1,0,0:2:0:0:
20,132,85897,2,0,P|100:120|132:144,1,107.999996704102,10|0,0:2|0:0,0:0:0:0:
288,300,86240,2,0,P|212:329|176:313,1,107.999996704102,2|0,0:2|1:2,0:0:0:0:
244,120,86583,5,10,0:2:0:0:
412,188,86754,1,2,0:2:0:0:
184,168,86926,2,0,P|164:112|192:64,1,107.999996704102,6|0,1:2|0:0,0:0:0:0:
412,188,87268,5,10,0:2:0:0:
244,120,87439,1,2,0:2:0:0:
472,140,87611,2,0,P|492:196|464:244,1,107.999996704102,0|0,0:2|1:2,0:0:0:0:
344,384,87954,1,10,0:2:0:0:
204,208,88126,1,2,0:2:0:0:
172,348,88297,6,0,B|128:384|128:384|0:360,1,161.999995056153,0|0,1:2|0:0,0:0:0:0:
8,340,88640,1,10,0:2:0:0:
80,220,88811,1,0,0:0:0:0:
80,220,88897,1,0,0:0:0:0:
80,220,88983,1,2,0:2:0:0:
184,336,89154,1,0,1:2:0:0:
176,108,89326,5,10,0:2:0:0:
320,232,89668,5,6,1:2:0:0:
412,112,90011,1,2,1:2:0:0:
192,232,90354,1,2,1:2:0:0:
100,112,90697,1,2,1:2:0:0:
100,112,90868,1,2,0:2:0:0:
320,232,91040,6,0,L|328:124,1,90,4|2,1:2|0:2,0:0:0:0:
412,112,91383,2,0,L|405:201,1,90,0|2,1:2|0:2,0:0:0:0:
192,232,91726,6,0,L|184:124,1,90,0|2,1:2|0:2,0:0:0:0:
100,112,92069,2,0,L|106:201,1,90,0|0,1:2|0:0,0:0:0:0:
256,302,92411,5,4,1:2:0:0:
256,80,92583,1,0,1:2:0:0:
256,319,92754,1,0,1:2:0:0:
256,97,92926,1,0,1:2:0:0:
131,264,93097,5,4,1:2:0:0:
375,264,93268,1,0,1:2:0:0:
136,140,93440,1,0,1:2:0:0:
380,140,93611,1,4,1:2:0:0:
380,140,93954,5,0,1:2:0:0:
416,292,94126,1,0,1:2:0:0:
376,120,94297,1,0,1:2:0:0:
408,320,94468,5,0,1:2:0:0:
408,348,94554,1,0,1:2:0:0:
420,372,94640,1,0,1:2:0:0:
448,384,94726,1,0,1:2:0:0:
500,360,94811,5,8,0:0:0:0:
188,128,95154,5,4,0:2:0:0:
