osu file format v14

[General]
AudioFilename: audio.mp3
AudioLeadIn: 0
PreviewTime: 72183
Countdown: 0
SampleSet: Soft
StackLeniency: 0.4
Mode: 0
LetterboxInBreaks: 0
WidescreenStoryboard: 1

[Editor]
DistanceSpacing: 1.4
BeatDivisor: 4
GridSize: 32
TimelineZoom: 1.6

[Metadata]
Title:Colorful. (Asterisk DnB Remix) (Cut Ver.)
TitleUnicode:カラフル。(Asterisk DnB Remix) (Cut Ver.)
Artist:Sawai Miku
ArtistUnicode:沢井美空
Creator:Synaelle
Version:Anya's Hard
Source:冴えない彼女の育てかた
Tags:sanairrt ascens kyutei anya melfissa anya_melfissa female vocalist japanese anime electronic saenai heroine no sodatekata ed drum and bass ending edit short ver version
BeatmapID:3268331
BeatmapSetID:1539643

[Difficulty]
HPDrainRate:5
CircleSize:3.6
OverallDifficulty:7.5
ApproachRate:8
SliderMultiplier:1.4
SliderTickRate:1

[Events]
//Background and Video events
0,0,"bg.jpg",0,0
//Break Periods
//Storyboard Layer 0 (Background)
//Storyboard Layer 1 (Fail)
//Storyboard Layer 2 (Pass)
//Storyboard Layer 3 (Foreground)
//Storyboard Layer 4 (Overlay)
//Storyboard Sound Samples

[TimingPoints]
526,342.857142857143,4,2,17,60,1,0
4983,-125,4,2,17,60,0,0
13897,-90.9090909090909,4,2,17,60,0,0
15783,-100,4,2,17,60,0,0
16983,-100,4,2,17,60,0,0
26754,-100,4,2,17,60,0,0
27954,-111.111111111111,4,2,17,60,0,0
36697,-133.333333333333,4,2,17,60,0,0
38926,-111.111111111111,4,2,17,60,0,0
49897,-142.857142857143,4,2,17,50,0,0
58640,-142.857142857143,4,2,17,50,0,0
60868,-111.111111111111,4,2,17,60,0,0
73211,-83.3333333333333,4,2,17,70,0,1
76983,-111.111111111111,4,2,17,70,0,1
77326,-83.3333333333333,4,2,17,70,0,1
77583,-83.3333333333333,4,2,17,5,0,1
77668,-83.3333333333333,4,2,17,70,0,1
82211,-83.3333333333333,4,2,17,5,0,1
82297,-83.3333333333333,4,2,17,70,0,1
82811,-111.111111111111,4,2,17,70,0,1
83068,-83.3333333333333,4,2,17,5,0,1
83154,-125,4,2,17,70,0,1
84183,-83.3333333333333,4,2,17,70,0,1
87955,-111.111111111111,4,2,17,70,0,1
88298,-83.3333333333333,4,2,17,70,0,1
88554,-83.3333333333333,4,2,17,5,0,1
88640,-83.3333333333333,4,2,17,70,0,1
89668,-125,4,2,17,70,0,0
91726,-83.3333333333333,4,2,17,70,0,0
92411,-100,4,2,17,70,0,0
95154,-100,4,2,17,70,0,0

[Colours]
Combo1 : 233,186,237
Combo2 : 179,34,34
Combo3 : 242,87,87
Combo4 : 220,141,226

[HitObjects]
98,295,4983,6,0,B|59:309|59:309|47:336|47:336|5:356,2,112,10|2|10,0:2|0:2|0:2,0:0:0:0:
120,177,6011,2,0,L|248:208,1,112,6|8,1:2|0:2,0:0:0:0:
274,274,6526,1,2,0:2:0:0:
274,274,6697,2,0,L|339:259,1,56,2|0,0:2|1:2,0:0:0:0:
386,317,7040,1,8,0:2:0:0:
408,243,7211,5,2,0:2:0:0:
408,243,7383,2,0,L|434:114,2,112,2|10|2,1:2|0:2|0:2,0:0:0:0:
328,261,8240,1,0,1:2:0:0:
337,183,8411,2,0,L|352:107,1,56,8|0,0:2|0:0,0:0:0:0:
294,66,8754,6,0,P|311:16|364:13,2,112,4|8|0,1:2|0:2|0:0,0:0:0:0:
242,126,9611,1,0,1:2:0:0:
242,126,9783,2,0,L|187:113,1,56,8|0,0:2|0:0,0:0:0:0:
137,50,10126,2,0,B|95:60|95:60|77:80|77:80|33:91,2,112,0|8|0,1:2|0:2|0:0,0:0:0:0:
187,113,10983,1,0,1:2:0:0:
139,176,11154,1,8,0:2:0:0:
305,307,11497,5,4,1:2:0:0:
305,307,11840,1,0,1:2:0:0:
169,379,12183,6,0,L|185:316,1,56,0|0,1:2|0:0,0:0:0:0:
104,306,12526,2,0,L|120:243,1,56,0|0,1:2|0:0,0:0:0:0:
72,158,12868,5,4,1:2:0:0:
72,158,13211,1,0,1:2:0:0:
72,158,13554,1,0,1:2:0:0:
276,107,13897,6,0,L|452:146,1,154.000004699707,2|0,1:2|1:2,0:0:0:0:
505,157,14411,1,0,1:2:0:0:
452,216,14583,2,0,B|458:243|458:243|448:261|448:261|456:288,2,77.0000023498536,2|0|6,1:2|1:2|1:2,0:0:0:0:
505,157,15097,2,0,B|512:128|512:128|502:110|502:110|510:83,2,77.0000023498536,2|2|6,1:2|1:2|1:2,0:0:0:0:
307,222,15783,5,2,1:2:0:0:
230,262,15954,1,2,1:2:0:0:
178,195,16126,1,2,1:2:0:0:
72,158,16297,5,0,1:2:0:0:
67,165,16383,1,0,1:2:0:0:
62,172,16469,2,0,L|72:218,1,35,2|0,1:2|1:2,0:0:0:0:
89,283,16640,1,10,0:2:0:0:
14,50,16983,5,0,1:2:0:0:
14,50,17326,2,0,L|163:85,1,140,8|0,0:2|0:0,0:0:0:0:
205,24,17840,1,0,1:2:0:0:
275,119,18011,2,0,L|354:96,1,70,8|0,0:2|0:0,0:0:0:0:
379,28,18354,2,0,L|458:51,1,70,2|2,1:2|0:2,0:0:0:0:
492,113,18697,1,10,0:2:0:0:
492,113,18868,1,2,0:2:0:0:
434,168,19040,2,0,B|443:198|443:198|438:209|438:209|454:256,1,70,2|2,0:2|1:2,0:0:0:0:
387,288,19383,2,0,B|396:318|396:318|391:329|391:329|407:376,1,70,10|2,0:2|0:2,0:0:0:0:
304,359,19726,5,4,1:2:0:0:
304,359,20069,2,0,L|155:324,1,140,8|0,0:2|0:0,0:0:0:0:
105,377,20583,1,0,1:2:0:0:
17,309,20754,2,0,L|32:237,1,70,8|0,0:2|0:0,0:0:0:0:
98,197,21097,2,0,L|83:125,1,70,2|0,1:2|0:0,0:0:0:0:
140,71,21440,1,8,0:0:0:0:
209,133,21611,2,0,B|261:119|261:119|275:95|275:95|341:76,1,140,2|0,0:0|1:0,0:0:0:0:
391,130,22126,1,10,0:0:0:0:
486,48,22468,5,4,1:2:0:0:
486,48,22811,2,0,L|471:132,1,70,0|0,1:2|0:0,0:0:0:0:
512,185,23154,2,0,L|497:269,1,70,0|0,1:2|0:0,0:0:0:0:
511,347,23497,6,0,L|428:324,1,70,0|0,1:2|0:0,0:0:0:0:
372,363,23840,2,0,L|289:340,1,70,6|2,1:2|0:0,0:0:0:0:
226,378,24183,5,2,1:2:0:0:
226,378,24354,1,2,0:0:0:0:
162,329,24526,2,0,B|171:299|171:299|166:288|166:288|182:241,1,70,2|2,1:2|0:0,0:0:0:0:
119,205,24869,2,0,B|128:175|128:175|123:164|123:164|139:117,1,70,2|2,1:2|0:0,0:0:0:0:
75,60,25211,5,6,1:2:0:0:
75,60,25383,1,0,1:2:0:0:
138,0,25554,2,0,L|214:14,1,70,0|0,1:2|1:2,0:0:0:0:
250,90,25897,2,0,L|318:77,1,70,6|2,1:2|1:2,0:0:0:0:
373,20,26240,1,0,1:2:0:0:
373,20,26411,1,6,1:2:0:0:
501,184,26754,5,2,1:2:0:0:
424,228,26925,1,0,1:2:0:0:
371,156,27097,1,0,1:2:0:0:
296,214,27268,5,0,1:2:0:0:
291,221,27354,1,0,1:2:0:0:
286,228,27440,2,0,L|296:274,1,35,0|0,1:2|1:2,0:0:0:0:
314,338,27611,1,8,0:2:0:0:
205,201,27954,6,0,L|130:217,1,62.9999980773926,6|2,1:2|0:2,0:0:0:0:
86,157,28297,1,10,0:2:0:0:
29,249,28468,2,0,B|73:264|73:264|81:288|81:288|147:309,1,125.999996154785,2|2,0:2|1:2,0:0:0:0:
182,372,28983,1,10,0:2:0:0:
182,372,29154,1,2,0:2:0:0:
254,331,29326,6,0,L|319:318,1,62.9999980773926,2|2,1:2|0:2,0:0:0:0:
366,258,29668,1,10,0:2:0:0:
454,345,29840,2,0,B|442:302|442:302|462:278|462:278|448:226,1,125.999996154785,2|2,0:2|1:2,0:0:0:0:
508,175,30354,1,10,0:2:0:0:
508,175,30526,1,2,0:2:0:0:
449,107,30697,6,0,L|386:123,1,62.9999980773926,2|2,1:2|0:2,0:0:0:0:
323,76,31040,2,0,L|260:92,1,62.9999980773926,10|2,0:2|0:2,0:0:0:0:
220,160,31383,1,2,0:2:0:0:
220,160,31554,1,2,1:2:0:0:
158,108,31726,2,0,L|175:39,1,62.9999980773926,10|2,0:2|0:2,0:0:0:0:
61,74,32068,5,2,1:2:0:0:
5,128,32240,2,0,L|22:197,1,62.9999980773926,2|8,0:2|0:2,0:0:0:0:
0,267,32583,2,0,B|44:284|44:284|53:309|53:309|118:335,1,125.999996154785,2|2,0:2|1:2,0:0:0:0:
161,277,33097,1,8,0:2:0:0:
427,374,33440,6,0,P|413:314|400:248,1,125.999996154785,2|10,1:2|0:2,0:0:0:0:
458,194,33954,2,0,P|444:134|431:68,1,125.999996154785,2|0,0:2|1:2,0:0:0:0:
491,16,34468,1,10,0:0:0:0:
364,146,34811,6,0,P|307:130|232:111,1,125.999996154785,0|8,1:2|0:0,0:0:0:0:
179,164,35326,2,0,P|122:148|47:129,1,125.999996154785,2|2,0:0|1:2,0:0:0:0:
0,187,35840,2,0,L|17:254,1,62.9999980773926,8|2,0:0|0:0,0:0:0:0:
95,256,36183,2,0,L|112:323,1,62.9999980773926,2|2,1:2|0:0,0:0:0:0:
186,358,36526,1,10,0:2:0:0:
186,358,36697,2,0,P|246:350|249:261,1,157.500006008148,2|8,0:2|0:0,0:0:0:0:
309,211,37383,5,2,0:2:0:0:
309,211,37554,2,0,L|361:221,1,52.5000020027161,2|2,1:2|0:2,0:0:0:0:
427,174,37897,5,10,0:2:0:0:
427,174,38068,2,0,L|479:184,1,52.5000020027161,2|0,0:2|0:0,0:0:0:0:
474,93,38411,5,0,1:2:0:0:
392,48,38583,1,8,0:2:0:0:
337,124,38754,1,0,0:0:0:0:
259,64,38926,6,0,L|195:49,1,62.9999980773926,6|2,1:2|0:2,0:0:0:0:
140,102,39269,1,10,0:2:0:0:
71,50,39440,2,0,B|82:93|82:93|63:117|63:117|78:172,1,125.999996154785,2|2,0:2|1:2,0:0:0:0:
26,230,39955,1,10,0:2:0:0:
26,230,40126,1,2,0:2:0:0:
87,301,40298,6,0,L|152:314,1,62.9999980773926,2|2,1:2|0:2,0:0:0:0:
215,267,40640,1,10,0:2:0:0:
276,345,40811,2,0,L|413:317,1,125.999996154785,2|2,0:2|1:2,0:0:0:0:
438,252,41326,1,10,0:2:0:0:
438,252,41498,1,2,0:2:0:0:
505,303,41668,2,0,L|489:366,2,62.9999980773926,6|2|10,1:2|0:2|0:2,0:0:0:0:
386,181,42355,5,2,0:2:0:0:
386,181,42526,1,2,1:2:0:0:
316,133,42698,2,0,L|333:64,1,62.9999980773926,10|2,0:2|0:2,0:0:0:0:
282,8,43040,1,2,1:2:0:0:
193,44,43211,1,2,1:2:0:0:
52,81,43554,6,0,L|72:208,1,125.999996154785,2|2,1:2|1:2,0:0:0:0:
135,263,44068,1,8,0:2:0:0:
135,263,44240,1,10,0:2:0:0:
74,314,44412,6,0,P|15:301|1:243,2,125.999996154785,14|10|8,0:2|0:2|0:2,0:0:0:0:
135,263,45268,1,2,1:2:0:0:
188,319,45440,2,0,L|249:303,1,62.9999980773926,10|2,0:2|1:2,0:0:0:0:
296,366,45783,6,0,P|357:350|417:333,1,125.999996154785,14|10,0:2|0:2,0:0:0:0:
482,375,46297,1,2,1:2:0:0:
512,300,46468,1,8,0:2:0:0:
416,249,46640,1,2,1:2:0:0:
416,249,46726,1,0,1:2:0:0:
416,249,46811,1,8,0:2:0:0:
441,172,46983,1,2,0:2:0:0:
391,100,47154,6,0,L|452:84,2,62.9999980773926,6|0|10,1:2|1:2|0:2,0:0:0:0:
305,54,47668,2,0,L|244:38,2,62.9999980773926,6|0|10,1:2|1:2|0:2,0:0:0:0:
385,0,48183,1,2,1:2:0:0:
385,0,48354,1,6,1:2:0:0:
412,358,49554,5,10,0:2:0:0:
412,358,49897,2,0,L|305:335,1,97.9999970092774,6|0,1:2|0:0,0:0:0:0:
262,268,50411,1,2,1:2:0:0:
262,268,50583,2,0,L|155:291,1,97.9999970092774,2|10,1:2|0:0,0:0:0:0:
25,371,51268,6,0,P|10:295|2:260,1,97.9999970092774,2|0,1:2|0:0,0:0:0:0:
77,228,51782,1,0,1:2:0:0:
77,228,51954,2,0,P|87:180|96:131,1,97.9999970092774,0|10,1:2|0:2,0:0:0:0:
17,5,52640,6,0,P|47:49|96:40,1,97.9999970092774,2|2,1:2|0:2,0:0:0:0:
165,88,53154,1,2,1:2:0:0:
165,88,53326,2,0,L|272:65,1,97.9999970092774,2|8,1:2|0:2,0:0:0:0:
378,140,54011,6,0,B|387:178|387:178|374:193|374:193|386:245,1,97.9999970092774,2|0,1:2|0:0,0:0:0:0:
402,315,54526,1,2,1:2:0:0:
402,315,54697,2,0,L|304:294,1,97.9999970092774,2|10,1:2|0:2,0:0:0:0:
213,196,55383,6,0,L|115:217,1,97.9999970092774,2|0,1:2|0:0,0:0:0:0:
30,192,55897,1,2,1:2:0:0:
30,192,56068,2,0,B|37:212|37:212|19:262|19:262|29:286,1,97.9999970092774,2|10,1:2|0:2,0:0:0:0:
124,357,56754,6,0,L|219:336,1,97.9999970092774,0|0,1:2|0:0,0:0:0:0:
295,380,57268,1,0,1:2:0:0:
295,380,57440,2,0,B|326:368|326:368|334:346|334:346|374:335,1,97.9999970092774,0|8,1:2|0:2,0:0:0:0:
427,268,57954,5,2,0:2:0:0:
427,268,58126,1,2,1:2:0:0:
484,213,58297,2,0,L|470:156,1,48.9999985046387,2|0,0:0|0:0,0:0:0:0:
510,97,58640,1,2,1:2:0:0:
510,97,58811,2,0,L|447:78,1,48.9999985046387,2|2,1:2|0:0,0:0:0:0:
423,15,59154,2,0,L|360:-4,1,48.9999985046387,8|2,1:2|0:0,0:0:0:0:
299,39,59497,5,0,1:2:0:0:
299,39,59840,2,0,L|189:61,2,97.9999970092774,8|8|8,0:2|0:2|0:2,0:0:0:0:
368,97,60697,1,8,0:2:0:0:
368,97,60868,6,0,L|344:222,1,125.999996154785,6|10,1:2|0:2,0:0:0:0:
253,293,61383,2,0,B|209:277|209:277|200:252|200:252|141:229,1,125.999996154785,2|2,0:2|1:2,0:0:0:0:
87,281,61897,1,8,0:2:0:0:
181,118,62240,6,0,P|220:113|255:182,1,125.999996154785,0|8,1:2|0:2,0:0:0:0:
344,220,62754,2,0,L|476:194,1,125.999996154785,0|0,0:0|1:2,0:0:0:0:
512,262,63268,1,8,0:2:0:0:
383,34,63611,6,0,B|373:75|373:75|335:92|335:92|324:143,1,125.999996154785,6|10,1:2|0:2,0:0:0:0:
255,180,64126,2,0,L|124:153,1,125.999996154785,2|2,0:2|1:2,0:0:0:0:
89,88,64640,1,8,0:2:0:0:
3,224,64982,6,0,L|16:290,1,62.9999980773926,0|0,1:2|0:0,0:0:0:0:
84,340,65326,2,0,B|128:324|128:324|137:299|137:299|196:276,1,125.999996154785,10|2,0:2|0:2,0:0:0:0:
253,323,65840,1,0,1:2:0:0:
320,282,66011,1,10,0:2:0:0:
441,378,66354,5,6,1:2:0:0:
441,378,66697,1,2,1:2:0:0:
320,282,67040,6,0,L|303:212,1,62.9999980773926,0|0,1:2|0:0,0:0:0:0:
377,138,67383,2,0,L|360:68,1,62.9999980773926,0|0,1:2|0:0,0:0:0:0:
420,15,67726,5,4,1:2:0:0:
420,15,68068,1,2,1:2:0:0:
287,130,68411,6,0,L|216:114,1,62.9999980773926,2|0,1:2|0:0,0:0:0:0:
181,24,68754,2,0,L|110:8,1,62.9999980773926,2|0,1:2|0:0,0:0:0:0:
45,80,69097,5,6,1:2:0:0:
45,80,69268,1,0,1:2:0:0:
107,144,69440,1,2,1:2:0:0:
107,144,69611,1,2,1:2:0:0:
43,209,69783,2,0,L|58:281,1,62.9999980773926,4|0,1:2|1:2,0:0:0:0:
135,284,70126,2,0,L|150:356,1,62.9999980773926,0|2,1:2|1:2,0:0:0:0:
224,372,70468,6,0,L|256:364,15,31.4999990386963,6|0|2|0|2|0|0|0|0|0|0|0|0|0|0|0,1:2|1:2|1:2|1:2|1:2|1:2|1:2|1:2|1:2|1:2|1:2|1:2|1:2|1:2|1:2|1:2,0:0:0:0:
483,32,73211,6,0,B|424:48|424:48|409:89|409:89|335:109,1,167.999994873047,6|8,1:2|0:2,0:0:0:0:
291,179,73726,1,2,0:2:0:0:
291,179,73897,2,0,L|200:155,1,83.9999974365235,2|0,0:2|1:2,0:0:0:0:
172,88,74240,1,8,0:2:0:0:
99,204,74411,1,2,0:2:0:0:
99,204,74583,2,0,L|12:181,1,83.9999974365235,2|2,1:2|0:2,0:0:0:0:
41,300,74926,2,0,L|214:261,1,167.999994873047,10|2,0:2|0:2,0:0:0:0:
257,334,75440,1,0,1:2:0:0:
257,334,75611,6,0,L|351:310,1,83.9999974365235,10|2,0:2|0:2,0:0:0:0:
405,365,75954,2,0,L|499:341,1,83.9999974365235,2|0,1:2|0:0,0:0:0:0:
512,254,76297,2,0,L|418:230,1,83.9999974365235,10|2,0:2|0:2,0:0:0:0:
387,160,76640,2,0,L|293:136,1,83.9999974365235,0|0,0:2|1:2,0:0:0:0:
254,71,76983,1,10,0:2:0:0:
254,71,77154,1,2,0:2:0:0:
186,12,77326,6,0,P|154:6|121:82,1,125.999996154785,0|0,1:2|0:0,0:0:0:0:
111,82,77668,2,0,P|88:120|169:197,1,167.999994873047,10|2,0:2|0:2,0:0:0:0:
185,125,78183,1,0,1:2:0:0:
185,125,78354,1,10,0:2:0:0:
0,176,78697,6,0,L|36:347,1,167.999994873047,2|10,1:2|0:2,0:0:0:0:
103,379,79211,2,0,P|139:368|150:325,1,83.9999974365235,2|0,0:2|0:0,0:0:0:0:
102,269,79554,1,0,1:2:0:0:
102,269,79726,1,8,0:2:0:0:
225,371,80068,6,0,B|284:355|284:355|299:314|299:314|373:294,1,167.999994873047,2|8,1:2|0:2,0:0:0:0:
420,350,80583,1,2,0:2:0:0:
477,297,80754,2,0,L|455:216,1,83.9999974365235,2|2,0:2|1:2,0:0:0:0:
512,160,81097,1,10,0:2:0:0:
512,160,81268,1,2,0:2:0:0:
446,86,81440,6,0,L|280:121,1,167.999994873047,2|10,1:2|0:2,0:0:0:0:
221,60,81954,2,0,B|179:48|179:48|169:20|169:20|117:6,1,125.999996154785,2|0,0:2|0:0,0:0:0:0:
105,19,82297,1,2,1:2:0:0:
39,79,82468,2,0,L|56:176,1,83.9999974365235,10|0,0:2|0:0,0:0:0:0:
146,150,82811,6,0,L|128:247,1,94.499997116089,0|0,1:2|0:0,0:0:0:0:
141,257,83154,2,0,L|253:235,1,112,10|2,0:2|0:2,0:0:0:0:
316,290,83668,1,0,1:2:0:0:
316,290,83840,1,10,0:2:0:0:
495,122,84183,6,0,B|399:87|399:87|437:101|435:140,1,167.999994873047,6|8,1:2|0:2,0:0:0:0:
377,191,84697,1,2,0:2:0:0:
377,191,84868,2,0,L|281:167,1,83.9999974365235,2|0,0:2|1:2,0:0:0:0:
246,107,85211,1,8,0:2:0:0:
172,178,85383,1,2,0:2:0:0:
172,178,85555,2,0,L|85:155,1,83.9999974365235,2|0,1:2|0:2,0:0:0:0:
18,191,85897,2,0,B|30:144|30:144|94:128|94:128|113:59,1,167.999994873047,10|2,0:2|0:2,0:0:0:0:
180,7,86412,1,0,1:2:0:0:
180,7,86583,6,0,L|274:31,1,83.9999974365235,10|2,0:2|0:2,0:0:0:0:
320,95,86926,2,0,L|414:119,1,83.9999974365235,6|0,1:2|0:0,0:0:0:0:
448,201,87268,2,0,L|354:225,1,83.9999974365235,10|2,0:2|0:2,0:0:0:0:
332,301,87611,2,0,L|238:325,1,83.9999974365235,0|0,0:2|1:2,0:0:0:0:
181,268,87954,1,10,0:2:0:0:
181,268,88126,1,2,0:2:0:0:
119,356,88298,6,0,P|89:370|37:306,1,125.999996154785,0|0,1:2|0:0,0:0:0:0:
38,294,88640,2,0,P|5:263|62:167,1,167.999994873047,10|2,0:2|0:2,0:0:0:0:
96,238,89155,1,0,1:2:0:0:
96,238,89326,1,10,0:2:0:0:
108,47,89668,6,0,L|0:78,2,112,6|2|2,1:2|1:2|1:2,0:0:0:0:
223,163,90697,1,2,1:2:0:0:
223,163,90868,1,2,0:2:0:0:
288,209,91040,6,0,L|346:190,1,56,4|2,1:2|0:2,0:0:0:0:
414,226,91383,2,0,L|472:207,1,56,0|2,1:2|0:2,0:0:0:0:
512,143,91726,2,0,B|534:107|534:107|509:67,2,83.9999974365235,0|2|0,1:2|0:2|1:2,0:0:0:0:
440,371,92411,6,0,L|513:346,2,70,4|0|0,1:2|1:2|1:2,0:0:0:0:
370,312,92926,1,0,1:2:0:0:
370,312,93097,2,0,L|297:287,2,70,4|0|0,1:2|1:2|1:2,0:0:0:0:
435,249,93612,1,4,1:2:0:0:
300,111,93954,5,0,1:2:0:0:
240,169,94125,1,0,1:2:0:0:
164,125,94297,1,0,1:2:0:0:
105,198,94468,5,0,1:2:0:0:
100,205,94554,1,0,1:2:0:0:
95,212,94640,2,0,L|105:258,1,35,0|0,1:2|1:2,0:0:0:0:
125,323,94811,1,8,0:0:0:0:
0,161,95154,5,4,0:2:0:0:
